#TITLE:Empire State Glory;
#SUBTITLE:Beatmania IIDX 17th - Sirius;
#ARTIST:Dirty Androids;
#CREDIT:;
#MUSIC:Empire State Glory.mp3;
#SELECTABLE:YES;
#BACKGROUND:;
#BANNER:;
#CDTITLE:;
#DISPLAYBPM:173.000:173.000;
#OFFSET:-0.37;
#SAMPLESTART:0.000;
#SAMPLELENGTH:0.000;
#BPMS:0=173.009,2=172.998,4=173.009,6=172.998,9=173.009,11=172.998,14=173.009,16=172.998,19=173.009,21=172.998,24=173.009,26=172.998,29=173.009,31=172.998,34=173.009,35=172.998,36=173.009,37=172.998,39=173.009,40=172.998,41=173.009,42=172.998,44=173.009,45=172.998,46=173.009,47=172.998,49=173.009,50=172.998,51=173.009,52=172.998,54=173.009,55=172.998,56=173.009,57=172.998,59=173.009,60=172.998,61=173.009,62=172.998,64=173.009,65=172.998,66=173.009,67=172.998,69=173.009,70=172.998,72=173.009,73=172.998,74=173.009,75=172.998,77=173.009,78=172.998,79=173.009,80=172.998,82=173.009,83=172.998,84=173.009,85=172.998,87=173.009,89=172.998,91=173.009,92=172.998,93=173.009,94=172.998,96=173.009,97=172.998,98=173.009,99=172.998,101=173.009,102=172.998,103=173.009,104=172.998,106=173.009,107=172.998,108=173.009,109=172.998,111=173.009,112=172.998,113=173.009,114=172.998,116=173.009,117=172.998,118=173.009,119=172.998,121=173.009,122=172.998,123=173.009,124=172.998,126=173.009,127=172.998,128=173.009,129=172.998,131=173.009,132=172.998,133=173.009,134=172.998,138=173.009,139=172.998,143=173.009,144=172.998,148=173.009,149=172.998,153=173.009,154=172.998,158=173.009,159=172.998,163=173.009,164=172.998,168=173.009,169=172.998,173=173.009,174=172.998,177=173.009,178=172.998,182=173.009,183=172.998,187=173.009,188=172.998,192=173.009,193=172.998,197=173.009,198=172.998,202=173.009,203=172.998,207=173.009,208=172.998,212=173.009,213=172.998,217=173.009,218=172.998,222=173.009,223=172.998,227=173.009,228=172.998,232=173.009,233=172.998,237=173.009,238=172.998,242=173.009,243=172.998,247=173.009,248=172.998,252=173.009,253=172.998,257=173.009,258=172.998,261=173.009,262=172.998,266=173.009,267=172.998,271=173.009,272=172.998,276=173.009,277=172.998,281=173.009,282=172.998,286=173.009,287=172.998,291=173.009,292=172.998,296=173.009,297=172.998,301=173.009,302=172.998,306=173.009,307=172.998,311=173.009,312=172.998,316=173.009,317=172.998,321=173.009,322=172.998,326=173.009,327=172.998,331=173.009,332=172.998,336=173.009;
#STOPS:;

//---------------dance-single - ----------------
#NOTES:
     dance-single:
     :
     Challenge:
     17:
     0.000,0.000,0.000,0.000,0.000:
0000
0000
0000
0000
,
0000
0000
0000
0000
,
0000
0000
0000
0000
,
0000
0000
0000
0000
,
0000
0000
0000
0000
,
0000
0000
0000
0000
,
0000
0000
0000
0000
,
0000
0000
0000
0000
,
0000
0000
0000
0000
,
0001
0001
0001
0001
,
0001
0001
0001
0001
,
0001
0001
0001
0001
,
0001
0000
0001
0000
0001
0000
0001
0001
,
0001
0100
0001
1000
0001
0100
0001
0010
,
0001
0100
0001
1000
0001
0100
0001
0011
,
0001
1001
0001
0101
0001
0011
0001
0101
,
0001
1010
0000
0000
0101
0000
0000
1100
0000
0000
0011
0000
1010
0000
0000
0000
,
1001
0100
0010
0100
0001
0100
0010
1000
0100
0000
0010
0000
0001
0000
0000
0000
,
1001
0010
0100
0010
1000
0010
0100
0001
0010
0000
0100
0000
1000
0000
0000
0000
,
0101
0010
0100
0001
0100
1000
0100
0010
0001
0000
0010
0000
0100
0000
0000
0000
,
1001
0100
0010
1000
0010
0001
0010
0100
1000
0000
0100
0000
0010
0000
0001
0000
,
0010
0100
0002
0003
1000
0200
0300
0010
,
0002
0003
0010
2000
3000
0002
0003
1000
,
1000
0100
0200
0300
1000
0002
0003
0100
,
0020
0030
0100
0001
0010
0100
0010
0100
,
1001
0010
1000
0100
1000
0010
0100
0001
0100
0000
0010
0000
1000
0000
0100
0000
,
1001
0010
0001
1000
0001
0100
0010
0001
0010
0000
0100
0000
0001
0000
0010
0000
,
1001
0010
0001
0100
1000
0010
1000
0100
0001
0000
0100
0000
1000
0000
0100
0000
,
1001
0100
0001
0010
1000
0010
0100
0010
0001
0000
0010
0000
0100
0000
0010
0000
,
1001
0010
0200
0300
0010
0002
0003
0010
,
2000
3000
0100
0001
0100
0002
0003
0010
,
0101
0110
1010
0110
0101
0011
0101
0110
,
1010
0100
0001
0100
0001
0010
1000
0010
1000
0010
0001
0100
1001
0000
0000
0000
,
0010
1000
0010
1000
0010
0000
0100
0000
0001
0000
0010
0000
0100
1000
0100
0000
,
0010
0000
0001
0000
1000
0010
1000
0010
1000
0000
0100
0000
0001
0000
0000
0000
,
0010
1000
0010
0100
0010
0000
0001
0000
0100
0000
0010
0000
0100
0001
0100
0000
,
0010
0000
0001
1000
0001
0000
0010
0000
0001
0010
0001
0100
0010
0000
0000
0000
,
0100
0001
0100
0010
1000
0000
0100
0000
1000
0000
0010
0000
0100
0001
0010
0000
,
0100
1000
0010
0000
0100
0001
0010
0001
0100
0000
0010
0000
1000
0000
0000
0000
,
0100
0001
0100
1000
0100
0000
0010
0000
0100
0000
0010
1000
0010
0000
0100
0001
,
0010
0000
1000
0000
0100
0001
0100
0001
0100
0000
0010
0000
0001
0000
0000
0000
,
1001
0100
0010
0001
0100
0010
0001
1000
0100
0010
0100
0001
1000
0010
0100
0010
,
0001
0010
0100
1000
0010
0100
1000
0001
0010
0100
0010
1000
0001
0100
0010
0100
,
1000
0100
0010
0001
0100
0010
1000
0100
0010
0001
1000
0100
1000
0100
0010
0100
,
0001
0010
0100
1000
0010
0100
0001
0010
0100
1000
0001
0010
0001
0010
0100
0010
,
1000
0100
0010
0100
0010
0001
1000
0100
0010
0001
0010
0100
1000
0010
0100
1000
,
0001
0010
0100
0010
0100
1000
0001
0010
0100
1000
0100
0010
0001
0100
0010
0001
,
1000
0010
0100
0010
1000
0010
0001
0010
0100
0010
0001
1000
0001
0010
0100
1000
,
0001
0100
0010
0100
0001
0010
0001
1000
0010
0001
1000
0010
1000
0100
0010
0001
,
1001
0010
0100
0010
0001
1000
0100
0010
,
0001
0010
0100
1000
0010
0000
0001
0000
1000
0000
0100
0000
1000
0000
0100
0000
,
0010
0001
0100
0010
1000
0100
1000
0010
,
0100
0010
0001
0010
0001
0000
0010
0000
0100
0000
1000
0000
0100
0000
0000
0000
,
1000
0010
0100
0001
0010
0100
0001
0010
,
0100
1000
0100
1000
0100
0000
0010
0000
0001
0000
0010
0000
0100
0000
0010
0000
,
1001
0000
1000
1000
0000
0001
0001
0000
1000
1000
0000
0010
0010
0000
0100
0100
,
1001
0000
0000
0000
0010
0100
0010
0000
1001
0000
0000
0000
0000
0000
0000
0000
,
2010
0000
0000
3002
0000
0023
0000
0000
,
0230
0000
0000
0320
0000
2030
0000
0000
,
3200
0000
0000
0302
0000
0203
0000
0000
,
0320
0000
0000
0230
0000
2300
0000
0000
,
3002
1000
1000
0203
1000
1302
0000
1000
,
1203
0000
0001
0321
0000
2031
0000
0000
,
3100
0010
0100
0010
0100
0010
0100
0010
,
1000
0001
1000
0001
1000
0001
1000
0001
1000
0001
0010
0100
1001
0100
0010
0100
,
1002
0000
0000
0203
0000
0000
0302
0000
,
0203
0000
0000
0320
0000
0000
0032
0000
,
2003
0000
0000
3020
0000
0000
0032
0000
,
2003
0000
3200
0320
,
0032
0000
0000
0023
0000
0000
2030
0000
,
3020
0000
0000
0230
0000
0000
2300
0000
,
3002
0000
0023
0230
,
2300
0000
0000
0000
,
3100
0010
0001
1000
0010
1000
0001
0010
0001
1000
0010
0001
0010
1000
0100
0001
,
1000
0100
0010
0001
0100
1000
0001
0010
0100
0001
0010
1000
0100
0001
0100
1000
,
0001
1000
0100
0010
1000
0001
1000
0100
0010
0001
0100
0010
0100
0001
0010
1000
,
0001
0010
0100
1000
0010
0001
1000
0010
1000
0100
0010
0001
0100
0001
0010
1000
,
0010
1000
0100
0001
0100
1000
0001
0100
0010
1000
0001
0100
0010
1000
0100
0001
,
0100
1000
0010
1000
0001
0100
1000
0001
0010
1000
0100
0001
0100
1000
0010
0001
,
0100
1000
0001
1000
0010
0001
0100
0001
0100
1000
0010
1000
0001
0100
1000
0001
,
1000
0010
0001
0100
0001
1000
0100
0010
0001
0010
0001
0010
0100
1000
0100
1000
,
0000
0000
0000
0000
,
0000
0000
0000
0000
,
0000
0000
0000
0000
,
0000
0000
0000
0000
;
