#TITLE:Dual Strikers;
#SUBTITLE:DJ MAX Technika 2;
#ARTIST:7 Sequence;
#CREDIT:;
#MUSIC:Dual Strikers.mp3;
#SELECTABLE:YES;
#BACKGROUND:;
#BANNER:;
#CDTITLE:;
#OFFSET:-0.8;
#SAMPLESTART:0.000;
#SAMPLELENGTH:0.000;
#BPMS:0=152.025,1=151.999,9=152.025,10=151.999,19=152.025,20=151.999,29=152.008,30=151.999,37=152.008,38=151.999,45=152.008,46=151.999,53=152.008,54=151.999,62=152.008,63=151.999,70=152.008,71=151.999,78=152.008,79=151.999,86=152.008,87=151.999,94=152.008,95=151.999,102=152.008,103=151.999,110=152.008,111=151.999,194=151.99,195=151.999,265=151.99,266=151.999,278=151.99,279=151.999;
#STOPS:;

//---------------dance-single - ----------------
#NOTES:
     dance-single:
     :
     Challenge:
     15:
     0.000,0.000,0.000,0.000,0.000:
0000
0000
0000
0000
,
1001
0000
0000
0000
,
0000
0000
0000
0002
,
0000
1003
0000
0000
,
0000
0000
0000
1001
,
0010
0010
0000
1000
0000
0000
0000
0000
,
0000
0000
0000
0020
,
0000
0000
1030
0000
0000
0000
0001
0001
,
0000
0000
0000
0000
0011
0000
0000
0101
0000
0000
1100
0000
0000
1010
0000
0000
,
0001
0100
0000
0001
0010
0000
0010
1000
0000
0100
1000
0000
1000
0100
0000
0100
,
0000
0000
0000
0010
0001
0000
0001
0000
0100
1000
0000
0100
0010
0000
0100
0000
,
1000
0100
0000
0001
0100
0000
1000
0000
0010
0100
0000
0010
0001
0000
1000
0000
,
0100
0010
0000
0001
0010
0000
0010
0000
1000
0010
0000
0001
0010
0000
1000
0000
,
0100
0010
0000
0100
0001
0000
0001
0100
0000
0001
0010
0000
0001
0100
0010
1000
,
0000
0000
0000
0100
1000
0000
0100
0000
0100
0010
0000
1000
0010
0000
0010
0000
,
0001
0010
0000
0100
0010
0000
1000
0000
0100
0010
0000
0001
1000
0000
0010
0000
,
0001
0000
1000
0100
0000
0010
0002
0000
0003
1000
0100
0000
0001
0010
0100
1000
,
0200
0000
0310
1000
0000
0000
0001
0000
0000
0010
0000
0000
1000
0000
1000
0010
,
1000
0100
0000
0010
0000
0000
0001
0000
0000
0100
0000
0000
2020
0000
3030
0000
,
0002
0000
0013
0100
0000
0000
1000
0000
0000
0100
0000
0000
0010
0000
0001
0100
,
0001
0010
0000
0010
0000
0000
0100
0000
0000
1000
0000
0000
1000
0010
0100
0001
,
0020
0000
0031
0100
0000
0000
1000
0000
0000
0100
0000
0000
0010
0000
0010
1000
,
0010
0001
0000
0100
0000
0000
0001
0000
0000
0010
0000
0000
2200
0000
3300
0000
,
0020
0000
0130
0001
0000
0000
1000
0000
0000
0100
0000
0000
0010
0000
1000
0010
,
1000
0001
0000
0010
0000
0000
0001
0000
0000
0100
0000
0000
0010
0100
0001
0100
,
2000
0000
3010
0100
0000
0000
0010
0000
0000
0001
0000
0000
0100
0000
0010
0100
,
0001
0010
0000
0010
0000
0000
0100
0000
0000
1000
0000
0000
2200
0000
3300
0000
,
0002
0000
1003
0010
0000
0000
1000
0000
0000
0010
0000
0000
0001
0000
0100
0010
,
0100
1000
0000
0001
0000
0000
0100
0000
0000
1000
0000
0000
1000
0100
0010
0001
,
0020
0000
0031
0001
0000
0000
1000
0000
0000
0100
0000
0000
0010
0000
0001
0010
,
0001
1000
0000
0010
0000
0000
0100
0000
0000
1000
0000
0000
0022
0000
0033
0000
,
1000
0100
0010
0001
1000
0100
0010
0001
,
0001
0100
0001
0100
1000
0010
1000
0010
1000
0100
1000
0100
0001
0010
0001
0010
,
1001
0000
0001
0000
1000
0010
0100
0001
,
1000
0000
0000
0000
1000
0000
0000
0000
0000
0000
1000
0010
0000
0000
0000
0000
,
0010
0000
0010
0000
0001
0100
0010
1000
,
0100
0000
0000
0000
0100
0000
0000
0000
0000
0000
0100
0001
0000
0000
0000
0000
,
0001
0000
0001
0000
1000
1000
0100
0100
,
0001
0000
0000
0000
0001
0000
0000
0000
0000
0000
0010
1000
0000
0000
0000
0000
,
0100
0000
0100
0000
0001
0001
0010
0010
,
1000
0000
0000
0000
0000
0000
1000
0000
1001
0000
0001
0100
0001
0100
0001
0100
,
1001
0000
0010
1000
0000
1000
0010
0000
0010
0001
0000
0001
0010
0000
0010
1000
,
0010
0000
0010
0001
0000
0010
1000
0000
1000
0001
0000
1000
0010
0000
0001
0100
,
0001
0000
0010
1000
0000
0001
0100
0000
0010
1000
0000
0001
0100
0000
0010
1000
,
0010
0000
1000
0010
0000
0100
0001
0000
1000
0010
0000
0100
0001
0000
0001
0010
,
0001
0000
0001
0010
0000
0100
1000
0000
0010
0100
0000
0001
0010
0000
0001
0010
,
0001
0000
0010
0001
0000
1000
0100
0000
0010
0001
0000
1000
0100
0000
0100
1000
,
0100
0010
0001
0010
0100
1000
0100
0010
,
0001
0010
0001
0100
0001
1000
0001
0100
0001
0010
0001
0100
0010
0100
1000
0100
,
0101
0000
0000
0000
,
1002
0000
0000
0203
0300
0000
0020
0000
0000
0230
0000
0000
0302
0000
0103
1000
,
0100
1000
0000
0002
0003
0000
0200
0000
0000
0320
0000
0000
2230
0000
0000
3300
,
2001
0000
0000
3020
0030
0000
0200
0000
0000
0320
0000
0000
2030
0000
3010
0001
,
0010
0001
0000
2000
3000
0000
0020
0000
0000
0230
0000
0000
0301
0010
0100
1000
,
0201
0000
0310
2000
3000
0000
0020
0000
0000
0230
0000
0000
0302
0000
0013
0001
,
0010
0001
0000
2200
3300
0000
0002
0000
0000
0023
0000
0000
2230
0000
0000
3300
,
1020
0000
0130
0001
0000
0000
0200
0000
0000
0320
0000
0000
2030
0000
3100
1000
,
0100
1000
0000
0022
0033
0000
2200
0000
3300
0022
0000
0033
0010
0001
1000
0100
,
1200
0000
1300
0100
0000
0000
0002
0000
0000
0023
0000
0000
0230
0000
1300
0010
,
1000
0100
0000
0020
0030
0000
0002
0000
0000
0203
0000
0300
0202
0000
0000
0303
,
0021
0000
0031
0010
0000
0000
2000
0000
0000
3200
0000
0000
0320
0000
0031
0100
,
0001
0010
0000
0200
0300
0000
2000
0000
0000
3020
0000
0000
1030
0010
0100
0001
,
0101
0000
0000
1010
0000
0000
0110
0000
0000
0101
0000
0000
0011
0000
0000
1100
,
0000
0000
0110
0000
0000
0011
0000
0000
0101
0000
0000
1010
0000
0000
0101
0000
,
1001
0011
0101
1100
1010
0110
0101
0110
,
1010
0100
0001
0010
1000
0010
0001
0010
1000
0100
0001
0100
1000
0100
0001
0010
,
1001
0000
0000
0000
,
0000
0000
0000
0000
,
0000
0000
0000
0000
,
0000
0000
0000
0000
,
0000
0000
0000
0000
;
