#TITLE:Dream of Winds;
#SUBTITLE:DJMAX Portable 3;
#ARTIST:XeoN;
#CREDIT:;
#MUSIC:Dream of Winds.mp3;
#SELECTABLE:YES;
#BACKGROUND:;
#BANNER:;
#CDTITLE:;
#OFFSET:-0.08;
#SAMPLESTART:0.000;
#SAMPLELENGTH:0.000;
#BPMS:0=150;
#STOPS:;

//---------------dance-single - ----------------
#NOTES:
     dance-single:
     :
     Hard:
     13:
     0.000,0.000,0.000,0.000,0.000:
0000
0000
0000
0000
,
1001
1000
0100
0010
,
1010
0001
0010
0100
,
0101
1000
0100
0010
,
0011
0001
0010
0100
,
1100
0100
0010
0001
,
0011
0010
0100
1000
,
1100
0001
0010
0100
,
0110
1000
0100
0010
,
0110
0001
1100
0000
0010
0000
0011
0000
,
0100
1000
0011
0000
0100
0000
1100
0000
,
0100
0010
0011
0000
0010
0000
1100
0000
,
0010
0100
1100
0000
0100
0000
0011
0000
,
0010
1000
0011
0000
1000
0000
0110
0000
,
0100
0001
1100
0000
0001
0000
0110
0000
,
0010
1000
1100
0000
1000
0000
1100
0000
,
0100
0001
0011
0000
0001
0000
0011
0001
,
0001
0010
0011
0000
1000
0100
1100
0000
,
1000
0010
1010
0000
0001
0100
0101
0000
,
0010
1000
1100
0000
0100
0001
0011
0000
,
0001
0100
1010
0000
1000
0010
0101
0000
,
1000
0100
0011
0000
0001
0010
1100
0000
,
0010
0100
0011
0000
0100
0010
1100
0000
,
0001
0010
0000
0010
0000
0000
1000
0000
1000
0100
0000
0100
0000
0000
0001
0000
,
0001
0000
1000
0000
1000
0000
0001
0010
0001
0010
0001
1000
0100
1000
0100
0000
,
1001
0000
0001
0000
0100
0001
0000
0010
,
0000
0000
0000
0000
0010
0000
0000
0001
0000
0000
0001
0000
0010
0000
0100
0000
,
1000
0000
1000
0000
0000
0010
0000
1000
,
0000
0000
0100
1000
0000
1000
0000
0001
,
0000
0000
0100
0000
0000
0100
0000
0001
,
0000
0000
0001
0000
0001
0010
0000
0100
,
1000
0000
1000
1000
0000
0100
0001
0000
,
0010
0000
0100
0010
0000
0001
0000
0010
,
1001
0000
0010
0000
0000
0010
0000
0001
,
0000
0000
0000
0000
0001
0000
0000
0001
0000
0000
0001
0000
0010
0000
0100
0000
,
1000
0000
0010
0000
0000
0010
0000
0001
,
0000
0000
0010
1000
0000
0010
0000
0001
,
0000
0000
1000
0000
0000
0010
0000
0010
,
0000
0000
0001
0000
1000
0010
0000
0010
,
1000
0000
0001
1000
0000
0010
0000
0000
0001
0000
0001
0100
0000
0010
0000
0000
,
1001
0000
0000
0000
0001
0010
0100
1000
,
1001
0000
0100
0001
0000
1000
0010
0000
0010
0001
0000
1000
0100
0000
0010
0000
,
1001
0000
0010
1000
0000
0001
0100
0000
0100
1000
0000
0001
0010
0000
0100
0000
,
1001
0010
0001
0010
0000
0000
1000
0100
1000
0100
0000
0000
0010
0000
0001
0000
,
1000
0100
1000
0100
0000
0000
0001
0010
0001
0010
0000
0000
0100
0000
1000
0000
,
1001
0000
0100
1000
0000
1000
0010
0000
0010
1000
0000
1000
0001
0000
1000
0000
,
1001
0100
0010
0001
0000
0000
0001
0010
0100
1000
0100
0010
0000
0000
0010
0000
,
1001
0100
0001
0100
0000
0000
1000
0010
1000
0010
0000
0000
0100
0000
0001
0000
,
1000
0010
1000
0010
0000
0000
0001
0100
0001
0100
0000
0000
0010
0000
1000
0000
,
1001
0000
0100
0001
0000
0010
0001
0000
0100
1000
0000
0010
1000
0000
0100
0000
,
1001
0000
0100
1000
0000
0010
1000
0000
0100
0001
0000
0010
0001
0000
0010
0000
,
1001
0010
0100
0010
0000
0000
0100
0010
0100
1000
0000
0000
0100
0000
0010
0000
,
1000
0100
0010
0100
0000
0000
0010
0100
0010
0001
0000
0000
0010
0000
0100
0000
,
1001
0000
0100
0010
0000
1000
0010
0000
0010
0001
0000
0100
0001
0000
0010
0000
,
1001
0000
0100
0001
0000
0010
0001
0010
0001
0000
1000
0100
0000
0000
0010
0000
,
1001
0000
1000
0000
1010
0000
1000
0100
1100
0000
0100
0000
0110
0000
0010
0001
,
0100
0010
1000
0100
0010
0001
0100
0010
1000
0000
0000
1001
0000
0000
1001
0000
,
0001
0000
0000
0000
,
0000
1000
0100
0010
0001
0000
0000
0000
,
0100
0001
0100
1000
,
0000
0000
1000
0100
,
0001
0000
0100
0000
,
0010
0000
0001
0000
,
1000
0000
0000
0000
0100
0010
0001
0010
,
1000
0000
0000
0002
,
1003
0000
0100
0010
,
1000
0000
0000
0000
0010
0001
0100
0010
,
0001
0000
0010
0000
,
1000
0000
0010
0001
,
0010
0000
0000
0000
,
1000
0010
0100
0001
,
0010
0000
0000
0000
0001
0100
0001
0100
,
1000
0000
0010
0000
1000
0000
0010
0000
0001
0000
0010
1000
0000
1000
0000
0000
,
1001
0000
0011
1000
0000
0110
0000
0001
,
1000
0000
0000
0000
0010
0000
0010
1000
0000
0000
0100
0000
1010
0000
0100
0000
,
0011
0000
0000
1000
0100
0000
0000
0000
0000
0000
0001
0000
0000
0000
1000
0000
,
0010
0000
0000
0000
0010
0000
1100
0000
0000
0000
0011
0000
0100
1000
0000
0000
,
0110
0000
0001
0001
0000
0100
0000
1000
,
1000
0000
0001
0010
0000
1000
0011
1000
,
0110
0000
0010
0001
0000
0100
0000
0000
1000
0000
0100
0010
0000
1000
0000
0000
,
0100
0000
0010
0001
0000
0100
0000
0000
1000
0000
0100
0010
0000
1000
0000
0000
,
0011
0000
0100
0010
0000
0010
0000
0001
,
1001
0000
0000
0000
0100
0000
1100
0000
0000
0000
0110
0000
0000
0010
0001
0000
,
0001
0000
0000
0001
0000
0000
0001
0000
0000
0000
0000
0000
0000
0000
0000
0000
,
1000
0000
0000
0000
0000
0000
1000
0000
0000
0000
1000
0000
0000
0100
0001
0000
,
0001
0000
0000
0100
0000
0000
0000
0000
,
0010
0000
0000
0000
0000
0000
1000
0000
0000
0000
1000
0000
0000
0001
0001
0000
,
0010
0000
0000
0100
0000
0000
1000
0000
0000
0000
0001
0000
0000
0100
0000
0001
,
0100
0000
0100
0000
0100
0000
1000
0100
1000
0100
0010
0001
0010
0001
0010
0100
,
1000
0001
0011
0000
0010
1000
1010
0000
,
0100
0001
0101
0000
0001
1000
1100
0000
,
1000
0100
1100
0000
0001
0010
0011
0000
,
0100
0000
0010
0000
0110
0000
0000
0000
0010
0000
0100
0010
0000
0000
0000
0000
,
1000
0001
0011
0000
0100
1000
1100
0000
,
0001
1000
1100
0000
0010
0001
0011
0000
,
0010
0100
1100
0000
0100
0010
0011
0000
,
0110
0010
1000
0001
0100
0010
1000
0001
,
1001
0000
0100
0000
0010
0000
0100
0000
1000
0000
0100
0000
0010
0000
0001
1000
,
0000
0000
0010
0000
0100
0000
0010
0000
0001
0000
0010
0000
0100
0000
1000
0001
,
0000
0000
1000
0000
0010
0000
0100
0000
0001
0000
1000
0000
0010
0000
0010
1000
,
0000
0000
0001
0000
0100
0000
0010
0000
1000
0000
0001
0000
0100
0000
0100
0001
,
0000
0000
0100
0000
0010
0000
1000
0000
0100
0000
0010
0000
0001
0000
0100
0010
,
0000
0000
0010
0000
0100
0000
0001
0000
0010
0000
0100
0000
1000
0000
0010
0100
,
0000
0000
1000
0000
0100
0000
1000
0000
0010
0000
1000
0000
0100
0000
0010
0001
,
0000
0000
0001
0000
0010
0000
0100
0000
1000
0100
1000
0000
0100
0000
0010
0000
,
1002
0000
0000
0023
0000
0000
0230
0000
,
0000
0000
0000
0000
0000
0310
1000
0010
,
2000
0000
0000
3002
0000
0000
0023
0000
,
0000
0000
0000
0000
0000
1030
0010
0100
,
2000
0000
0000
3020
0000
0000
0230
0000
,
0000
0000
0000
0000
0000
1300
0100
0100
,
0002
0000
0000
0023
0000
0000
0032
0000
,
0203
0000
0000
0000
1300
0010
0001
0010
,
2000
0000
0100
3020
0000
0100
2030
0001
,
0000
0000
0000
0000
0001
0000
0000
0001
0000
0000
3001
0000
0100
0000
1000
0000
,
0020
0000
1000
0230
0000
0001
2300
0001
,
0000
0000
0001
0001
0000
3010
0100
0010
,
0002
0000
1000
0023
0000
1000
0230
1000
,
0000
0000
1000
0000
1000
0301
0010
0010
,
0200
0000
0000
2300
0000
0000
3020
0000
,
1031
0000
0000
0000
0100
0100
0010
0010
,
1001
0000
0100
0001
0000
0001
0010
0000
0100
1000
0000
1000
0010
0000
0100
0000
,
1100
0000
0001
0010
0000
0100
1000
0000
1000
0100
0000
0010
0001
0000
0010
0000
,
0011
0000
0100
0001
0000
0100
0001
0000
1000
0010
0000
1000
0010
0000
0010
0000
,
1100
0000
0001
0100
0000
0010
1000
0000
1000
0010
0000
0100
0001
0000
0100
0000
,
0011
0000
0100
1000
0000
0100
1000
0000
0010
0001
0000
0010
0001
0000
0010
0000
,
1100
0000
0010
0001
0000
0010
0001
0000
1000
0100
0000
1000
0100
0000
0100
0000
,
0011
0000
0001
0100
0000
0001
0010
0000
0010
1000
0000
0100
1000
0000
0100
0000
,
0011
0000
1000
0010
0000
1000
0100
0000
0100
0010
0000
0100
0001
0000
0010
0000
,
1100
0000
0100
0010
0000
0010
0001
0000
1000
0100
0000
0100
0010
0000
0001
0000
,
0011
0000
0010
0100
0000
0100
1000
0000
0001
0010
0000
0010
0100
0000
1000
0000
,
1100
0000
0100
0001
0000
0001
0100
0000
0010
1000
0000
1000
0010
0000
0010
0000
,
0011
0000
0010
1000
0000
1000
0010
0000
0100
0001
0000
0001
0100
0000
0100
0000
,
0110
0000
0010
0000
0100
0000
0100
0000
0001
0000
0001
0000
1000
0000
1000
0100
,
0001
0000
0001
0000
1000
0000
1000
0000
0010
0000
0010
0000
0100
0000
0100
0010
,
0001
0100
0001
0100
0001
0100
0001
0100
1000
0100
1000
0100
1000
0100
1000
0100
,
0001
0010
0100
1000
0001
0010
0100
1000
0100
0010
1000
0100
0001
0100
0010
1000
,
1001
0000
0100
0000
0010
0000
0100
0000
1000
0000
0100
0000
0010
0000
0001
0100
,
0000
0000
0010
0000
0100
0000
0010
0000
0001
0000
0010
0000
0100
0000
1000
0010
,
0000
0000
0100
0000
0010
0000
0001
0000
0010
0000
0100
0000
0010
0000
0001
0010
,
0000
0000
0010
0000
0100
0000
1000
0000
0100
0000
0010
0100
0000
0100
1000
0100
,
0000
0000
1000
0000
0100
0000
1000
0000
0010
0000
1000
0000
0100
0000
1000
0010
,
0000
0000
0001
0000
0010
0000
0001
0000
0100
0000
0001
0000
0010
0000
0001
0100
,
0000
0000
0100
0000
1000
0000
0010
0000
0010
0000
0001
0000
0100
0000
0100
0001
,
0210
0000
0000
0000
0001
0001
1000
1300
,
1001
0000
0000
0000
,
0000
0000
0000
0000
,
0000
0000
0000
0000
,
0000
0000
0000
0000
,
0000
0000
0000
0000
,
0000
0000
0000
0000
;
