#TITLE:D2;
#SUBTITLE:DJ MAX Technika 2;
#ARTIST:FIRST AID;
#CREDIT:;
#MUSIC:D2.mp3;
#SELECTABLE:YES;
#BACKGROUND:;
#BANNER:;
#CDTITLE:;
#DISPLAYBPM:*;
#OFFSET:-0.3;
#SAMPLESTART:0.000;
#SAMPLELENGTH:0.000;
#BPMS:0=356.028,1=355.98,2=356.028,3=355.98,4=356.028,5=355.98,7=356.028,8=355.98,9=356.028,10=355.98,12=356.028,13=355.98,14=356.028,15=355.98,16=356.028,17=355.98,19=356.028,20=355.98,21=356.028,22=355.98,23=356.028,24=355.98,26=356.028,27=355.98,28=356.028,29=355.98,31=356.028,32=355.98,33=356.028,34=355.98,35=356.028,36=355.98,38=356.028,39=355.98,40=356.028,41=355.98,43=356.028,44=355.98,45=356.028,46=355.98,48=356.028,49=355.98,50=356.028,51=355.98,53=356.028,54=355.98,55=356.028,56=355.98,58=356.028,59=355.98,60=356.028,61=355.98,63=356.028,64=355.98,65=356.028,66=355.98,67=356.028,68=355.98,70=356.028,71=355.98,72=356.028,73=355.98,74=356.028,75=355.98,77=356.028,78=355.98,79=356.028,80=355.98,81=356.028,82=355.98,84=356.028,85=355.98,86=356.028,87=355.98,88=356.028,89=355.98,90=356.028,91=355.98,93=356.028,94=355.98,95=356.028,96=355.98,97=356.028,98=355.98,100=356.028,101=355.98,102=356.028,103=355.98,104=356.028,105=355.98,106=356.028,107=355.98,109=356.028,110=355.98,111=356.028,112=355.98,113=356.028,114=355.98,116=356.028,117=355.98,118=356.028,119=355.98,120=356.028,121=355.98,122=356.028,123=355.98,125=356.028,126=355.98,127=356.028,128=355.98,129=356.028,130=355.98,132=356.028,133=355.98,134=356.028,135=355.98,136=356.028,137=355.98,138=356.028,139=355.98,141=356.028,142=355.98,144=356.028,145=355.98,146=356.028,147=355.98,149=356.028,150=355.98,152=356.028,153=355.98,154=356.028,155=355.98,157=356.028,158=355.98,160=356.028,161=355.98,162=356.028,163=355.98,165=356.028,166=355.98,168=356.028,169=355.98,170=356.028,171=355.98,173=356.028,174=355.98,176=356.028,177=355.98,178=356.028,179=355.98,181=356.028,182=355.98,184=356.028,185=355.98,186=356.028,187=355.98,189=356.028,190=355.98,192=356.028,193=355.98,194=356.028,195=355.98,197=356.028,198=355.98,200=356.028,201=355.98,202=356.028,203=355.98,205=356.028,206=355.98,208=89.001,210=88.998,211=89.001,213=88.998,214=89.001,216=88.998,217=89.001,219=88.998,220=89.001,222=88.998,223=89.001,224=712.056,227=711.864,228=712.056,230=711.864,231=712.056,234=711.864,235=712.056,237=711.864,238=712.056,240=711.864,241=712.056,244=711.864,245=712.056,247=711.864,248=712.056,250=711.864,251=712.056,254=711.864,255=712.056,257=711.864,258=712.056,261=711.864,262=712.056,264=711.864,265=712.056,268=711.864,269=712.056,271=711.864,272=712.056,274=711.864,275=712.056,278=711.864,279=712.056,281=711.864,282=712.056,285=711.864,286=712.056,288=711.864,289=712.056,291=711.864,292=712.056,295=711.864,296=712.056,298=711.864,299=712.056,302=711.864,303=712.056,305=711.864,306=712.056,309=711.864,310=712.056,312=711.864,313=712.056,315=711.864,316=712.056,319=711.864,320=712.056,325=711.864,326=712.056,329=711.864,330=712.056,333=711.864,334=712.056,337=711.864,338=712.056,341=711.864,342=712.056,346=356.028,347=355.98,348=356.028,349=355.98,351=356.028,352=355.98,353=356.028,354=355.98,355=356.028,356=355.98,358=356.028,359=355.98,360=356.028,361=355.98,363=356.028,364=355.98,365=356.028,366=355.98,367=356.028,368=355.98,370=356.028,371=355.98,372=356.028,373=355.98,375=356.028,376=355.98,377=356.028,378=355.98,380=356.028,381=355.98,382=356.028,383=355.98,384=356.028,385=355.98,387=356.028,388=355.98,389=356.028,390=355.98,392=356.028,393=355.98,394=356.028,395=355.98,396=356.028,397=355.98,399=356.028,400=355.98,401=356.028,402=355.98,404=356.028,405=355.98,406=356.028,407=355.98,408=356.028,409=355.98,411=356.028,412=355.98,413=356.028,414=355.98,416=356.028,417=355.98,418=356.028,419=355.98,420=356.028,421=355.98,423=356.028,424=355.98,425=356.028,426=355.98,428=356.028,429=355.98,430=356.028,431=355.98,432=356.028,433=355.98,435=356.028,436=355.98,437=356.028,438=355.98,440=356.028,441=355.98,442=356.028,443=355.98,445=356.028,446=355.98,447=356.028,448=355.98,449=356.028,450=355.98,452=356.028,453=355.98,454=356.028,455=355.98,457=356.028,458=355.98,459=356.028,460=355.98,461=356.028,462=355.98,464=356.028,465=355.98,466=356.028,467=355.98,469=356.028,470=355.98,471=356.028,472=355.98,473=356.028,474=355.98,476=356.028,477=355.98,478=356.028,479=355.98,481=356.028,482=355.98,483=356.028,484=355.98,485=356.028,486=355.98,488=356.028,489=355.98,490=89.001,492=88.998,493=89.001,495=88.998,496=89.001,498=88.998,499=89.001,501=88.998,502=89.001,504=88.998,505=89.001,506=712.056,508=711.864,509=712.056,512=711.864,513=712.056,515=711.864,516=712.056,519=711.864,520=712.056,522=711.864,523=712.056,526=711.864,527=712.056,529=711.864,530=712.056,532=711.864,533=712.056,539=711.864,540=712.056,543=711.864,544=712.056,545=711.864,546=712.056,547=711.864,548=712.056,549=711.864,550=712.056,551=711.864,552=712.056,553=711.864,554=712.056,555=711.864,556=712.056,557=711.864,558=712.056,559=711.864,560=712.056,561=711.864,562=712.056,563=711.864,564=712.056,565=711.864,566=712.056,567=711.864,568=712.056,569=711.864,570=712.056,571=711.864,572=712.056,573=711.864,574=712.056,575=711.864,576=712.056,577=711.864,578=712.056,579=711.864,580=712.056,581=711.864,582=712.056,583=711.864,584=712.056,585=711.864,586=712.056,587=711.864,588=712.056,589=711.864,590=712.056,591=711.864,592=712.056,593=711.864,594=712.056,595=711.864,596=712.056,597=711.864,598=712.056,599=711.864,600=712.056,601=711.864,602=712.056,603=711.864,604=712.056,605=711.864,606=712.056,607=711.864,608=712.056,609=711.864,610=712.056,611=711.864,612=712.056,613=711.864,614=712.056,615=711.864,616=712.056,617=711.864,618=712.056,619=711.864,620=712.056,621=711.864,622=712.056,623=711.864,624=712.056,625=711.864,626=712.056,627=711.864,628=712.056,629=711.864,630=712.056,631=711.864,632=712.056,633=711.864,634=712.056,635=711.864,636=712.056,637=711.864,638=712.056,639=711.864,640=712.056,641=711.864,642=712.056,643=711.864,644=712.056,645=711.864,646=712.056,647=711.864,648=712.056,649=711.864,650=712.056,651=711.864,652=712.056,653=711.864,654=712.056,655=711.864,656=712.056,657=711.864,658=712.056,659=711.864,660=712.056,661=711.864,662=712.056,663=711.864,664=712.056,665=711.864,666=712.056,667=711.864,668=712.056,669=711.864,670=712.056,671=711.864,672=712.056,673=711.864,674=712.056,675=711.864,676=712.056,677=711.864,678=712.056,679=711.864,680=712.056,681=711.864,682=712.056,683=711.864,684=712.056,685=711.864,686=712.056,687=711.864,688=712.056,689=711.864,690=712.056,691=711.864,692=712.056,693=711.864,694=712.056,695=711.864,696=712.056,697=711.864,698=89.001,700=88.998,701=89.001,703=88.998;
#STOPS:345=0.505578;

//---------------dance-single - ----------------
#NOTES:
     dance-single:
     :
     Challenge:
     18:
     0.000,0.000,0.000,0.000,0.000:
0101
0000
0000
0000
,
0011
0000
0000
0000
,
1100
0000
0000
0000
,
1010
0000
0000
0000
,
0002
0000
0000
0000
,
0000
0000
0000
0000
,
0000
0000
0000
0000
,
0000
0000
0000
0000
,
0000
0000
0000
0000
,
0000
0000
0000
0000
,
0000
0000
0000
0000
,
1003
0001
1000
0001
1000
0001
1000
0001
,
1001
0000
0001
0000
,
0010
0001
1000
0100
,
0000
1000
0000
0010
,
0010
0000
0100
0001
,
1010
0010
1000
0001
,
0100
0100
0001
0001
,
0000
0001
0000
0100
,
0100
0000
0010
1000
,
0101
0000
0100
0000
,
0001
0010
0100
1000
,
0000
0100
0000
0010
,
0100
0000
0001
0100
,
1010
0100
1000
0010
,
1000
0100
0100
0001
,
0000
0010
0000
0100
,
0100
0001
0010
0100
,
1010
0000
1010
0000
,
2100
0010
3001
0001
,
0000
1000
0000
0010
,
0010
0000
1020
0130
,
0000
0100
0201
0010
,
0312
0100
1003
1000
,
0000
0010
0000
0100
,
0100
0000
0201
0310
,
0000
0010
1010
0000
,
1002
0100
0013
0010
,
0000
0001
0000
0001
,
0010
0000
1020
0130
,
0001
1000
0001
0010
,
0001
1000
0001
0010
,
0001
0000
1000
0000
0001
0010
1000
0010
0001
0000
1000
0000
0001
0000
1000
0000
,
1001
0001
0010
1000
,
1001
0000
0001
0010
0001
0000
0100
0000
,
1000
0100
1000
0000
0010
0000
0001
0010
,
0001
0000
0010
0000
1000
0010
1000
0000
,
0100
0000
0001
0100
0001
0000
0000
0000
,
1001
0000
1000
0001
1000
0000
1000
0000
,
0001
1000
0001
0000
0010
0000
1000
0010
,
1000
0000
0100
0000
0001
0100
0001
0000
,
0010
0000
1000
0010
1000
0100
0000
0000
,
1001
0010
0010
0000
0010
0000
1001
0100
0100
0000
0100
0000
0101
0010
0010
0000
0010
0000
1010
0000
0000
0000
0001
0000
,
1001
1000
0100
0100
0010
0010
0001
0001
0010
0010
0100
0100
1000
1000
0001
0000
0100
0000
0100
0000
0000
0001
0000
0000
,
0001
0001
0001
0000
0100
0000
0010
0010
0010
0000
0100
0000
1000
1000
1000
0000
0010
0000
0100
0100
0100
0000
0010
0000
,
1000
1000
0010
0010
0100
0100
0001
0001
0100
0100
0010
0010
1000
1000
0001
0000
0100
0000
0100
0000
0000
0000
0001
0000
,
1000
0010
0100
0001
,
1000
0000
0010
0100
,
0010
0001
0010
0000
,
0100
1000
0010
1000
,
0001
1000
0100
0010
,
0100
1000
0100
0001
,
0100
0000
0010
0100
,
1000
0100
0010
0000
,
0100
0001
0010
1000
,
0100
0001
1000
0010
,
1000
0001
0010
0100
,
0010
0000
0010
0100
,
1000
0001
0100
0000
,
1000
0010
1000
0100
,
1000
0100
1000
0100
,
1000
0001
1000
0001
,
2000
0000
0000
0000
,
0000
0000
0000
0000
,
0000
0000
0000
0000
,
0000
0000
0000
0000
,
0000
0000
0000
0000
,
0000
0000
0000
0000
,
0000
0000
0000
0000
,
0000
0000
0000
0000
,
0000
0000
0000
0000
,
0000
0000
0000
0000
,
0000
0000
0000
0000
,
0000
0000
0000
0000
,
0000
0000
0000
0000
,
0000
0000
0000
0000
,
3000
0000
1001
0000
,
1000
0000
0100
0010
,
0001
0011
0000
1100
,
0000
1000
0100
0000
,
0010
0001
1001
0010
,
0001
1000
0010
0001
,
1000
1010
0000
0101
,
0000
0001
0100
0000
,
0010
1000
1100
0000
,
0100
0000
0001
0100
,
0010
1100
0000
1100
,
0000
0010
0010
0000
,
1000
0001
0011
0100
,
0010
0001
1000
0010
,
0100
0011
0000
0011
,
0000
0100
0100
0001
,
0010
0100
1001
0000
,
1100
0000
2100
0010
,
3001
0001
0000
1000
,
0000
0001
1000
0000
,
2100
3010
0000
0010
,
0201
1000
0312
0100
,
1003
1000
0000
0001
,
0000
1000
0001
0000
,
0012
1003
0000
0010
,
1001
0000
0210
0001
,
1300
1000
0000
0010
,
0000
0100
0100
0000
,
0021
0130
1000
0010
,
1000
0001
1000
0100
,
1000
0000
0010
0000
1000
0001
1000
0001
,
1000
0100
0001
0100
1000
0000
0001
0000
1000
0000
0001
0000
1001
0000
0000
0000
,
0010
0000
0100
0000
1001
0000
1000
0100
,
1000
0000
0010
0000
1000
0010
1000
0000
,
0100
0000
0001
0100
0001
0000
0010
0000
,
0001
0010
0001
0000
1000
0100
1000
0100
,
1002
0000
0000
0000
0000
0000
0003
0000
0000
0000
0000
0000
1001
0010
0100
0000
0010
0000
1001
0100
1000
0000
0010
0000
,
0101
0000
0000
0100
0000
0000
1010
0000
0000
0010
0000
0000
0101
0000
0000
0100
0000
0000
1010
0000
0000
0010
0000
0000
1000
0000
0010
0000
0100
0000
0001
0000
0001
0000
0100
0000
0010
0000
1000
0000
0001
0000
0100
0000
0010
0000
1000
0000
,
0011
0000
0000
0010
0000
0000
1100
0000
0000
0100
0000
0000
0011
0000
0000
0001
0000
0000
1100
0000
0000
0100
0000
0000
1001
0000
0010
0000
0010
0000
0001
0000
0010
0000
0000
0000
1001
0000
0100
0000
0100
0000
1000
0000
0100
0000
0000
0000
,
0101
0010
0010
1000
0010
0000
1001
0000
0000
0010
0000
0000
1000
1000
0001
0001
0100
0100
0010
0010
0100
0100
0001
0001
,
1000
1000
1001
0000
0001
0000
1000
0000
0000
0000
1000
0000
1000
0000
0000
0000
0000
0000
0010
0000
0000
0000
0000
0000
,
0001
0100
1000
0000
,
0100
0010
1000
0010
,
0001
0000
1000
0001
,
1000
0010
1000
0100
,
0010
0100
0001
0010
,
1000
0100
0001
0000
,
1000
0010
0100
0010
,
1000
0000
0001
0100
,
0010
0100
0001
0010
,
0001
1000
0010
1000
,
0100
0010
0000
0001
,
0100
1000
0010
0100
,
0000
0000
1000
0010
,
0001
0010
1000
0001
,
1000
0001
0100
1000
,
0010
0001
0000
1000
,
0100
0001
0010
0001
,
0000
0100
1000
0001
,
0100
0010
1000
0001
,
0100
0001
1000
0010
,
0100
0001
1000
0000
,
0001
0100
1000
0100
,
0001
0000
1000
0100
,
0001
0010
1000
0100
,
1000
0100
0001
0010
,
1000
0100
0000
0000
,
0100
0010
0001
0100
,
1000
0000
0001
0010
,
0100
1000
0010
0100
,
0001
0100
1000
0001
,
0100
1000
0001
0000
,
0001
0010
1000
0001
,
0100
0000
1000
0100
,
0010
0001
1000
0100
,
0001
1000
0010
1000
,
0100
0001
0100
1000
,
0100
0010
0001
1000
,
0100
0001
1000
0100
,
0010
0100
0010
1001
,
0010
0001
1000
0100
,
0010
0001
1000
0100
,
0001
1000
0010
0001
,
1000
0010
0100
0001
,
0100
0010
0000
0000
,
0000
0000
0000
0000
,
0000
0000
0000
0000
,
0000
0000
0000
0000
,
0000
0000
0011
1100
,
0000
0000
0000
0000
,
0000
0000
0000
0000
;
