#TITLE:Cypher Gate (RD Mix);
#SUBTITLE:;
#ARTIST:7 Sequence;
#CREDIT:;
#MUSIC:Cypher Gate (RD Mix).mp3;
#SELECTABLE:YES;
#BACKGROUND:;
#BANNER:;
#CDTITLE:;
#OFFSET:-0.206939;
#SAMPLESTART:0.000;
#SAMPLELENGTH:0.000;
#BPMS:0=150,237=149.992,238=150;
#STOPS:;

//---------------dance-single - ----------------
#NOTES:
     dance-single:
     :
     Challenge:
     16:
     0.000,0.000,0.000,0.000,0.000:
0000
0000
0000
0000
,
1001
0011
1100
1010
,
0001
0000
1000
0000
0010
0000
0000
0010
0000
1000
0010
0000
0100
0000
0000
0000
,
0100
0000
0001
0010
0100
0000
1000
0000
0100
0000
0010
0000
1000
0001
0000
0001
,
0100
0000
0100
1000
0100
0000
0010
0000
1000
0010
1000
0000
0100
0000
1000
0000
,
0100
0000
0001
1000
0000
0000
1000
0000
0001
0010
0000
0000
0010
0100
0000
0100
,
1001
0000
0100
0000
0001
0000
0000
0100
0000
1000
0001
0000
0010
0000
0000
0000
,
0100
0000
0010
0100
1000
0000
0010
0000
1000
0000
0100
0000
1000
0001
0000
0100
,
1000
0000
1000
0010
0100
0000
0010
0000
1000
0001
1000
0000
0100
0000
0010
0000
,
2001
0000
0100
0010
0100
0001
0010
3001
,
0101
0000
0001
0000
1000
0000
0010
0000
0100
0000
0001
0010
0000
0100
1000
0100
,
0001
0000
0000
1000
0000
0000
0010
0000
0000
1000
0000
0000
0001
0000
0010
0000
,
1000
0000
0010
0000
1000
0000
0001
0000
0010
0000
0100
1000
0000
0100
0001
0100
,
0001
0000
0010
0000
0001
1000
0000
0000
0100
0000
1000
0100
0000
0100
1000
0000
,
1001
0000
0010
0000
0001
0000
1000
0000
0010
0000
0010
1000
0000
0100
0001
0100
,
0010
0000
1000
0000
0000
1000
0000
0000
0010
0000
0000
0001
0000
0000
0100
0000
,
1010
0000
0100
0000
0001
0000
1000
0000
0010
0000
0010
0001
0000
1000
0001
0100
,
0010
0000
1000
0010
0000
0010
1000
0000
0010
0100
0000
0100
0001
0100
0010
1000
,
0101
0000
1000
0000
0010
0000
0100
0000
0001
0000
0001
1000
0000
0001
0100
1000
,
0010
0000
1000
0010
0000
0100
0001
0000
0010
0100
0000
0010
0001
0000
0010
1000
,
1100
0000
0001
0000
0100
0000
0010
0000
0100
0000
0001
0100
0000
0010
1000
0010
,
0100
0000
1000
0000
0100
0000
0010
0000
0001
0000
0001
1000
0000
1000
0100
0010
,
1001
0000
0010
0000
1000
0000
0100
0000
0001
0000
0001
1000
0000
0001
0011
0000
,
0000
0000
1000
0000
0010
0000
0100
0000
0100
0000
1000
0010
0000
0010
1000
0010
,
0011
0000
0000
1000
0000
0000
1000
0000
0100
0000
0001
0000
0010
0000
0000
0001
0000
0000
0001
0000
0100
0000
0010
0000
,
0001
0000
1000
0100
1000
0000
1000
0010
0100
0000
1000
0010
0100
0001
0100
0001
,
1001
0000
0001
1001
0000
1000
0010
1000
,
1100
0000
0001
1001
0000
1000
0000
0001
,
0101
0000
1000
0110
0000
0000
1000
0000
,
0101
0000
0001
1100
0000
1000
0010
1000
,
0110
0000
0100
0000
0100
0000
0100
0001
0000
0001
0010
0001
0100
0010
1000
0010
,
0100
0000
0100
0000
0100
0000
1000
0010
0000
1000
0010
1000
0010
0100
0001
0010
,
0100
0000
0100
0000
0100
0000
0100
0001
0000
0100
0001
1000
0010
0100
0010
1000
,
0120
0130
1200
1300
2001
3001
0102
0103
,
2100
0000
0000
3010
0000
0000
1200
0000
0000
0310
0000
0001
0100
0001
1000
0001
,
0102
0000
0000
0103
0000
0000
1200
0300
0011
0000
0000
1100
0000
0000
1000
0010
,
0102
0000
0000
0103
0000
0000
2100
0000
0000
3010
0000
1000
0010
0100
0001
0010
,
0120
0000
0000
0130
0000
0000
2100
0000
0000
3001
0000
0001
0100
0010
0100
1000
,
0102
0000
0000
0103
0000
1000
0010
0100
0102
0000
0000
0103
0000
0100
1000
0010
,
2100
0000
0000
3100
0000
0100
0010
0001
0201
0000
0000
0301
0000
0010
0001
0100
,
1020
0000
0000
1000
0032
0000
0000
0010
0203
0000
0000
1000
0320
0000
0000
0001
,
2030
0000
0000
0001
3020
0000
0000
0001
0130
0000
0100
1000
0010
0100
0001
0010
,
2200
0000
0000
0000
0000
0000
0000
0000
0000
0000
0000
0000
3300
0001
0100
1000
,
0012
0100
1000
0103
,
1001
0000
0100
0000
1100
0000
0010
0000
1000
0000
0001
0100
0000
1000
0010
0100
,
0110
0000
0010
0000
1100
0000
0001
0000
1000
0000
0010
1000
0000
0100
0001
0000
,
1100
0000
0010
0000
1010
0000
0001
0000
0010
0000
1000
0010
0000
0001
0100
0001
,
1001
0000
0010
0000
0110
0000
1000
0000
0100
0000
0001
0100
0000
1000
0010
0100
,
1001
0000
0010
0000
1100
0000
0010
0000
1000
0000
0001
0100
0000
0001
0010
0100
,
1100
0000
0100
0000
1001
0000
1000
0000
0001
0000
1000
0001
0000
0010
0001
0100
,
1001
0000
0100
0000
0101
0000
1000
0000
0001
0000
1000
0010
0000
0100
0010
0100
,
2100
3100
0210
0310
1020
1030
2100
3100
,
0101
0000
0010
0000
1100
0000
0010
0000
0101
0000
0001
0100
0000
0010
1000
0100
,
1100
0000
0010
0000
1100
0000
0001
0000
0101
0000
0100
0001
0000
1000
0012
0000
,
0003
0000
0100
0000
1100
0000
0100
0000
0011
0000
1000
0010
0000
0010
0100
1000
,
0011
0000
0100
0000
1100
0000
0001
0000
1010
0000
0010
0100
0000
0001
1000
0010
,
1100
0000
0010
0000
0101
0000
1000
0000
1010
0000
1000
0010
0000
0001
0100
0010
,
1100
0000
0010
0000
0101
0000
1000
0000
0110
0000
0001
1000
0000
0001
1000
0010
,
1000
0000
0100
0000
1000
0100
1000
0010
0100
0000
0010
0000
0010
0001
0010
1000
,
0100
0010
0100
0010
1000
0100
0001
1000
0010
0001
0010
0100
1000
0100
0001
0010
,
1001
0000
0001
0000
0001
0000
0100
0000
0100
0010
2100
0000
3100
0001
0010
0100
,
2002
0000
0000
3003
,
0000
0000
0000
0000
,
0000
0000
0000
0000
,
0000
0000
0000
0000
,
0000
0000
0000
0000
,
0000
0000
0000
0000
,
0000
0000
0000
0000
;

//---------------dance-solo - ----------------
#NOTES:
     dance-solo:
     :
     Challenge:
     10:
     0.000,0.000,0.000,0.000,0.000:
000000
000000
000000
000000
,
100021
000030
201100
300000
110200
000300
020011
030000
,
000100
000000
100000
000000
000001
000000
000000
000100
000000
100000
001000
000000
000100
000000
000000
000000
,
010000
000000
000001
001000
010000
000000
000010
000000
010000
000000
100000
000000
001000
000100
000000
000100
,
000010
000000
000001
100000
000100
000000
001000
000000
000001
001000
000010
000000
010000
000000
100000
000000
,
010000
000000
000100
100000
000000
000000
100000
000001
000100
001000
000000
000000
001000
000001
000000
000010
,
100100
000000
000001
000000
000100
000000
000000
000100
000000
100000
000100
000000
010000
000000
000000
000000
,
010000
000000
000010
001000
100000
000000
001000
000000
000001
000000
000010
000000
100000
000100
000000
010000
,
000001
000000
100000
000100
010000
000000
000010
000000
100000
000100
000100
000000
010000
000000
001000
000000
,
200001
000000
010000
000010
000001
000001
001000
301000
,
010100
000000
000100
000000
100010
000000
001000
000000
010001
000000
000100
001000
000000
010000
000100
010000
,
000101
000000
000000
110000
000000
000000
001010
000000
000000
100100
000000
000000
000101
000000
001001
000000
,
100010
000000
001000
000000
000011
000000
000100
000000
011000
000000
010000
100000
000000
010000
000100
010000
,
000101
000000
001000
000000
000110
001000
000000
000000
010010
000000
100000
000001
000000
000100
100000
000000
,
100100
000000
001000
000000
000101
000000
000100
000000
001010
000000
001000
100000
000000
000001
001000
000100
,
101000
000000
110000
000000
000000
000110
000000
000000
001001
000000
000000
100100
000000
000000
110000
000100
,
001010
000000
000001
000000
000110
000000
100000
000000
011000
000000
001000
000010
000000
001000
000100
010000
,
000011
000000
100000
001000
000000
001000
000001
000000
001100
010000
000000
000010
000100
010000
001000
100000
,
010100
000000
100000
000000
001010
000000
000001
000000
001100
000000
000100
100000
000000
000001
000010
100000
,
001001
000000
100000
000010
000000
000001
001000
000000
001010
100000
000000
001000
000101
000000
000010
100000
,
100001
000000
000100
000000
110000
000000
001000
000000
001010
000000
000100
010000
000000
001000
000001
001000
,
010010
000000
100000
000000
000010
000000
001000
000000
000100
000000
000001
100000
000000
010000
000010
001000
,
010010
000000
001000
000000
110000
000000
000001
000000
001010
000000
000100
100000
000000
000100
001100
000000
,
000000
000000
100000
000000
001001
000000
000010
000000
010100
000000
000010
001000
000000
000001
100000
001000
,
010010
000000
000000
100000
000000
000000
100000
000000
010000
000000
000100
000000
100001
000000
000000
000100
000000
000000
000100
000000
010000
000000
001000
000000
,
000101
000000
100000
000001
000100
000000
100000
001000
000010
000000
100000
001000
000100
000010
001000
000001
,
100001
000000
000100
100010
000000
100000
001001
000010
,
100100
000000
000000
000000
000010
000000
010100
000000
000000
000000
100000
000000
000000
000000
000010
000001
,
001100
000000
000100
001010
000000
000000
001001
000000
,
010100
000000
000100
110000
000000
100000
001010
100000
,
011000
000000
010000
000000
010000
000000
010000
000001
000000
000010
001000
000100
100000
000010
010000
001000
,
100000
000000
100000
000000
100000
000000
001000
000010
000000
100000
000001
010000
000100
100000
001000
000010
,
000100
000000
000100
000000
000100
000000
100000
010000
000000
000001
010000
000001
100000
001000
000010
100000
,
012000
013000
100020
100030
200100
300100
010002
010003
,
210000
000000
000000
301000
000000
000000
020001
000000
000000
031000
000000
000100
000001
000100
100000
000100
,
100200
000000
000000
000301
000000
000000
020001
030000
001100
000000
000000
100010
000000
000000
000001
001000
,
010200
000000
000000
100300
000000
000000
210000
000000
000000
301000
000000
100000
000100
001000
000010
000100
,
000012
000000
000000
010003
000000
000000
210000
000000
000000
300010
000000
000001
001000
000100
010000
100000
,
001020
000000
000000
010030
000000
100000
001000
010000
010200
000000
000000
000310
000000
000001
000100
000001
,
002010
000000
000000
103000
000000
010000
000001
000100
020100
000000
000000
030010
000000
001000
000100
010000
,
102000
000000
000000
100000
003200
000000
000000
000001
020300
000000
000000
100000
030002
000000
000000
000100
,
200003
000000
000000
000001
300020
000000
000000
001000
010030
000000
000100
100000
000010
010000
000001
001000
,
200200
000000
000000
000000
000000
000000
000000
000000
000000
000000
000000
000000
300300
000010
001000
100000
,
001202
010000
000010
100303
,
100100
000000
010000
000000
000011
000000
001000
000000
000100
000000
000010
010000
000000
100000
001000
010000
,
001010
000000
000100
000000
000110
000000
000001
000000
000100
000000
010000
100000
000000
010000
000100
000000
,
010010
000000
001000
000000
000011
000000
000100
000000
001000
000000
100000
001000
000000
000001
001000
000100
,
100010
000000
001000
000000
010010
000000
000001
000000
010000
000000
000100
010000
000000
000010
001000
010000
,
100100
000000
000010
000000
100100
000000
001000
000000
100000
000000
000100
010000
000000
100000
001000
000010
,
001001
000000
010000
000000
100100
000000
000010
000000
000100
000000
100000
000001
000000
001000
000001
010000
,
100010
000000
000010
000000
010001
000000
001000
000000
000100
000000
100000
000010
000000
010000
000001
010000
,
210000
300010
001002
010003
000120
000031
102000
003010
,
010101
000000
001000
000000
110100
000000
001000
000000
100101
000000
000100
110000
000000
001010
100000
000100
,
110010
000000
001000
000000
100011
000000
000100
000000
101001
000000
010000
000101
000000
100010
001200
000000
,
000300
000000
010000
000000
110001
000000
010000
000000
001101
000000
000010
101000
000000
001001
010000
100000
,
001101
000000
010000
000000
110010
000000
000010
000000
001101
000000
001000
110000
000000
010100
100000
001000
,
000111
000000
001000
000000
011100
000000
100000
000000
101001
000000
000001
011000
000000
000101
010000
000100
,
111000
000000
000010
000000
010101
000000
100000
000000
101001
000000
000100
110000
000000
000101
000010
001000
,
100100
000000
010010
000000
100000
001000
010000
000010
010001
000000
100010
000000
000001
000100
001000
100000
,
010000
001000
000010
001000
100000
010000
000001
100000
001000
000001
000100
010000
000010
000001
000100
010000
,
200100
000000
000100
000000
000010
000000
300010
000000
010000
001000
000012
000000
000103
000010
001000
010000
,
200202
000000
000000
300303
,
000000
000000
000000
000000
,
000000
000000
000000
000000
,
000000
000000
000000
000000
,
000000
000000
000000
000000
,
000000
000000
000000
000000
,
000000
000000
000000
000000
;
