#TITLE:Breaking the Ground;
#SUBTITLE:Beatmania IIDX 18th - Resort Anthem;
#ARTIST:Art of Fighters;
#CREDIT:;
#MUSIC:Breaking the ground.mp3;
#SELECTABLE:YES;
#BACKGROUND:;
#BANNER:;
#CDTITLE:;
#OFFSET:-0.911995;
#SAMPLESTART:0.000;
#SAMPLELENGTH:0.000;
#BPMS:0=165.997,1=166.008,2=165.997,8=166.008,9=165.997,15=166.008,16=165.997,21=166.008,22=165.997,28=166.008,29=165.997,35=166.008,36=165.997,43=166.008,44=165.997,51=166.008,52=165.997,59=166.008,60=165.997,67=166.008,68=165.997,75=166.008,76=165.997,83=166.008,84=165.997,91=166.008,92=165.997,99=166.008,100=165.997,107=166.008,108=165.997,115=166.008,116=165.997,123=166.008,124=165.997,130=166.008,131=165.997,134=166.008,135=165.997,138=166.008,139=165.997,142=166.008,143=165.997,146=166.008,147=165.997,150=166.008,151=165.997,154=166.008,155=165.997,158=166.008,159=165.997,162=166.008,163=165.997,166=166.008,167=165.997,170=166.008,171=165.997,174=166.008,175=165.997,178=166.008,179=165.997,182=166.008,183=165.997,186=166.008,187=165.997,190=166.008,191=165.997,194=166.008,195=165.997,198=166.008,199=165.997,202=166.008,203=165.997,206=166.008,207=165.997,210=166.008,211=165.997,214=166.008,215=165.997,218=166.008,219=165.997,222=166.008,223=165.997,226=166.008,227=165.997,230=166.008,231=165.997,234=166.008,235=165.997,238=166.008,239=165.997,242=166.008,243=165.997,246=166.008,247=165.997,250=166.008,251=165.997,254=166.008,255=165.997,258=166.008,259=165.997;
#STOPS:;

//---------------dance-solo - ----------------
#NOTES:
     dance-solo:
     :
     Challenge:
     11:
     0.000,0.000,0.000,0.000,0.000:
100100
000100
000000
000100
000000
000100
000000
001000
,
000010
000010
000000
000010
000000
000010
000100
001002
,
010003
000100
000000
010000
000000
010000
000000
000100
,
000001
000000
000100
000000
000000
000000
010000
000000
000200
000000
001300
000020
000000
000130
000002
000000
,
101003
000010
110000
000100
101000
000010
110000
000100
,
100100
000000
000010
000000
101000
000000
000001
000000
100100
000000
000010
000000
101000
000020
000001
000030
,
100100
100001
101000
100100
100001
101000
100100
100001
,
101001
000100
000000
000100
012000
000000
003020
000000
,
100131
000010
101000
000100
110000
001000
100100
000010
,
100001
000000
000100
000000
110000
000000
000010
000000
101000
000000
010000
000000
000100
000020
001000
000030
,
100101
001000
100100
001000
100100
010000
100010
001000
,
100001
000000
000010
000000
100001
000000
000010
000000
020000
030000
020000
030000
000200
000300
000202
000303
,
010000
101000
110100
000000
101000
000010
110000
000100
,
100001
000000
001000
000000
110000
000000
000100
000000
100010
000000
100100
000000
001000
000200
000001
000300
,
101010
010000
101000
000100
101000
000010
100001
000100
,
101001
000000
000000
000000
002000
000000
000000
000000
003110
000000
010000
000001
001000
000000
000000
000000
011000
000000
000000
000000
000001
000000
000000
000000
000001
000000
000000
000000
000001
000000
000000
000000
,
111000
000100
100010
001000
100110
001000
100010
000001
,
111000
000100
100010
001000
100110
010000
100021
000230
,
101301
000010
100001
010000
101100
001000
100100
000010
,
101001
000010
100001
010000
021100
030020
100031
100100
,
100011
001000
100100
010000
101100
000010
100001
000100
,
100011
001000
100100
010000
101100
000010
102001
023000
,
130110
100101
000000
101100
101010
000000
101001
000000
,
110100
001000
000000
000010
001000
000000
000000
000000
,
102001
003000
000020
000030
002000
003000
000020
000030
002000
003000
000020
000030
002000
003000
000020
000030
,
002000
003000
000020
000030
002000
003000
000020
000030
002000
003000
000020
000030
002000
003000
000020
000030
,
002000
003000
000200
000300
002000
003000
000200
000300
002000
003000
000200
000300
002000
003000
000200
000300
,
002000
003000
000002
000003
002000
003000
000002
000003
020000
030000
000002
000003
020000
030000
000002
000003
,
002000
003000
000200
000300
002000
003000
000200
000300
002000
003000
000200
000300
002000
003000
000200
000300
,
002000
003000
000200
000300
002000
003000
000200
000300
002000
003000
000200
000300
002000
003000
000200
000300
,
020000
030000
000200
000300
020000
030000
000200
000300
020000
030000
000200
000300
020000
030000
000200
000300
,
020000
030000
000020
000030
020000
030000
000020
000030
020000
030000
000002
000003
020000
030000
000002
000003
,
011000
010100
010010
001010
,
010001
000000
010100
000000
011000
000000
001100
000110
,
000011
000000
000101
000000
001010
000000
000110
011000
,
000100
000010
001000
000100
010000
000100
000001
000100
,
011000
001100
000101
000011
,
001100
000000
001001
000000
000101
000000
001100
010100
,
000011
000000
011000
000000
010100
000000
000110
001100
,
010001
010100
010010
011000
,
101011
001000
010000
010001
000100
000101
001000
001001
,
010001
001000
001000
000101
000010
010001
000100
010001
,
000011
000110
001100
010100
000100
001100
010000
001000
,
010010
010100
000010
001100
010100
010000
000100
010000
,
000011
001000
000011
001000
000101
001000
010001
001000
,
010001
000100
010001
000100
010001
001000
001001
010000
,
020001
000000
000010
000100
000000
000100
030000
000010
,
000010
000000
000001
000000
000010
000000
020000
032000
,
103110
011000
100101
010100
101010
001100
111000
000110
,
100011
001010
111000
010010
101001
001010
110100
000011
,
101100
011000
110010
001001
100110
001100
100011
001100
,
110010
011000
101001
001100
002001
003000
001020
000230
,
100311
011000
101010
001100
110100
001100
100011
001010
,
111000
000011
101010
010100
100110
011000
100101
110010
,
101010
010100
101100
000110
111000
000011
100101
110100
,
100011
000000
001100
100000
100101
000000
111000
000000
001020
000000
010030
000200
000000
000300
002000
000000
,
103110
001010
101100
010100
111000
010100
101100
001010
,
100101
001010
101100
011000
020100
030100
002100
003010
,
100110
001001
110010
001100
111000
010100
100011
000101
,
101100
000000
000110
000000
100110
000000
001100
000000
110100
000000
000101
000000
002200
000000
000000
003300
,
100011
010100
101100
011000
100011
000110
111000
000110
,
101010
000000
010001
000000
101100
000000
010100
000000
101010
000000
000101
000000
100100
002000
010000
000000
,
113100
000000
000011
000000
001100
000000
101010
000000
100101
000000
111000
000000
101100
100000
100110
000000
,
100101
001010
110010
001100
020020
000000
000000
000000
,
131131
011000
001010
001100
,
001001
000000
011000
000000
001100
000000
010010
000110
,
001001
000000
000110
000000
001100
000000
010010
000100
,
010000
001000
000010
001000
010000
000100
000001
000010
,
100100
100000
100100
100000
100100
100000
100100
100000
,
100100
100000
100100
100000
100100
100000
100100
100010
,
100001
000000
000010
000000
100000
000000
000001
000000
100000
000000
000100
000000
100000
000000
000001
000000
100000
000000
001000
000000
100000
000000
000001
000000
100000
000010
010000
000100
001000
000010
010000
000001
,
200000
000000
000000
300002
,
101013
110100
101100
100011
,
111000
000000
100110
000000
101001
000100
001000
000220
,
111330
000000
110010
000000
100101
000000
101010
000010
,
101001
000100
101100
010000
102001
000000
003020
000230
,
100311
101010
110100
101100
,
100110
000000
111000
000000
100011
000000
121000
031200
,
110301
000000
100011
000000
101100
000000
100110
001000
,
101010
001000
100110
001000
000011
000100
001000
010000
,
001100
110010
101010
100011
,
100110
000000
111000
000000
101100
000200
002300
003020
,
100131
000000
110100
000000
101010
000000
100101
000010
,
101100
010000
111000
100100
102010
000000
003200
000302
,
111013
101101
101110
101101
,
101011
000000
000000
000000
110110
000000
000000
000000
110011
000000
000000
000000
101200
020300
030021
000000
,
102032
000000
000000
000000
,
023203
000000
032320
000000
,
103032
000003
000000
000000
,
000000
000000
000000
000000
,
000000
000000
000000
000000
,
000000
000000
000000
000000
,
000000
000000
000000
000000
,
000000
000000
000000
000000
,
000000
000000
000000
000000
,
000000
000000
000000
000000
,
000000
000000
000000
000000
;
