#TITLE:Bloody Tears (IIDX EDITION);
#SUBTITLE:Beatmania IIDX 13th - DistorteD;
#ARTIST:DJ YOSHITAKA;
#CREDIT:;
#MUSIC:Bloody Tears (IIDX EDITION).mp3;
#SELECTABLE:YES;
#BACKGROUND:;
#BANNER:;
#CDTITLE:;
#OFFSET:-0.352993;
#SAMPLESTART:0.000;
#SAMPLELENGTH:0.000;
#BPMS:0=169.997,1=170.008,2=169.997,4=170.008,5=169.997,7=170.008,8=169.997,11=170.008,12=169.997,14=170.008,15=169.997,18=170.008,19=169.997,21=170.008,22=169.997,25=170.008,26=169.997,28=170.008,29=169.997,32=170.008,33=169.997,35=170.008,36=169.997,38=170.008,39=169.997,41=170.008,42=169.997,45=170.008,46=169.997,48=170.008,49=169.997,51=170.008,52=169.997,54=170.008,55=169.997,57=170.008,58=169.997,61=170.008,62=169.997,64=170.008,65=169.997,67=170.008,68=169.997,71=170.008,72=169.997,75=170.008,76=169.997,79=170.008,80=169.997,83=170.008,84=169.997,87=170.008,88=169.997,91=170.008,92=169.997,95=170.008,96=169.997,99=170.008,100=169.997,103=170.008,104=169.997,107=170.008,108=169.997,111=170.008,112=169.997,115=170.008,116=169.997,119=170.008,120=169.997,123=170.008,124=169.997,127=170.008,128=169.997,131=170.008,132=169.997,135=170.008,136=169.997,139=170.008,140=169.997,143=170.008,144=169.997,147=170.008,148=169.997,151=170.008,152=169.997,155=170.008,156=169.997,159=170.008,160=169.997,163=170.008,164=169.997,167=170.008,168=169.997,171=170.008,172=169.997,175=170.008,176=169.997,179=170.008,180=169.997,183=170.008,184=169.997,187=170.008,188=169.997,191=170.008,192=169.997,195=170.008,196=169.997,199=170.008,200=169.997,203=170.008,204=169.997,207=170.008,208=169.997,211=170.008,212=169.997,215=170.008,216=169.997,219=170.008,220=169.997,223=170.008,224=169.997,227=170.008,228=169.997,231=170.008,232=169.997,235=170.008,236=169.997,239=170.008,240=169.997,243=170.008,244=169.997,247=170.008,248=169.997,251=170.008,252=169.997,255=170.008,256=169.997,259=170.008,260=169.997,263=170.008,264=169.997,267=170.008,268=169.997,270=170.008,271=169.997,272=170.008,273=169.997,274=170.008,275=169.997,276=170.008,277=169.997,278=170.008,279=169.997,280=170.008,281=169.997,282=170.008,283=169.997,284=170.008,285=169.997,286=170.008,287=169.997,288=170.008,289=169.997,290=170.008,291=169.997,292=170.008,293=169.997,294=170.008,295=169.997,296=170.008,297=169.997,298=170.008,299=169.997,300=170.008,301=169.997,302=170.008,303=169.997,304=170.008,305=169.997,306=170.008,307=169.997,308=170.008,309=169.997,310=170.008,311=169.997,312=170.008,313=169.997;
#STOPS:;

//---------------dance-single - ----------------
#NOTES:
     dance-single:
     :
     Challenge:
     18:
     0.000,0.000,0.000,0.000,0.000:
1001
1100
1001
1100
,
0001
0100
0001
1000
0001
0100
0001
1100
,
1001
0011
1001
0011
,
1000
0100
1000
0010
1000
0100
1000
0011
,
0011
0100
0011
0000
1100
0010
0101
0000
,
1100
0010
0011
0100
1010
0100
1100
0010
,
0101
0010
0011
0000
0011
0010
1010
0000
,
1010
0100
0101
0010
0110
0100
0101
1000
,
0101
0000
0011
0100
0101
0000
0110
0100
,
1010
0000
0110
0001
1100
0000
0110
1000
,
0101
0000
0011
0100
0011
0000
1100
0010
,
1100
0000
1100
0011
0101
0011
1001
1010
,
0110
0000
0010
1100
0100
0000
0010
0110
,
0100
0000
0001
0110
0010
0000
1000
0110
,
0001
0000
0001
0110
1000
0000
0011
1000
,
0110
0001
1000
0010
0100
0001
0010
0100
1000
0010
0100
0010
0001
0100
0001
0010
,
2200
0000
0000
3300
,
1001
0010
0100
0001
0100
0001
1000
0100
,
0010
0100
0001
0010
1000
0010
0100
1100
,
1100
0010
0001
0100
0010
1000
0100
0010
,
0101
1000
0010
0100
1001
0010
1001
0100
,
1001
0001
0010
0100
0001
1000
0100
0010
,
0001
0100
0010
1000
0010
0001
1000
0011
,
1100
0010
0100
0110
0101
0010
1000
1100
,
1001
0010
0011
0100
1001
1100
0110
1010
,
0101
0000
1000
0010
1000
0000
0001
0010
0000
1000
0000
0100
0001
0000
0010
0000
,
1001
0000
1100
0000
0011
0000
0110
0000
0011
1100
0110
1001
0000
0000
0001
0010
,
1001
0000
1000
1010
0000
0000
0001
0010
0001
0100
0001
1000
0001
0010
0001
0100
,
1010
0000
0010
0110
0000
0000
1000
0100
1000
0001
1000
0100
0001
0001
0100
0001
,
0011
0000
0010
0011
0000
0000
0001
0001
0100
0100
0010
0010
0100
0100
0010
0100
,
1100
0000
0001
0110
0000
0000
0010
0010
0011
0000
0100
1010
0000
0000
0001
0100
,
1010
0000
1000
0101
0000
0000
0001
0100
0001
1000
0001
0010
0100
0010
1000
0100
,
0011
0000
0100
1100
0000
0000
1000
0100
0100
1000
0100
0010
0100
0100
0001
1000
,
0011
0000
0100
0101
0000
0000
1000
0100
0010
0100
1000
0010
0001
0010
1000
0010
,
0101
0000
0100
1100
0000
0000
1100
0000
1010
0000
0110
0000
0101
0000
0011
0000
,
1001
0000
0000
0011
0000
0000
0010
0000
1001
0000
0000
0110
0000
0000
0100
0000
,
1100
0000
0000
0000
0000
0000
0000
0000
0000
0000
0000
0000
0000
0000
0000
0000
0000
0000
0100
0000
0000
0000
0000
0000
0000
0000
0000
0000
0000
0000
0000
0000
0000
0000
0000
0000
0011
0000
0000
0000
0000
0000
0000
0000
0000
0000
0000
0000
0010
0001
0000
0000
0000
0000
0000
0000
0000
0000
0000
0000
0100
0010
0000
0000
0000
0000
0000
0000
0000
0000
0000
0000
1000
0100
0000
0000
0000
0000
0000
0000
0000
0000
0000
0000
0010
0001
0000
0000
0000
0000
0000
0000
0000
0000
0000
0000
,
1001
0000
0020
0002
0000
0000
0033
0000
0110
0000
0200
2000
0000
0000
3300
0000
,
0110
0000
0020
0002
0000
0000
0033
0000
0011
0000
1100
0000
0020
0200
0000
0330
,
0011
0000
0000
1100
0000
0000
0100
0000
0110
0000
0000
1100
0000
0000
0010
0000
,
0011
0000
0000
0000
0000
0000
0000
0000
0000
0000
0000
0000
0000
0000
0000
0000
0000
0000
0110
0000
0000
0000
0000
0000
0000
0000
0000
0000
0000
0000
0000
0000
0000
0000
0000
0000
0011
0000
0000
0000
0000
0000
0000
0000
0000
0000
0000
0000
0001
0010
0000
0000
0000
0000
0000
0000
0000
0000
0000
0000
0010
0001
0000
0000
0000
0000
0000
0000
0000
0000
0000
0000
0100
1000
0000
0000
0000
0000
0000
0000
0000
0000
0000
0000
1000
0010
0000
0000
0000
0000
0000
0000
0000
0000
0000
0000
,
1100
0000
0020
0002
0000
0000
0033
0000
0101
0000
0200
0020
0000
0000
0330
0000
,
0011
0000
0020
2000
0000
3030
0110
0000
0011
0000
1100
0000
0010
0001
0000
0000
,
0101
0010
0110
0100
0011
0100
1010
0100
,
0011
0100
0101
1000
1100
0010
0011
0010
,
0110
0010
0011
0010
1100
0100
1010
0100
,
0011
0100
0110
0001
0110
1000
0110
0001
,
0110
1000
1010
0010
0101
1000
1010
0100
,
0011
0001
0110
0010
1100
0100
0110
0010
,
0011
0110
1100
1010
0101
1100
0101
0011
,
0110
0001
0010
0100
1000
0001
0100
1000
0010
0100
1000
0001
0010
1000
0001
0100
,
1020
0100
0001
0100
1000
0001
1000
0100
,
0001
0100
1000
0100
0001
0100
1000
0100
,
2000
0000
0000
3030
,
2002
0000
0000
3003
,
1200
0001
0010
1000
0001
1000
0010
1000
,
0010
0001
0010
1000
0010
1000
0010
0001
,
0020
0000
0000
0000
0000
0000
0031
0001
,
1300
0100
0010
0100
0001
0010
0100
0010
,
0000
0000
0000
0000
0000
0000
0000
0000
0000
0000
0000
0000
0000
0000
0001
0010
,
1001
0000
1000
0010
0000
0000
0010
0001
0010
0100
0010
0001
0010
1000
0010
0100
,
0010
0000
0010
0001
0000
0000
0010
0100
0010
1000
0100
0010
0100
0001
1000
0001
,
0010
0000
0100
1000
0000
0000
1000
0001
1000
0100
0010
0100
0001
0100
1000
0010
,
1000
0100
0010
1001
0000
0000
0010
0100
1001
0000
0010
1001
0000
0000
0010
0100
,
1001
0000
0100
0001
0000
0000
1000
0010
0100
0001
1000
0010
0100
0001
0100
0010
,
0001
0000
0010
0001
0000
0001
0010
0001
0010
0100
0010
0100
1000
0100
1000
0100
,
1000
0000
0010
1100
0000
0000
1000
0010
0100
0001
0100
0010
1000
0010
0100
0001
,
0100
0010
1000
1001
0000
0000
1100
0000
0011
0000
0110
0000
1100
0000
0110
0000
,
0011
0000
0010
1001
0000
0000
0110
0000
1001
0000
0100
1001
0000
0000
0110
0000
,
1001
0000
0000
0000
0000
0000
0000
0000
0000
0000
0000
0000
0100
0000
0000
0000
0000
0000
1001
0000
0000
0000
0000
0000
0000
0000
0000
0000
0000
0000
0000
0000
0000
0000
0000
0000
0010
0000
0000
0000
0000
0000
0000
0000
0000
0000
0000
0000
0001
0010
0000
0000
0000
0000
0000
0000
0000
0000
0000
0000
0010
0100
0000
0000
0000
0000
0000
0000
0000
0000
0000
0000
0100
0010
0000
0000
0000
0000
0000
0000
0000
0000
0000
0000
1000
0100
0000
0000
0000
0000
0000
0000
0000
0000
0000
0000
,
1001
0000
0020
0002
0000
0000
0033
0000
1001
0000
0200
0002
0000
0000
0303
0000
,
1001
0000
0200
0020
0000
0000
0330
0000
2001
0000
0020
0000
3130
0010
0000
0000
,
1001
0000
0001
0010
0000
0000
0110
0000
1001
0000
1000
0100
0000
0000
0110
0000
,
1001
0000
0000
0000
0000
0000
0000
0000
0000
0000
0000
0000
0001
0000
0000
0000
0000
0000
0010
0000
0000
0000
0000
0000
0000
0000
0000
0000
0000
0000
0000
0000
0000
0000
0000
0000
1010
0000
0000
0000
0000
0000
0000
0000
0000
0000
0000
0000
0001
0010
0000
0000
0000
0000
0000
0000
0000
0000
0000
0000
0010
0100
0000
0000
0000
0000
0000
0000
0000
0000
0000
0000
0100
0001
0000
0000
0000
0000
0000
0000
0000
0000
0000
0000
1000
0100
0000
0000
0000
0000
0000
0000
0000
0000
0000
0000
,
1001
0000
0002
0020
0000
0000
0033
0000
1001
0000
2000
0020
0000
0000
3030
0000
,
1001
0000
2000
0200
0000
0000
3300
0000
1002
0000
0020
0000
0233
0002
0000
0000
,
0303
0000
0000
0000
,
0000
0000
0000
0000
,
0000
0000
0000
0000
;
