#TITLE:Black Swan;
#SUBTITLE:DJ MAX TECHNIKA 3;
#ARTIST:TAK;
#CREDIT:;
#MUSIC:TAK - Black Swan.mp3;
#SELECTABLE:YES;
#BACKGROUND:;
#BANNER:;
#CDTITLE:;
#OFFSET:-0.147982;
#SAMPLESTART:0.000;
#SAMPLELENGTH:0.000;
#BPMS:0=86.9994,3=87.0023,4=86.9994,8=87.0023,9=86.9994,13=87.0023,14=86.9994,18=87.0023,19=86.9994,23=87.0023,24=86.9994,28=87.0023,29=86.9994,33=174.01,34=173.999,43=174.01,44=173.999,52=174.01,53=173.999,62=174.01,63=173.999,72=174.01,73=173.999,82=174.01,83=173.999,91=174.01,92=173.999,101=174.01,102=173.999,112=174.01,113=173.999,121=174.01,122=173.999,131=174.01,132=173.999,141=174.01,142=173.999,150=174.01,151=173.999,160=174.01,161=173.999,200=87.0023,201=86.9994,205=87.0023,206=86.9994,210=87.0023,211=86.9994,215=87.0023,216=86.9994,219=87.0023,220=86.9994,225=87.0023,226=86.9994,230=87.0023,231=86.9994,235=87.0023,236=86.9994,239=87.0023,240=86.9994,245=87.0023;
#STOPS:;

//---------------dance-single - ----------------
#NOTES:
     dance-single:
     :
     Challenge:
     15:
     0.000,0.000,0.000,0.000,0.000:
0002
0000
0000
0000
0000
0000
2003
0000
3200
0000
2300
3020
0032
0000
0000
0000
,
0000
2003
3020
0000
0000
0000
0000
2030
3020
0000
0000
0000
0000
1030
0001
0100
,
0010
1000
0010
0100
2000
0000
0000
0000
0000
0000
3011
0000
1001
0010
1000
0100
,
1010
0000
0100
0000
0001
0000
2100
0000
3120
0000
1030
0001
1020
0000
0001
0000
,
0001
0000
0000
0000
2030
0000
0000
0000
3002
0000
0000
0000
0000
0000
0000
0000
0010
0000
0000
0000
0000
0000
0000
0000
0010
0000
0000
0000
1003
0000
0000
0000
0010
0000
0000
0000
0010
0001
0000
0000
0010
0000
0000
0000
0100
0000
0000
0100
1000
0000
0000
0000
1000
0000
0000
0000
0100
0010
0000
0000
0001
0000
0000
0000
,
0100
0000
0000
0000
0010
0000
0000
0100
1000
0000
0000
0000
0100
0000
0000
0000
1000
0000
0100
0000
0010
0000
0000
0000
1000
0000
0010
0000
0001
0000
0000
0000
0100
0000
0010
0000
0001
0000
0000
0000
1000
0000
0100
0000
0010
0000
0000
0000
1000
0000
0100
0000
0001
0000
0000
0000
0100
0000
0010
0000
0001
0000
0000
0000
,
0000
0000
0000
0000
0000
0000
0000
0000
0000
0000
0000
0000
1001
0010
0100
1000
,
0000
0000
0100
0000
0010
0000
0100
0010
0001
0000
0100
0000
1000
0000
0001
0000
0000
0000
0001
0000
0010
0000
1000
0000
0000
0000
1000
0000
0010
0000
0100
0000
,
0001
0110
1010
0000
0110
0000
0101
0000
,
0110
0000
1010
0100
0001
0010
0001
0100
,
0001
0000
0010
0000
1000
0000
0010
0000
1000
0000
0100
0010
1000
0000
0010
0000
,
1000
0100
1000
0010
0100
0001
0010
0001
,
0010
0000
0100
0000
1000
0100
0010
0000
0100
0010
0001
0000
1000
0100
0010
0001
,
0100
0010
0001
1000
0110
0000
0001
0100
0001
0000
0010
0000
1000
0010
1000
0000
,
0010
0000
0001
0100
0001
0100
0010
1000
0010
1000
0100
1000
0100
1000
0010
1000
,
0010
1000
0001
1000
0001
0000
0010
1000
0010
0000
1000
0000
0100
0001
0100
0000
,
0010
0000
1000
0010
1000
0010
0001
0010
1000
0100
1000
0100
0001
0100
1000
0010
,
1000
0100
1000
0100
0001
0000
0010
0100
0010
0000
1000
0000
0010
0001
0010
0000
,
1000
0000
0100
1000
0100
1000
0010
1000
0010
1000
0001
1000
0001
0010
0001
0010
,
0001
0010
0100
0010
0100
0000
1000
0010
1000
0000
0010
0000
0001
0100
0001
0000
,
0010
0000
1000
0100
1000
0100
0010
0001
0010
0001
0100
0010
0100
0010
1000
0100
,
1000
0100
1000
0100
0001
0000
0000
0000
1000
0000
0001
0000
0000
0000
0001
0000
,
0000
0000
1000
0000
0000
0000
0001
0000
1000
0000
0000
0010
0001
0000
0001
0000
,
1000
0000
0001
0000
0010
0001
0000
1000
,
0000
0000
0000
0000
0001
0000
0000
0000
0000
0000
0000
0000
1000
0001
1000
0000
0001
0010
0001
0000
0000
0000
0000
0000
0010
0000
0000
0000
0000
0000
0000
0000
,
1000
0010
0000
0100
,
1000
0100
0010
0001
,
1000
0010
0100
0001
,
1000
0001
1000
0100
,
0001
0010
0100
0001
,
0000
1000
0100
0000
0001
0000
0010
0000
,
0100
1002
0000
2003
,
3020
0032
0203
0320
,
0000
2031
3200
0320
,
2030
3002
0000
1023
,
0100
1000
0001
2130
,
3002
0203
0320
0030
,
0012
0203
0320
0230
,
0300
0201
0320
2030
,
3020
0030
2010
3020
,
0031
0000
0000
0000
0010
0100
1000
0000
0001
0010
0100
0000
0010
0100
1000
0000
,
0021
0000
0030
0210
,
1000
1300
0120
0001
,
0031
0120
1000
0031
,
0210
1000
0301
2010
,
0010
3100
0202
0000
,
0303
0022
0000
0033
,
1001
0010
0100
0010
0001
0100
1001
0010
,
0001
0100
0010
0001
1100
0010
0001
0100
,
0010
1000
1001
0010
0101
0010
1100
0010
,
0101
0000
0001
0000
0001
0000
1010
0000
0100
0000
1000
0100
0011
0000
0100
0000
,
0100
0001
0100
0000
1000
0000
1000
0010
1000
0000
0100
0000
0100
0001
0100
0010
,
1000
0100
1000
0010
1000
0000
0010
0000
0010
0000
1010
0000
0100
1000
0100
0010
,
0101
0010
1000
0100
0001
0000
1010
0100
0001
0100
1000
0000
1100
0001
0010
0100
,
0010
0000
0000
0000
0000
0000
0000
0000
0101
0000
0000
0000
1000
0000
0000
0000
0001
0000
0000
0000
1000
0000
0000
0000
0010
0000
0000
0000
0000
0000
0000
0000
0101
0000
0000
0000
0010
0001
0000
0000
1000
0000
0000
0000
0010
0000
0000
0010
0100
0000
0000
0000
0010
0000
0000
0000
0001
0010
0000
0000
1000
0000
0000
0000
,
0010
0000
0000
0000
0100
0000
0000
0010
0001
0000
0000
0000
0010
0000
0000
0000
1000
0000
0100
0000
0010
0000
0000
0000
0010
0000
0001
0000
0010
0000
0000
0000
0001
0000
0010
0000
0100
0000
0000
0000
0100
0000
1000
0000
0100
0000
0000
0000
1000
0000
0010
0000
0100
0000
0000
0000
0001
0000
0100
0000
0010
0000
0000
0000
,
1001
0000
0000
0000
0000
0000
0002
0000
0023
0000
0230
0302
0023
0000
0000
0000
,
0000
0000
0230
0302
0023
0000
0000
0000
0000
0000
0000
0000
0000
0000
0230
0000
0302
0000
0000
0000
0000
0000
0000
0000
0000
0000
0203
0000
0320
0000
0000
0000
,
0032
0023
2030
0000
0000
0000
0000
0000
,
0000
0000
0000
0000
0000
0000
0000
0000
0000
0000
0000
0000
0000
0000
0000
0000
0000
0000
0000
0000
0000
0000
0000
0000
0000
0000
0000
0000
0000
3000
0000
0000
,
0000
0000
0000
0000
,
0000
0000
0000
0000
;
