#TITLE:Bamboo on Bamboo;
#SUBTITLE:DJ MAX TECHNIKA 3;
#ARTIST:Sampling Masters MEGA;
#CREDIT:;
#MUSIC:Sampling Masters MEGA - Bamboo on Bamboo.mp3;
#SELECTABLE:YES;
#BACKGROUND:;
#BANNER:;
#CDTITLE:;
#OFFSET:-0.181995;
#SAMPLESTART:0.000;
#SAMPLELENGTH:0.000;
#BPMS:0=200;
#STOPS:;

//---------------dance-single - ----------------
#NOTES:
     dance-single:
     :
     Challenge:
     17:
     0.000,0.000,0.000,0.000,0.000:
1002
0000
0013
0001
0000
0100
1000
0000
,
0010
1000
0000
0010
0100
1000
0001
0100
,
2001
0000
3100
0010
0000
1000
0001
0000
,
0010
1000
0000
0001
0010
0100
0010
1000
,
0201
0000
0310
0001
0000
0010
0100
0000
,
0010
1000
0000
0001
0010
0001
0100
0001
,
1002
0000
0103
0001
0000
0010
0100
0000
,
1000
0000
0001
0000
0000
0000
0010
0000
1000
0000
0010
0000
0100
1000
0100
0010
,
1001
0100
1000
0010
0001
0010
0100
0010
,
0001
0010
1000
0100
0001
0100
1000
0100
,
1000
0100
0010
0010
0010
1000
0001
0010
,
1000
0000
1000
0000
0010
0000
0010
0000
0001
0000
0100
0000
1000
0010
0100
0001
,
0010
0001
0100
0010
0001
1000
0010
0001
,
0010
0001
0100
1000
0100
0010
1000
0100
,
1000
0100
0001
0001
0001
0010
1000
0100
,
0001
0000
0001
0000
0010
0000
0010
0000
0100
0000
0100
0000
1000
0100
0010
0001
,
1000
0010
1000
0100
1000
0010
1000
0100
,
1000
0010
1000
0100
1000
0010
1000
0100
,
0001
0100
0001
0010
0001
0100
0001
0010
,
1001
0000
0000
0000
0100
0000
1000
0000
0010
0000
0100
0000
0001
0100
0010
0001
,
1000
0010
1000
0001
1000
0010
1000
0001
,
1000
0010
1000
0001
1000
0010
1000
0001
,
0010
1000
0010
0100
0010
1000
0010
0100
,
1001
0000
0000
1001
,
1001
0010
0100
0001
0100
0010
0100
1000
,
0100
0010
0100
1000
0100
0001
1000
0010
,
0001
0010
0100
1000
0001
0010
0100
0001
,
1000
0000
0010
0000
1000
0000
0100
0000
1000
0000
0100
0000
0010
0001
0100
0010
,
1000
0010
0001
0100
0001
1000
0010
0100
,
0001
0010
0001
0100
0010
1000
0100
0010
,
0001
0100
0010
1000
0100
0001
0010
1000
,
0100
0000
0010
0000
1000
0000
0010
0000
0001
0000
0010
0000
0100
0001
0010
1000
,
0001
0100
1000
0100
0001
0010
1000
0010
,
0001
0100
1000
0100
0001
0010
1000
0010
,
0001
1000
0010
1000
0001
1000
0100
0010
,
1001
0000
0000
0000
1000
0000
0010
0000
1000
0000
0001
0000
0100
0010
0001
1000
,
0100
1000
0100
0010
0100
0010
0001
0010
,
0100
0010
0001
0010
0100
0001
0100
0010
,
0100
1000
0100
0010
0100
0001
0100
0010
,
1100
0000
0000
0000
0000
0000
0000
0000
0000
0000
0000
0000
1000
0010
0100
0001
,
0010
1000
0000
0010
0000
0001
1000
0010
,
0000
1000
0000
0001
0100
0010
1000
0010
,
1000
0001
0000
0010
0000
1000
0100
0001
,
0000
0000
0100
0000
0000
0000
0001
0000
0010
0000
0000
0000
0100
1000
0100
0000
,
0101
0010
0000
1000
0000
0010
1000
0100
,
0000
0001
0000
0100
0001
0010
0001
0100
,
1000
0010
0000
0001
0000
1000
0100
0001
,
0000
0000
0000
0100
0000
0000
0000
0000
0000
0010
0000
0000
0100
0000
0001
0000
0100
0000
0010
0000
1000
0000
0001
0000
,
0100
0001
0000
0010
0000
1000
0010
0100
,
0000
0001
0000
0100
0101
0001
1010
0001
,
1010
0100
0000
0001
0000
1000
1010
1000
,
0000
0000
0001
0000
0000
0000
0100
0000
0011
0000
0000
0000
0010
1000
0010
0000
,
1100
0010
0000
0001
0000
1000
0010
0100
,
0000
1000
0000
0001
1100
0010
0101
1000
,
0011
0000
0000
1100
0000
0000
0101
0000
,
0000
0000
0000
1010
0000
0000
0000
0000
0000
0000
0000
0000
0011
0000
1000
0000
0010
0000
0100
0000
0001
0000
0010
0000
,
0001
1000
0010
0100
0000
0001
0000
0010
,
1000
0010
0000
0001
1000
0010
0100
0010
,
0000
0001
0100
1000
0100
1000
0000
0010
,
1001
0010
0001
0100
0000
1000
0000
0010
,
0001
0010
0000
1000
0100
0001
0100
0010
,
0000
0000
0100
0000
1000
0000
0000
0000
0000
0000
1000
0001
0010
0000
0001
0000
,
1001
0100
0001
0100
0000
0010
0000
1000
,
0001
0010
0000
0001
1000
0100
0001
0100
,
0000
0100
0001
0100
0010
0001
0000
0010
,
1001
0010
0100
0001
0000
1000
0000
0100
,
0001
0100
0000
1000
0010
1000
0001
0010
,
0000
0100
1000
0010
0100
0001
0000
0010
,
1001
0000
0000
0011
0000
0000
1100
0000
,
0000
0110
0000
0000
1001
0000
1010
0000
,
1001
0011
1010
0011
,
0100
0010
0000
0010
0100
0000
0001
0000
0010
0000
1000
0000
0100
1000
0000
1000
,
0100
0000
0010
0000
0100
0000
0001
0000
1000
0100
0010
0100
0001
0010
0100
0010
,
1000
0000
0001
0000
0100
0000
0010
0000
0001
0000
1000
0000
0010
0000
0100
0000
0001
0100
0010
1000
0001
0100
0010
1000
0100
0010
0001
1000
0010
0001
1000
0100
,
0001
1000
0010
0100
0001
0010
0001
0100
,
1000
0010
0100
1000
0001
0010
0100
0001
,
1000
0010
1000
0001
0010
0100
0001
0010
,
1000
0000
0010
0000
0001
0000
0010
0000
1000
0000
0010
0000
0001
0010
0100
0010
,
1000
0001
0010
1000
0100
0010
0100
1000
,
0100
0001
0100
1000
0100
0010
0100
1000
,
0001
0010
1000
0010
0001
0010
1000
0100
,
0001
0000
1000
0000
0010
0000
1000
0000
0001
0000
0010
0000
1000
0010
0001
0010
,
2100
0000
3001
2010
0000
3001
0000
0000
,
0001
0100
0010
0001
1000
0010
0100
0000
,
2001
0000
3100
0021
0000
0130
0000
0000
,
1000
0010
0010
0100
0001
0001
1000
0000
,
0201
0000
0310
1020
0000
0130
0000
0000
,
0001
1000
0010
0100
0001
0100
0010
0000
,
1020
0000
0031
0012
0000
0103
0000
0000
,
1020
0030
0102
0003
0210
0300
2001
3000
,
0022
0000
0033
2200
0000
3300
2020
3030
,
0022
0033
0022
0000
0033
2020
3030
0010
,
2200
0000
3300
0022
0000
0033
0220
0330
,
2002
3003
0220
0000
0330
0011
1100
0110
,
1001
0100
1000
0010
0000
0001
0010
0001
,
0100
0000
1000
0100
1000
0010
0001
0100
,
0001
0010
1000
0010
1000
0100
0001
1000
,
0100
0001
0010
0100
0010
0001
1000
0010
,
2002
0000
0000
0000
0000
3003
0000
0000
0000
0000
0000
0000
0000
0000
0000
0000
,
0000
0000
0000
0000
,
0000
0000
0000
0000
,
0000
0000
0000
0000
,
0000
0000
0000
0000
,
0000
0000
0000
0000
,
0000
0000
0000
0000
,
0000
0000
0000
0000
;
