#TITLE:2 tribe 4 K;
#SUBTITLE:Beatmania IIDX 15th DJ TROOPERS;
#ARTIST:DJ Remo-con;
#CREDIT:;
#MUSIC:2 tribe 4 K.mp3;
#SELECTABLE:YES;
#BACKGROUND:;
#BANNER:;
#CDTITLE:;
#OFFSET:-1.36499;
#SAMPLESTART:0.000;
#SAMPLELENGTH:0.000;
#BPMS:0=140;
#STOPS:;

//---------------dance-single - ----------------
#NOTES:
     dance-single:
     :
     Challenge:
     15:
     0.000,0.000,0.000,0.000,0.000:
0000
0000
0000
0000
,
0000
0000
0000
0000
,
0000
0000
0000
0000
,
0000
0000
0000
0000
,
0000
0000
0000
0000
1002
0000
0000
0000
1003
0000
0000
0001
0000
0010
0001
0000
,
0001
0000
0000
0000
2001
0000
0000
0000
3001
0000
0000
1000
0000
0100
1000
0000
,
1000
0000
0000
0000
0021
0000
0000
0000
0031
0000
0000
0010
0000
1000
0010
0000
,
0010
0000
0000
0010
0000
0000
1010
0000
0000
0000
0000
0000
0110
0000
0000
0000
0000
0000
0101
0000
0010
0000
0100
0000
,
0011
0000
0100
0000
1001
0000
1000
0000
0001
0000
0000
0010
0000
0010
0001
0000
,
0001
0000
0010
0000
1001
0000
0001
0000
1000
0000
0000
0100
0000
0100
1000
0000
,
1000
0000
0100
0000
1100
0000
0010
0000
0001
0000
0000
1000
0000
1000
0100
0000
,
0100
0000
0010
0000
0011
0000
0100
0000
1000
0000
0000
0000
0001
0000
0000
1000
,
0000
0000
0100
0000
1001
0000
0000
0001
0000
0000
0000
0100
0000
0010
1000
0010
,
0100
0000
1000
0000
1001
0000
0000
1000
0000
0000
0000
0010
0000
0100
0001
0100
,
0010
0000
0100
0000
1001
0000
0000
0001
0000
0000
0000
0100
0000
0001
0010
0100
,
1000
0000
0100
0000
1001
0000
0000
1000
0000
0000
0000
0010
0000
1000
0100
1000
,
0001
0000
0001
0000
1001
0010
0100
0010
0001
0100
0001
0000
0011
0000
0110
0000
,
0100
1000
0100
0010
0100
0000
1000
0010
0001
0010
1000
0000
0110
0000
1010
0000
,
0001
0010
0001
0100
0001
0000
0110
0000
0100
0010
1000
0100
1000
0000
0110
0000
,
1010
0110
0011
0101
0110
0011
1010
0101
,
1100
0000
0110
0000
1001
0000
0001
0010
1000
0100
0001
0010
0001
0000
1100
0000
,
1000
0000
0000
0100
0000
0000
0001
0000
0000
0010
0000
0000
1000
0000
0000
0000
0000
0000
0010
0000
0000
1000
0000
0000
0010
0000
0000
0000
0000
0000
0001
0000
0000
0010
0000
0000
0100
0000
1000
0000
0001
0000
0010
0000
0000
0100
0000
0000
,
1000
0100
0001
0000
1001
0000
0000
0000
0000
0000
1001
0000
0000
0000
0000
0000
,
0000
0001
1001
0000
0000
1001
0000
0000
,
0000
0001
1001
0000
0000
0001
0010
0000
,
0000
0000
0001
0000
0010
0000
0000
0010
0000
0000
0001
0000
0000
0000
0001
0000
,
0010
0000
0100
0000
1000
0000
0000
0000
0000
0000
1000
0100
1000
0000
0000
0000
,
0000
0000
0100
1000
0100
0000
0000
0100
0000
0000
1000
0000
0000
1000
0000
0000
,
0100
0000
0010
0000
0001
0000
0000
0000
0000
0001
0100
0001
0010
0000
0000
0000
,
0000
0100
0000
0000
0000
0010
0000
0010
0000
0000
0100
0001
0000
0000
0001
0000
,
0100
0000
0000
0000
1000
0000
0000
0000
0000
0010
0000
0000
0100
0000
0000
0000
,
0000
0000
0000
0000
0000
0000
0010
0000
0000
0000
0000
0000
1000
0000
0000
0000
0000
0000
0000
0000
0000
0100
0000
0000
0000
0000
0000
0000
0000
0000
0010
0000
0000
0000
0000
0000
0001
0000
0000
0000
0010
0000
0000
0000
0100
0000
0000
0000
,
1000
0000
1000
0000
0001
0000
0000
0100
0000
0000
0001
0000
0000
0010
0000
0000
,
1000
0000
0010
0000
0100
0000
0000
0001
0000
0000
0010
0000
0000
0100
0000
0000
,
0001
0000
0010
0000
1000
0000
0000
0100
0000
0000
0001
0000
0000
1000
0000
0000
,
0010
0000
0001
0000
0010
2010
0000
3010
0210
0000
0310
0012
0000
0013
0210
0000
,
0320
0030
0000
0000
0000
0000
0000
0000
,
0000
0000
0000
0000
1000
0000
0000
0002
0000
0003
0000
0000
2200
0000
0000
3300
,
0000
0000
0002
0000
0003
0000
0022
0000
0033
0202
0000
0303
0022
0000
0000
0033
,
0000
0000
0002
0000
0003
0000
0002
0000
0003
0000
0000
0000
2200
0000
0000
3300
,
0000
0000
0002
0000
0003
2020
0000
3030
0000
0010
0022
0033
2020
0000
3030
0000
,
0010
0100
1000
0200
0300
0000
0202
0000
0303
0000
0020
0030
2020
0000
0000
3030
,
0000
0000
0200
0000
0300
0000
0002
0000
0003
0001
0022
0033
2200
0000
0000
3300
,
0000
0000
0002
0000
0003
0000
0002
0003
0000
0001
0100
0001
0000
0001
0100
0001
,
1000
0001
0100
0001
0010
0000
0000
0000
0000
0000
0000
0000
0000
0000
0000
0000
,
0000
0001
0000
1000
0001
0000
0000
0002
0000
0003
1000
0000
0202
0000
0000
0303
,
1000
0000
0002
0000
0003
0000
0202
0000
0303
0022
0000
0033
0202
0000
0000
0303
,
1000
0000
2000
3000
0000
0000
0002
0000
0003
0000
1000
0000
0022
0000
0000
0033
,
1000
0000
0200
0000
0300
0000
0002
0000
0003
0001
1000
0000
0000
0002
0000
0003
,
0000
0000
0000
0001
0000
0000
0001
0000
0000
0000
0000
0000
0001
0000
0010
0000
0100
0000
1000
0000
0000
0000
0000
0000
1000
0000
0000
0000
0000
0000
0002
0000
0000
0003
0000
0000
0022
0000
0000
0000
0000
0000
0000
0000
0000
0033
0000
0000
,
1000
0000
0002
0000
0003
0000
0001
0000
0000
0001
0001
0000
2200
0000
0000
3300
,
1000
0000
0002
0003
0000
0000
0202
0000
0303
0000
0020
0030
2200
0000
0000
3300
,
0002
0003
0020
0030
0000
0000
0002
0000
0003
0010
0100
1000
0000
0200
0000
0300
,
0000
0002
0000
0003
0100
0000
0000
1000
0000
0000
0100
0000
0000
1000
0000
0000
,
0100
0000
0010
0000
0001
0000
0000
0100
0000
0000
1000
0000
0000
0010
0000
0000
,
0100
0000
0001
0000
0000
0000
0000
0022
0000
0033
0000
0000
2020
0000
0000
0000
,
3030
0000
0202
0303
0000
0000
0022
0033
0000
0001
0100
0000
0000
0001
0000
0000
,
0000
0010
1000
0000
0001
0000
0000
0100
0000
0000
0010
0000
0000
0010
0000
0000
,
1000
0000
0100
0000
1000
0000
0000
1000
0000
0000
0010
0000
0000
0100
0000
0000
,
0100
0001
0000
1000
0100
1000
0100
0000
,
0100
0000
1000
0000
0002
0100
0000
2003
0010
0000
3200
1000
0000
0320
1000
0000
,
0230
0000
0300
0000
0022
0000
0033
0202
0000
0303
2002
0000
3003
2020
0000
3030
,
0022
0033
2200
3300
2200
0000
3000
0020
0000
0330
0022
0000
0003
2000
0000
3030
,
2200
3300
0220
0330
0022
0000
0033
2020
0000
3030
0220
0000
0330
2020
0000
3030
,
0020
0000
0200
0000
0331
0100
0000
0000
0100
0000
0010
0000
0010
1000
0000
0000
,
0100
0000
0001
0000
0001
0010
0100
0001
1000
0100
0010
0000
0001
0010
0100
0010
,
0100
1000
0100
0000
1000
0010
0100
0010
1000
0100
1000
0000
0001
0010
0001
0100
,
0001
0000
1000
0000
0001
0000
0000
0000
1000
0000
0000
0000
1000
0001
1000
0001
1000
0000
0001
0000
1000
0010
0001
1000
0001
0010
1000
0010
0001
0100
1000
0010
,
0001
0010
0100
0010
1000
0100
1000
0100
0002
0000
0203
0000
0000
0000
0320
0000
2000
0000
0000
0000
3032
0000
0203
0000
0000
0300
0200
0000
2000
0000
3000
0001
,
0310
0000
0000
0000
,
0000
0000
0000
0000
;
