#TITLE:o o o;
#SUBTITLE:;
#ARTIST:doin;
#TITLETRANSLIT:;
#SUBTITLETRANSLIT:;
#ARTISTTRANSLIT:;
#GENRE:;
#CREDIT:;
#MUSIC:o o o.ogg;
#BANNER:o o o-bn.png;
#BACKGROUND:o o o-bg.png;
#CDTITLE:;
#SAMPLESTART:1.721;
#SAMPLELENGTH:25.600;
#SELECTABLE:YES;
#OFFSET:-0.121;
#BPMS:0.000=75.000;
#STOPS:;
#DISPLAYBPM:*;
#BGCHANGES:;
#FGCHANGES:;

//--------------- dance-single - ----------------
#NOTES:
     dance-single:
     :
     Beginner:
     2:
     0,0,0,0,0:
0000
0000
1000
0100
,
0010
0001
1000
0100
,
0010
0001
1000
0100
,
0010
0001
1000
0100
,
0010
0000
0001
0000
1000
0000
0000
0010
,
0000
0000
0100
0000
0001
0000
0000
0100
,
0000
0000
0010
0000
1000
0000
0000
0100
,
0000
0000
0010
0000
0001
0000
0000
0010
,
0000
0000
0100
0000
1000
0000
0000
0100
,
0000
0000
0010
0000
0001
0000
0000
0100
,
0000
0000
0010
0000
1000
0000
0000
0010
,
0000
0000
0100
0000
0001
0000
0000
0010
,
0000
0100
1000
0100
,
0010
0100
1000
0010
,
0100
0010
1000
0100
,
0010
0001
1000
0010
,
0100
0001
1000
0010
,
0100
0010
1000
0100
,
0010
0100
1000
0010
,
0100
0001
1000
0100
,
0010
0001
1000
0100
,
0010
0001
1000
0100
,
0010
0001
1000
0100
,
0010
0001
1000
0100
,
0010
0001
1000
0100
,
0010
0100
1000
0100
,
0010
0001
0010
0100
,
0010
0100
1000
0100
,
0010
0001
1000
0010
,
0100
0010
1000
0010
,
0100
0001
0100
0010
,
0100
0010
1000
0010
,
0100
0000
0000
0000
2002
3003
0000
0000
1000
0000
0000
0000
0100
0000
0000
0000
,
0010
0001
1000
0100
,
0010
0001
1000
0100
,
0010
0001
1000
0100
,
0010
0000
0001
0000
1000
0000
0000
0010
,
0000
0000
0100
0000
0001
0000
0000
0100
,
0000
0000
0010
0000
1000
0000
0000
0100
,
0000
0000
0010
0000
0001
0000
0000
0010
,
0000
0000
0100
0000
1000
0000
0000
0100
,
0000
0000
0010
0000
0001
0000
0000
0100
,
0000
0000
0010
0000
1000
0000
0000
0010
,
0000
0000
0100
0000
0001
0000
0000
0010
,
0000
0000
0100
0000
1000
0000
0000
0100
,
0000
0000
0010
0000
0100
0000
0000
0010
,
0000
0000
0001
0000
1000
0000
0000
0010
,
0000
0000
0100
0000
0010
0000
0000
0100
,
0000
0000
0001
0000
1000
0000
0000
0100
,
0000
0000
0010
0000
0100
0000
0000
0010
,
0000
0000
0001
0000
1000
0000
0000
0010
,
0000
0000
0100
0000
0010
0000
0000
0100
,
0000
0001
0000
0000
,
0000
0000
0000
0000
,
0000
0000
0000
0000
,
0000
0000
0000
0000
,
0000
0000
1000
0100
,
0010
0100
1000
0100
,
0010
0001
0010
0100
,
0010
0100
1000
0100
,
0010
0001
1000
0010
,
0100
0010
1000
0010
,
0100
0001
0100
0010
,
0100
0010
1000
0010
,
0100
0001
1000
0100
,
1000
0010
0100
0001
,
0010
0001
0100
0010
,
1000
0100
1000
0010
,
0100
0000
0000
0000
2002
3003
0000
0000
0000
0000
0000
0000
0000
0000
0000
0000
;

//--------------- dance-single - ----------------
#NOTES:
     dance-single:
     :
     Easy:
     3:
     0,0,0,0,0:
0000
0000
0000
0000
2000
3000
0200
0300
,
0020
0030
0002
0003
2000
3000
0200
0300
,
0020
0030
0002
0003
2000
3000
0020
0030
,
0200
0300
0002
0003
2000
3000
0020
0030
,
0200
0000
0300
0000
0002
0000
0003
0000
1000
0000
0000
0100
0000
0000
0010
0000
,
0000
0100
0000
0000
1000
0000
0000
0000
0001
0000
0000
0010
0000
0000
0100
0000
,
0000
0010
0000
0000
0001
0000
0000
0000
1000
0000
0000
0010
0000
0000
0100
0000
,
0000
0010
0000
0000
1000
0000
0000
0000
0001
0000
0000
0100
0000
0000
0010
0000
,
0000
0100
0000
0000
0001
0000
0000
0000
1000
0000
0000
0100
0000
0000
0010
0000
,
0000
0001
0000
0000
1000
0000
0000
0000
0001
0000
0000
0010
0000
0000
0100
0000
,
0000
1000
0000
0000
0001
0000
0000
0000
1000
0000
0000
0010
0000
0000
0100
0000
,
0000
0001
0000
0000
1000
0000
0000
0000
0001
0000
0000
0100
0000
0000
0010
0000
,
0000
1000
0000
0000
0001
0000
0000
0000
2000
3000
0000
0000
0100
0000
0010
0000
,
0002
0003
0000
0000
0020
0030
0000
0000
0200
0300
0000
0000
1000
0000
0010
0000
,
2000
3000
0000
0000
0200
0300
0000
0000
0020
0030
0000
0000
0001
0000
0010
0000
,
0002
0003
0000
0000
0200
0300
0000
0000
0020
0030
0000
0000
1000
0000
0100
0000
,
2000
3000
0000
0000
0020
0030
0000
0000
0200
0300
0000
0000
0001
0000
0010
0000
,
0002
0003
0000
0000
0200
0300
0000
0000
0020
0030
0000
0000
1000
0000
0100
0000
,
2000
3000
0000
0000
0200
0300
0000
0000
0020
0030
0000
0000
0001
0000
0010
0000
,
0002
0003
0000
0000
0020
0030
0000
0000
0200
0300
0000
0000
1000
0000
0010
0000
,
0200
0300
0000
0000
0020
0030
0000
0000
2000
0000
3000
0000
0200
0000
0300
0000
,
0020
0030
0200
0300
2000
3000
0020
0030
,
0200
0300
0020
0030
2000
3000
0200
0300
,
0020
0030
0002
0003
2000
3000
0020
0030
,
0200
0000
0300
0000
0002
0000
0003
0000
2000
3000
0000
0000
0010
0000
0100
0000
,
0002
0003
0000
0000
0200
0300
0000
0000
0020
0030
0000
0000
1000
0000
0100
0000
,
2000
3000
0000
0000
0200
0300
0000
0000
0020
0030
0000
0000
0001
0000
0100
0000
,
0002
0003
0000
0000
0020
0030
0000
0000
0200
0300
0000
0000
1000
0000
0100
0000
,
0020
0030
0000
0000
0200
0300
0000
0000
1000
0000
0000
0000
1000
0000
0001
0000
,
0100
0000
0010
0000
0001
0000
0010
1000
,
0001
0000
0010
0000
0100
0000
1000
0001
,
0010
0000
0100
0000
0001
0000
1000
0100
,
2000
3000
0000
0000
2002
3003
0000
0000
2000
0000
3000
0000
0200
0000
0300
0000
,
0020
0030
0002
0003
2000
3000
0200
0300
,
0020
0030
0002
0003
2000
3000
0020
0030
,
0200
0300
0002
0003
2000
3000
0020
0030
,
0200
0000
0300
0000
0002
0000
0003
0000
1000
0000
0000
0100
0000
0000
0010
0000
,
0000
0100
0000
0000
1000
0000
0000
0000
0001
0000
0000
0010
0000
0000
0100
0000
,
0000
0010
0000
0000
0001
0000
0000
0000
1000
0000
0000
0010
0000
0000
0100
0000
,
0000
0010
0000
0000
1000
0000
0000
0000
0001
0000
0000
0100
0000
0000
0010
0000
,
0000
0100
0000
0000
0001
0000
0000
0000
1000
0000
0000
0100
0000
0000
0010
0000
,
0000
0001
0000
0000
1000
0000
0000
0000
0001
0000
0000
0010
0000
0000
0100
0000
,
0000
1000
0000
0000
0001
0000
0000
0000
1000
0000
0000
0010
0000
0000
0100
0000
,
0000
0001
0000
0000
1000
0000
0000
0000
0001
0000
0000
0100
0000
0000
0010
0000
,
0000
0000
1000
0000
0000
0000
0000
0000
0001
0000
0000
0000
0000
0000
0000
0000
2000
0000
0000
0000
0000
3000
1000
0000
0000
0000
0000
0000
0200
0000
0000
0000
,
0000
0300
0100
0000
0000
0000
0000
0000
0020
0000
0000
0030
0020
0000
0000
0030
0002
0000
0000
0000
0000
0003
0001
0000
0000
0000
0000
0000
0200
0000
0000
0000
,
0000
0300
0100
0000
0000
0000
0000
0000
0020
0000
0000
0030
0020
0000
0000
0030
2000
0000
0000
0000
0000
3000
1000
0000
0000
0000
0000
0000
0020
0000
0000
0000
,
0000
0030
0010
0000
0000
0000
0000
0000
0200
0000
0000
0300
0200
0000
0000
0300
0002
0000
0000
0000
0000
0003
0001
0000
0000
0000
0000
0000
0020
0000
0000
0000
,
0000
0030
0010
0000
0000
0000
0000
0000
0200
0000
0000
0300
0200
0000
0000
0300
2000
0000
0000
0000
0000
3000
1000
0000
0000
0000
0000
0000
0200
0000
0000
0000
,
0000
0300
0100
0000
0000
0000
0000
0000
0020
0000
0000
0030
0020
0000
0000
0030
0002
0000
0000
0000
0000
0003
0001
0000
0000
0000
0000
0000
0200
0000
0000
0000
,
0000
0300
0100
0000
0000
0000
0000
0000
0020
0000
0000
0030
0020
0000
0000
0030
2000
0000
0000
0000
0000
3000
1000
0000
0000
0000
0000
0000
0020
0000
0000
0000
,
0000
0030
0010
0000
0000
0000
0000
0000
0200
0000
0000
0300
0200
0000
0000
0300
0002
0000
0000
0000
0000
0003
0001
0000
0000
0000
0000
0000
0020
0000
0000
0000
,
0000
0030
0010
0000
0000
0000
0000
0000
0200
0000
0000
0300
0200
0000
0000
0300
0000
0000
0000
0000
0000
0000
0000
0000
0000
0000
0000
0000
0000
0000
0000
0000
,
0000
0000
0000
0000
,
0000
0000
0000
0000
,
0000
0000
0000
0000
,
1000
0000
0000
0000
0001
0000
0000
0000
2000
3000
0000
0000
0100
0000
0100
0000
,
2000
3000
0000
0000
0020
0030
0000
0000
0200
0300
0000
0000
0001
0000
0010
0000
,
0002
0003
0000
0000
0020
0030
0000
0000
0200
0300
0000
0000
1000
0000
0010
0000
,
2000
3000
0000
0000
0200
0300
0000
0000
0020
0030
0000
0000
0001
0000
0100
0000
,
0002
0003
0000
0000
0200
0300
0000
0000
0020
0030
0000
0000
1000
0000
0100
0000
,
2000
3000
0000
0000
0020
0030
0000
0000
0200
0300
0000
0000
0001
0000
0100
0000
,
0002
0003
0000
0000
0020
0030
0000
0000
0200
0300
0000
0000
1000
0000
0010
0000
,
2000
3000
0000
0000
0200
0300
0000
0000
0020
0030
0000
0000
0001
0000
0010
0000
,
0200
0300
0000
0000
2000
3000
0000
0000
1000
0000
0000
0000
0100
0000
0010
0000
,
0001
0000
0010
0000
0100
0000
1000
0001
,
1000
0000
0010
0000
0001
0000
0100
0001
,
0010
0000
0100
0000
1000
0000
0001
0010
,
0001
0000
0000
0000
2002
3003
0000
0000
0000
0000
0000
0000
0000
0000
0000
0000
;

//--------------- dance-single - ----------------
#NOTES:
     dance-single:
     :
     Medium:
     4:
     0,0,0,0,0:
0000
0000
0000
0000
2000
3000
0200
0300
,
0020
0030
0002
0003
2000
3000
0200
0300
,
0020
0030
0002
0003
2000
3000
0020
0030
,
0200
0300
0002
0003
2000
3000
0020
0030
,
0200
0000
0300
0000
0002
0000
0003
0000
1000
0000
0000
0100
0000
0000
0010
0000
,
0000
0100
0000
0000
1000
0000
0000
0000
0001
0000
0000
0010
0000
0000
0100
0000
,
0000
0010
0000
0000
0001
0000
0000
0000
1000
0000
0000
0010
0000
0000
0100
0000
,
0000
0010
0000
0000
1000
0000
0000
0000
0001
0000
0000
0100
0000
0000
0010
0000
,
0000
0100
0000
0000
0001
0000
0000
0000
1000
0000
0000
0100
0000
0000
0010
0000
,
0000
0001
0000
0000
1000
0000
0000
0000
0001
0000
0000
0010
0000
0000
0100
0000
,
0000
1000
0000
0000
0001
0000
0000
0000
1000
0000
0000
0010
0000
0000
0100
0000
,
0000
0001
0000
0000
1000
0000
0000
0000
0001
0000
0000
0100
0000
0000
0010
0000
,
0000
1000
0000
0000
0001
0000
0000
0000
2000
3000
0000
0000
0100
0010
0001
0000
,
2000
3000
0000
0000
0020
0030
0000
0000
0200
0300
0000
0000
0001
0010
0001
0010
,
0002
0003
0000
0000
0200
0300
0000
0000
0020
0030
0000
0000
1000
0100
0010
0000
,
0002
0003
0000
0000
0020
0030
0000
0000
0200
0300
0000
0000
1000
0010
1000
0010
,
2000
3000
0000
0000
0020
0030
0000
0000
0200
0300
0000
0000
0001
0010
0100
0000
,
2000
3000
0000
0000
0200
0300
0000
0000
0020
0030
0000
0000
0001
0100
0010
1000
,
0002
0003
0000
0000
0200
0300
0000
0000
0020
0030
0000
0000
1000
0100
0010
0000
,
0002
0003
0000
0000
0020
0030
0000
0000
0200
0300
0000
0000
1000
0100
0010
0001
,
0200
0300
0000
0000
0020
0030
0000
0000
2000
0000
3000
0000
0200
0000
0300
0000
,
0020
0030
0200
0300
2000
3000
0020
0030
,
0200
0300
0020
0030
2000
3000
0200
0300
,
0020
0030
0002
0003
2000
3000
0020
0030
,
0200
0000
0300
0000
0002
0000
0003
0000
2000
3000
0000
0000
0010
0100
0001
0000
,
2000
3000
0000
0000
0200
0300
0000
0000
0020
0030
0000
0000
0001
0100
0010
1000
,
0002
0003
0000
0000
0200
0300
0000
0000
0020
0030
0000
0000
1000
0100
0010
0000
,
0002
0003
0000
0000
0020
0030
0000
0000
0200
0300
0000
0000
1000
0010
0100
0001
,
0020
0030
0000
0000
0200
0300
0000
0000
1000
0000
0000
0000
1000
0001
1000
0000
,
0100
0000
0000
0000
0010
0000
0000
0000
0001
0000
0000
0000
0010
1000
0010
1000
,
0001
0000
0000
0000
0010
0000
0000
0000
0100
0000
0000
0000
1000
0001
1000
0000
,
0010
0000
0000
0000
0100
0000
0000
0000
0001
0000
0000
0000
1000
0100
0010
0100
,
2000
3000
0000
0000
2002
3003
0000
0000
2000
0000
3000
0000
0200
0000
0300
0000
,
0020
0030
0002
0003
2000
3000
0200
0300
,
0020
0030
0002
0003
2000
3000
0020
0030
,
0200
0300
0002
0003
2000
3000
0020
0030
,
0200
0000
0300
0000
0002
0000
0003
0000
1000
0000
0000
0100
0000
0000
0010
0000
,
0000
0100
0000
0000
1000
0000
0000
0000
0001
0000
0000
0010
0000
0000
0100
0000
,
0000
0010
0000
0000
0001
0000
0000
0000
1000
0000
0000
0010
0000
0000
0100
0000
,
0000
0010
0000
0000
1000
0000
0000
0000
0001
0000
0000
0100
0000
0000
0010
0000
,
0000
0100
0000
0000
0001
0000
0000
0000
1000
0000
0000
0100
0000
0000
0010
0000
,
0000
0001
0000
0000
1000
0000
0000
0000
0001
0000
0000
0010
0000
0000
0100
0000
,
0000
1000
0000
0000
0001
0000
0000
0000
1000
0000
0000
0010
0000
0000
0100
0000
,
0000
0001
0000
0000
1000
0000
0000
0000
0001
0000
0000
0100
0000
0000
0010
0000
,
0000
0000
1000
0000
0000
0000
0000
0000
0001
0000
0000
0000
0000
0000
0000
0000
2000
0000
0000
0000
0000
3000
1000
0000
0000
0000
0000
0000
0200
0000
0000
0000
,
0000
0300
0100
0000
0000
0000
0000
0000
0020
0000
0000
0030
0020
0000
0000
0030
0002
0000
0000
0000
0000
0003
0001
0000
0000
0000
0000
0000
0200
0000
0000
0000
,
0000
0300
0100
0000
0000
0000
0000
0000
0020
0000
0000
0030
0020
0000
0000
0030
2000
0000
0000
0000
0000
3000
1000
0000
0000
0000
0000
0000
0020
0000
0000
0000
,
0000
0030
0010
0000
0000
0000
0000
0000
0200
0000
0000
0300
0200
0000
0000
0300
0002
0000
0000
0000
0000
0003
0001
0000
0000
0000
0000
0000
0020
0000
0000
0000
,
0000
0030
0010
0000
0000
0000
0000
0000
0200
0000
0000
0300
0200
0000
0000
0300
2000
0000
0000
0000
0000
3000
1000
0000
0000
0000
0000
0000
0200
0000
0000
0000
,
0000
0300
0100
0000
0000
0000
0000
0000
0020
0000
0000
0030
0020
0000
0000
0030
0002
0000
0000
0000
0000
0003
0001
0000
0000
0000
0000
0000
0200
0000
0000
0000
,
0000
0300
0100
0000
0000
0000
0000
0000
0020
0000
0000
0030
0020
0000
0000
0030
2000
0000
0000
0000
0000
3000
1000
0000
0000
0000
0000
0000
0020
0000
0000
0000
,
0000
0030
0010
0000
0000
0000
0000
0000
0200
0000
0000
0300
0200
0000
0000
0300
0002
0000
0000
0000
0000
0003
0001
0000
0000
0000
0000
0000
0020
0000
0000
0000
,
0000
0030
0010
0000
0000
0000
0000
0000
0200
0000
0000
0300
0200
0000
0000
0300
0000
0000
0000
0000
0000
0000
0000
0000
0000
0000
0000
0000
0000
0000
0000
0000
,
0000
0000
0000
0000
,
0000
0000
0000
0000
,
0000
0000
0000
0000
,
1000
0000
0000
0000
0001
0000
0000
0000
2000
3000
0000
0000
0100
0010
0100
0000
,
2000
3000
0000
0000
0020
0030
0000
0000
0200
0300
0000
0000
0001
0010
0001
0010
,
0002
0003
0000
0000
0020
0030
0000
0000
0200
0300
0000
0000
1000
0100
0010
0000
,
0002
0003
0000
0000
0200
0300
0000
0000
0020
0030
0000
0000
1000
0100
1000
0100
,
2000
3000
0000
0000
0200
0300
0000
0000
0020
0030
0000
0000
0001
0010
0100
0000
,
2000
3000
0000
0000
0020
0030
0000
0000
0200
0300
0000
0000
0001
0010
0100
1000
,
0002
0003
0000
0000
0200
0300
0000
0000
0020
0030
0000
0000
1000
0100
0010
0000
,
0002
0003
0000
0000
0020
0030
0000
0000
0200
0300
0000
0000
1000
0100
0010
0001
,
0200
0300
0000
0000
0020
0030
0000
0000
1000
0000
0000
0000
0100
0010
0100
0000
,
0001
0000
0000
0000
0010
0000
0000
0000
0100
0000
0000
0000
1000
0001
1000
0001
,
1000
0000
0010
0000
0001
0000
0100
0001
,
0010
0000
0000
0000
0100
0000
0000
0000
1000
0000
0000
0000
0001
0010
0001
0010
,
0001
0000
0000
0000
2002
3003
0000
0000
0000
0000
0000
0000
0000
0000
0000
0000
;

//--------------- dance-single - ----------------
#NOTES:
     dance-single:
     :
     Hard:
     8:
     0,0,0,0,0:
0000
0000
0000
0000
2000
3000
0200
0300
,
0020
0030
0002
0003
2000
3000
0200
0300
,
0020
0030
0002
0003
2000
3000
0020
0030
,
0200
0300
0002
0003
2000
3000
0020
0030
,
0200
0000
0300
0000
0002
0000
0003
0000
1000
0000
0000
0100
0000
0000
0010
0000
,
0000
0100
0000
0000
1000
0000
0000
0000
0001
0000
0000
0010
0000
0000
0100
0000
,
0000
0010
0000
0000
0001
0000
0000
0000
1000
0000
0000
0010
0000
0000
0100
0000
,
0000
0010
0000
0000
1000
0000
0000
0000
0001
0000
0000
0100
0000
0000
0010
0000
,
0000
0100
0000
0000
0001
0000
0000
0000
1000
0000
0000
0100
0000
0000
0010
0000
,
0000
0001
0000
0000
1000
0000
0000
0000
0001
0000
0000
0010
0000
0000
0100
0000
,
0000
1000
0000
0000
0001
0000
0000
0000
1000
0000
0000
0010
0000
0000
0100
0000
,
0000
0001
0000
0000
1000
0000
0000
0000
0001
0000
0000
0100
0000
0000
0010
0000
,
0000
0000
1000
0000
0000
0000
0000
0000
0001
0000
0000
0000
0000
0000
0000
0000
1000
0000
0100
0000
0000
0000
0000
0000
0010
0001
0010
0001
0010
0000
0000
0000
,
0001
0000
0010
0000
0000
0000
0000
0000
0010
0000
0100
0000
0000
0000
0000
0000
0100
0000
1000
0000
0000
0000
0000
0000
1000
0010
1000
0010
1000
0010
1000
0010
,
1000
0100
0000
0000
0100
0010
0000
0000
0010
0001
0000
0000
0001
0010
0100
0000
,
1000
0000
0100
0000
0000
0000
0000
0000
0100
0000
0010
0000
0000
0000
0000
0000
0010
0000
0001
0000
0000
0000
0000
0000
0010
0001
0010
0001
0010
0001
0010
0001
,
0100
0000
0010
0000
0000
0000
0000
0000
0010
0000
1000
0000
0000
0000
0000
0000
1000
0000
0001
0000
0000
0000
0000
0000
1000
0100
0010
0001
1000
0000
0000
0000
,
0001
0000
0100
0000
0000
0000
0000
0000
0100
0000
0010
0000
0000
0000
0000
0000
0010
0000
1000
0000
0000
0000
0000
0000
1000
0100
1000
0100
0010
0001
0010
0001
,
1000
0010
0000
0000
0010
0100
0000
0000
0100
0001
0000
0000
0001
0100
0010
0000
,
1000
0000
0010
0000
0000
0000
0000
0000
0010
0000
0001
0000
0000
0000
0000
0000
0001
0000
1000
0000
0000
0000
0000
0000
0001
0010
0100
1000
0100
0010
0001
1000
,
0001
0010
0000
0000
0010
1000
0000
0000
2000
0000
3000
0000
0200
0000
0300
0000
,
0020
0030
0200
0300
2000
3000
0020
0030
,
0200
0300
0020
0030
2000
3000
0200
0300
,
0020
0030
0002
0003
2000
3000
0020
0030
,
0200
0000
0000
0000
0300
0000
0000
0000
0002
0000
0000
0000
0003
0000
0000
0000
1000
0000
0100
0000
0000
0000
0000
0000
0010
0001
1000
0001
0010
0000
0000
0000
,
0001
0000
0010
0000
0000
0000
0000
0000
0010
0000
0100
0000
0000
0000
0000
0000
0100
0000
1000
0000
0000
0000
0000
0000
1000
0100
0010
0001
1000
0010
0100
0001
,
1000
0010
0000
0000
0010
0100
0000
0000
0100
0001
0000
0000
0001
0010
0100
0000
,
1000
0000
0100
0000
0000
0000
0000
0000
0100
0000
0010
0000
0000
0000
0000
0000
0010
0000
0001
0000
0000
0000
0000
0000
0001
0100
0010
1000
0001
0010
0100
1000
,
0001
0000
0100
0000
0000
0000
0000
0000
0100
0000
0010
0000
0000
0000
0000
0000
0010
0000
0000
0000
0000
0000
0000
0000
1000
0001
1000
0001
1000
0000
0000
0000
,
0100
0000
0000
0000
0000
0000
0000
0000
0010
0000
0000
0000
0000
0000
0000
0000
0001
0000
0000
0000
0000
0000
0000
0000
0010
1000
0010
1000
0010
1000
0010
1000
,
0001
0000
0000
0000
0010
0000
0000
0000
0100
0000
0000
0000
1000
0001
1000
0000
,
0010
0000
0000
0000
0000
0000
0000
0000
0100
0000
0000
0000
0000
0000
0000
0000
0001
0000
0000
0000
0000
0000
0000
0000
1000
0100
0010
0100
1000
0100
0010
0100
,
1000
0100
0000
0000
2002
3003
0000
0000
2000
0000
3000
0000
0200
0000
0300
0000
,
0020
0030
0002
0003
2000
3000
0200
0300
,
0020
0030
0002
0003
2000
3000
0020
0030
,
0200
0300
0002
0003
2000
3000
0020
0030
,
0200
0000
0300
0000
0002
0000
0003
0000
1000
0000
0000
0100
0000
0000
0010
0000
,
0000
0100
0000
0000
1000
0000
0000
0000
0001
0000
0000
0010
0000
0000
0100
0000
,
0000
0010
0000
0000
0001
0000
0000
0000
1000
0000
0000
0010
0000
0000
0100
0000
,
0000
0010
0000
0000
1000
0000
0000
0000
0001
0000
0000
0100
0000
0000
0010
0000
,
0000
0100
0000
0000
0001
0000
0000
0000
1000
0000
0000
0100
0000
0000
0010
0000
,
0000
0001
0000
0000
1000
0000
0000
0000
0001
0000
0000
0010
0000
0000
0100
0000
,
0000
1000
0000
0000
0001
0000
0000
0000
1000
0000
0000
0010
0000
0000
0100
0000
,
0000
0001
0000
0000
1000
0000
0000
0000
0001
0000
0000
0100
0000
0000
0010
0000
,
0000
1000
0000
0000
0001
0000
0000
0000
1000
0100
0000
0100
0000
0000
0100
0010
,
0000
0010
0000
0000
0010
0000
0001
0000
0001
0010
0000
0010
0000
0000
0010
0100
,
0000
0100
0000
0000
0100
0000
1000
0000
1000
0010
0000
0010
0000
0000
0010
0100
,
0000
0100
0000
0000
0100
0000
0001
0000
0001
0100
0000
0100
0000
0000
0100
0010
,
0000
0010
0000
0000
0010
0000
1000
0000
1000
0100
0000
0100
0000
0000
0100
0010
,
0000
0010
0000
0000
0010
0000
0001
0000
0001
0100
0000
0100
0000
0000
0100
0010
,
0000
0010
0000
0000
0010
0000
1000
0000
1000
0010
0000
0010
0000
0000
0010
0100
,
0000
0100
0000
0000
0100
0000
0001
0000
0001
0010
0000
0010
0000
0000
0010
0100
,
0000
0100
0000
0000
1000
0000
1000
0000
1000
0000
0000
0000
0000
0000
0000
0000
,
0100
0010
0001
0000
,
1000
0010
0100
0000
,
0001
0010
0100
0000
,
1000
0000
0000
0000
0000
0000
0000
0000
0001
0000
0000
0000
0000
0000
0000
0000
1000
0000
0100
0000
0000
0000
0000
0000
0010
0001
0010
0001
0010
0000
0000
0000
,
0001
0000
0010
0000
0000
0000
0000
0000
0010
0000
0100
0000
0000
0000
0000
0000
0100
0000
1000
0000
0000
0000
0000
0000
1000
0010
1000
0010
1000
0010
1000
0010
,
1000
0100
0000
0000
0100
0010
0000
0000
0010
0001
0000
0000
0001
0010
0100
0000
,
1000
0000
0010
0000
0000
0000
0000
0000
0010
0000
0100
0000
0000
0000
0000
0000
0100
0000
0001
0000
0000
0000
0000
0000
0001
0100
0001
0100
0001
0100
0001
0100
,
0001
0000
0100
0000
0000
0000
0000
0000
0100
0000
0010
0000
0000
0000
0000
0000
0010
0000
1000
0000
0000
0000
0000
0000
1000
0100
0010
0100
1000
0000
0000
0000
,
0100
0000
0010
0000
0000
0000
0000
0000
0010
0000
0001
0000
0000
0000
0000
0000
0001
0000
1000
0000
0000
0000
0000
0000
0001
0010
0100
1000
0100
0010
0100
1000
,
0001
0100
0000
0000
0100
0010
0000
0000
0010
1000
0000
0000
1000
0100
0010
0000
,
0001
0000
0010
0000
0000
0000
0000
0000
0100
0000
1000
0000
0000
0000
0000
0000
0100
0000
0010
0000
0000
0000
0000
0000
0001
0010
0100
1000
0001
0010
0100
1000
,
0001
0000
0010
0000
0000
0000
0000
0000
0010
0000
0100
0000
0000
0000
0000
0000
1000
0000
0000
0000
0000
0000
0000
0000
0100
0010
0100
0010
0100
0000
0000
0000
,
0001
0000
0000
0000
0000
0000
0000
0000
0010
0000
0000
0000
0000
0000
0000
0000
0100
0000
0000
0000
0000
0000
0000
0000
1000
0100
1000
0100
1000
0001
1000
0001
,
1000
0000
0000
0000
0010
0000
0000
0000
0001
0000
0000
0000
0100
0001
0001
0000
,
0010
0000
0000
0000
0000
0000
0000
0000
0100
0000
0000
0000
0000
0000
0000
0000
1000
0000
0000
0000
0000
0000
0000
0000
0001
0010
0001
0010
0001
0010
0001
0010
,
0001
0000
0000
0000
2002
3003
0000
0000
0000
0000
0000
0000
0000
0000
0000
0000
;

//--------------- dance-single - ----------------
#NOTES:
     dance-single:
     :
     Challenge:
     11:
     0,0,0,0,0:
0000
0000
0000
0000
0000
0000
0000
0000
1000
0100
0000
0110
0001
0010
0100
0000
,
1000
0000
0000
0000
0010
0000
0000
0000
0100
0000
0000
0000
0100
0000
0000
0000
0011
0000
0000
0000
0100
0000
0000
0000
1000
0000
0000
0000
0001
1000
0001
1000
0001
0000
0000
0000
0010
0000
0000
0000
0000
0000
0000
0000
0110
0000
0000
0000
1000
0000
0000
0000
0100
0000
0000
0000
0010
0000
0000
0000
0000
0000
0000
0000
,
0001
0000
0000
0000
0100
0000
0000
0000
0010
0000
0000
0000
0010
0000
0000
0000
1100
0000
0000
0000
0010
0000
0000
0000
0001
0000
0000
0000
1000
0001
1000
0001
1000
0000
0000
0000
0010
0000
0000
0000
0000
0000
0000
0000
0110
0000
0000
0000
0001
0000
0000
0000
0100
0000
0000
0000
0010
0000
0000
0000
0000
0000
0000
0000
,
1000
0000
0000
0000
0100
0000
0000
0000
0010
0000
0000
0000
0010
0000
0000
0000
0101
0000
0000
0000
0010
0000
0000
0000
1000
0000
0000
0000
0001
1000
0001
1000
0001
0000
0000
0000
0100
0000
0000
0000
0000
0000
0000
0000
0110
0000
0000
0000
1000
0000
0000
0000
0010
0000
0000
0000
0100
0000
0000
0000
0000
0000
0000
0000
,
0001
0000
0000
0000
0010
0000
0000
0000
0100
0000
0000
0000
0000
0000
0000
0000
0000
0000
0000
0000
0000
0000
0000
0000
0000
0000
0000
0000
1000
0001
1000
0001
1000
0000
0000
0000
0100
0000
0010
0000
0110
0000
0000
0000
0001
0000
0010
0000
0000
0000
0000
0000
0010
0000
0100
0000
0010
0000
0000
0000
0100
0000
0000
0000
,
0000
0000
1000
0100
1100
0000
0010
0001
0000
0000
0001
0010
0001
0000
0010
0000
0100
0000
1000
0010
1010
0000
0100
0001
0000
0000
0001
0100
0001
0000
0100
0000
,
0000
0000
0010
1000
1010
0000
0100
0001
0000
0000
0001
0100
0001
0000
0100
0000
0010
0000
1000
0100
1100
0000
0010
0001
0000
0000
0001
0100
0001
0000
0100
0000
,
0000
0000
0010
1000
1010
0000
0100
0010
0000
0000
0010
0001
0010
0000
0001
0000
0100
0000
0010
1000
1010
0000
0100
0010
0000
0000
0010
0001
0010
0000
0001
0000
,
0000
0000
0000
0000
0010
0000
0100
0000
0110
0000
0000
0000
1000
0000
0100
0000
0000
0000
0000
0000
0100
0000
0010
0000
0100
0000
0010
0000
0001
1000
0001
1000
0001
0000
0000
0000
0010
0000
0100
0000
1100
0000
0000
0000
0100
0000
0010
0000
0000
0000
0000
0000
0001
0000
0100
0000
0010
0000
0000
0000
1000
0000
0000
0000
,
0000
0000
0010
0100
0101
0000
0010
0100
0000
0000
1000
0010
0100
0000
0001
0000
0100
0000
0010
1000
1100
0000
0010
0001
0000
0000
0010
0100
1000
0000
0010
0000
,
0000
0000
0100
0001
0101
0000
0010
1000
0000
0000
0100
0010
0001
0000
0010
0000
0100
0000
1000
0010
0110
0000
0001
0100
0000
0000
0010
1000
0100
0000
0010
0000
,
0000
0000
0001
0010
0110
0000
1000
0010
0000
0000
0100
0001
0010
0000
0100
0000
1000
0000
0100
0010
0110
0000
1000
0010
0000
0000
0100
0010
1000
0000
0001
0000
,
1000
0000
0000
0000
0100
0000
0000
0000
0010
0001
0010
0000
0100
0000
0100
0000
0001
0000
0000
0000
0010
0000
0000
0000
0100
0000
0010
0000
1000
0001
1000
0001
1000
0000
0000
0000
0100
0000
0000
0000
0000
0000
0000
0000
0010
0000
0000
0000
0001
0000
0100
0000
0010
0000
1000
0000
0100
0000
0000
0000
0000
0000
0000
0000
,
1000
0000
0010
0000
0000
0000
0010
0000
0100
0000
0001
0000
0000
0000
0001
0000
0010
0000
0100
0000
0000
0000
1000
0000
0001
0010
0100
0010
0001
0010
0100
1000
,
0001
0000
0000
0000
0010
0000
0000
0000
0000
0000
0000
0000
0010
0000
0000
0000
0100
0000
0000
0000
1000
0000
0000
0000
0000
0000
0000
0000
1000
0001
1000
0001
1000
0000
0000
0000
0010
0000
0000
0000
0000
0000
0000
0000
0010
0000
0000
0000
0100
0000
0000
0000
0001
0000
0000
0000
0010
0000
0000
0000
0000
0000
0000
0000
,
0100
0000
1000
0000
0000
0000
1000
0000
0010
0000
0100
0000
0000
0000
0100
0000
0001
0000
0010
0000
0000
0000
0010
0000
0100
1000
0100
0010
0001
0100
0010
1000
,
0100
0000
0000
0000
0010
0000
0000
0000
0001
1000
0001
0000
0010
0000
0100
0000
1000
0000
0000
0000
0010
0000
0000
0000
0100
0000
0000
0000
0001
1000
0001
1000
0001
0000
0000
0000
0100
0000
0000
0000
0000
0000
0000
0000
0100
0000
0000
0000
0010
0000
1000
0000
0100
0000
0010
0000
0001
0000
0000
0000
0000
0000
0000
0000
,
1000
0000
0100
0000
0000
0000
0100
0000
0010
0000
0001
0000
0000
0000
0001
0000
0100
0000
0010
0000
0000
0000
0010
0000
1000
0100
0010
0100
1000
0100
0010
0001
,
1000
0000
0000
0000
0010
0000
0000
0000
0000
0000
0000
0000
0010
0000
0000
0000
0100
0000
0000
0000
0001
0000
0000
0000
0000
0000
0000
0000
0001
1000
0001
1000
0001
0000
0000
0000
0100
0000
0000
0000
0000
0000
0000
0000
0100
0000
0000
0000
0010
0000
0000
0000
1000
0000
0000
0000
0100
0000
0000
0000
0000
0000
0000
0000
,
0010
0000
0001
0000
0000
0000
0001
0000
0100
0000
0010
0000
0000
0000
0010
0000
1000
0000
0100
0000
0000
0000
0100
0000
0010
0001
0010
0100
1000
0010
0100
0001
,
0010
0000
0000
0000
0100
0000
0000
0000
1000
0001
1000
0000
0100
0000
0010
0000
0001
0000
0000
0000
0100
0000
0000
0000
0010
0000
0000
0000
0000
0000
0000
0000
1000
0000
0000
0000
0100
0000
0000
0000
0010
0000
0000
0000
0011
0000
0000
0000
0010
0000
0000
0000
0100
0000
0000
0000
1000
0000
0000
0000
0000
0000
0000
0000
,
0001
0000
0000
0000
0100
0000
0000
0000
0010
0000
0000
0000
0010
0000
0000
0000
1100
0000
0000
0000
0100
0000
0000
0000
0010
0000
0000
0000
0001
1000
0001
1000
0001
0000
0000
0000
0100
0000
0000
0000
0010
0000
0000
0000
1010
0000
0000
0000
0010
0000
0000
0000
0100
0000
0000
0000
0001
0000
0000
0000
0000
0000
0000
0000
,
1000
0000
0000
0000
0100
0000
0000
0000
0010
0000
0000
0000
0010
0000
0000
0000
0101
0000
0000
0000
0100
0000
0000
0000
0010
0000
0000
0000
1000
0001
1000
0001
1000
0000
0000
0000
0100
0000
0000
0000
0010
0000
0000
0000
0101
0000
0000
0000
0100
0000
0000
0000
0010
0000
0000
0000
1000
0000
0000
0000
0000
0000
0000
0000
,
0001
0000
0000
0000
0010
0000
0000
0000
0100
0000
0000
0000
0100
0000
0000
0000
1100
0000
0000
0000
0100
0000
0000
0000
0010
0000
0000
0000
0001
1000
0001
1000
0001
0000
0000
0000
0100
0000
0000
0000
0010
0000
0000
0000
1100
0000
0000
0000
0100
0000
0000
0000
0010
0000
0000
0000
0001
0000
0000
0000
0000
0000
0000
0000
,
1000
0000
0000
0000
0100
0000
0000
0000
0010
0001
0010
0000
0100
0000
1000
0000
0001
0000
0000
0000
0000
0000
0000
0000
0100
0000
0010
0000
1000
0001
1000
0001
1000
0000
0000
0000
0100
0000
0000
0000
0000
0000
0000
0000
0100
0000
0000
0000
0010
0000
0001
0000
0100
0000
0010
0000
1000
0000
0000
0000
0000
0000
0000
0000
,
0010
0000
0100
0000
0000
0000
0100
0000
0001
0000
0010
0000
0000
0000
0010
0000
0100
0000
1000
0000
0000
0000
1000
0000
0100
0010
1000
0100
1000
0010
0100
0010
,
1000
0000
0000
0000
0100
0000
0000
0000
0000
0000
0000
0000
0100
0000
0000
0000
0010
0000
0000
0000
0001
0000
0000
0000
0000
0000
0000
0000
0001
1000
0001
1000
0001
0000
0000
0000
0010
0000
0000
0000
0000
0000
0000
0000
0010
0000
0000
0000
0100
0000
0000
0000
1000
0000
0000
0000
0010
0000
0000
0000
0000
0000
0000
0000
,
0100
0000
0001
0000
0000
0000
0001
0000
0100
0000
0010
0000
0000
0000
0010
0000
1000
0000
0100
0000
0000
0000
0100
0000
0010
0001
0100
0010
0100
0001
0010
0001
,
0100
0000
0000
0000
0010
0000
0000
0000
1000
0001
1000
0000
0100
0000
0010
0000
0001
0000
0000
0000
0100
0000
0000
0000
0010
0000
0000
0000
1000
0001
1000
0001
1000
0000
0000
0000
0000
0000
0000
0000
0000
0000
0000
0000
0000
0000
0000
0000
1000
0000
0100
0000
0001
0000
0100
0000
1000
0000
0000
0000
0000
0000
0000
0000
,
0001
0000
0010
0000
0000
0000
0000
0000
0010
0000
0100
0000
0000
0000
0000
0000
0100
0000
1000
0000
0000
0000
0000
0000
1000
0100
1000
0010
0100
0010
1000
0100
,
1000
0000
0000
0000
0100
0000
0000
0000
0000
0000
0000
0000
0000
0000
0000
0000
0100
0000
0000
0000
0010
0000
0000
0000
0000
0000
0000
0000
0010
0001
0010
0001
0010
0000
0000
0000
0100
0000
0000
0000
0000
0000
0000
0000
0000
0000
0000
0000
0100
0000
0000
0000
1000
0000
0000
0000
0010
0000
0000
0000
0000
0000
0000
0000
,
0100
0000
0001
0000
0000
0000
0000
0000
0001
0000
0100
0000
0000
0000
0000
0000
0100
0000
0010
0000
0000
0000
0000
0000
1000
0010
1000
0100
0010
0100
1000
0010
,
1000
0000
0000
0000
0100
0001
0010
0100
1000
0000
0000
0000
0010
0000
0100
0000
2002
0000
0000
0000
3003
0000
0000
0000
0000
0000
0000
0000
0000
0000
0000
0000
1000
0000
0000
0000
0100
0000
0000
0000
0000
0000
0000
0000
0110
0000
0000
0000
0001
0000
0000
0000
0010
0000
0000
0000
0100
0000
0000
0000
0000
0000
0000
0000
,
1000
0000
0000
0000
0010
0000
0000
0000
0100
0000
0000
0000
0100
0000
0000
0000
0011
0000
0000
0000
0100
0000
0000
0000
1000
0000
0000
0000
0001
1000
0001
1000
0001
0000
0000
0000
0010
0000
0000
0000
0000
0000
0000
0000
0110
0000
0000
0000
1000
0000
0000
0000
0100
0000
0000
0000
0010
0000
0000
0000
0000
0000
0000
0000
,
0001
0000
0000
0000
0100
0000
0000
0000
0010
0000
0000
0000
0010
0000
0000
0000
1100
0000
0000
0000
0010
0000
0000
0000
0001
0000
0000
0000
1000
0001
1000
0001
1000
0000
0000
0000
0010
0000
0000
0000
0000
0000
0000
0000
0110
0000
0000
0000
0001
0000
0000
0000
0100
0000
0000
0000
0010
0000
0000
0000
0000
0000
0000
0000
,
1000
0000
0000
0000
0100
0000
0000
0000
0010
0000
0000
0000
0010
0000
0000
0000
0101
0000
0000
0000
0010
0000
0000
0000
1000
0000
0000
0000
0001
1000
0001
1000
0001
0000
0000
0000
0100
0000
0000
0000
0000
0000
0000
0000
0110
0000
0000
0000
1000
0000
0000
0000
0010
0000
0000
0000
0100
0000
0000
0000
0000
0000
0000
0000
,
0001
0000
0000
0000
0010
0000
0000
0000
0100
0000
0000
0000
0000
0000
0000
0000
0000
0000
0000
0000
0000
0000
0000
0000
0000
0000
0000
0000
1000
0001
1000
0001
1000
0000
0000
0000
0100
0000
0010
0000
0110
0000
0000
0000
0001
0000
0010
0000
0000
0000
0000
0000
0010
0000
0100
0000
0010
0000
0000
0000
0100
0000
0000
0000
,
0000
0000
1000
0100
1100
0000
0010
0001
0000
0000
0001
0010
0001
0000
0010
0000
0100
0000
1000
0010
1010
0000
0100
0001
0000
0000
0001
0100
0001
0000
0100
0000
,
0000
0000
0010
1000
1010
0000
0100
0001
0000
0000
0001
0100
0001
0000
0100
0000
0010
0000
1000
0100
1100
0000
0010
0001
0000
0000
0001
0100
0001
0000
0100
0000
,
0000
0000
0010
1000
1010
0000
0100
0010
0000
0000
0010
0001
0010
0000
0001
0000
0100
0000
0010
1000
1010
0000
0100
0010
0000
0000
0010
0001
0010
0000
0001
0000
,
0000
0000
0000
0000
0010
0000
0100
0000
0110
0000
0000
0000
1000
0000
0100
0000
0000
0000
0000
0000
0100
0000
0010
0000
0100
0000
0010
0000
0001
1000
0001
1000
0001
0000
0000
0000
0010
0000
0100
0000
1100
0000
0000
0000
0100
0000
0010
0000
0000
0000
0000
0000
0001
0000
0100
0000
0010
0000
0000
0000
1000
0000
0000
0000
,
0000
0000
0010
0100
0101
0000
0010
0100
0000
0000
1000
0010
0100
0000
0001
0000
0100
0000
0010
1000
1100
0000
0010
0001
0000
0000
0010
0100
1000
0000
0010
0000
,
0000
0000
0100
0001
0101
0000
0010
1000
0000
0000
0100
0010
0001
0000
0010
0000
0100
0000
1000
0010
0110
0000
0001
0100
0000
0000
0010
1000
0100
0000
0010
0000
,
0000
0000
0001
0010
0110
0000
1000
0010
0000
0000
0100
0001
0010
0000
0100
0000
1000
0000
0100
0010
0110
0000
1000
0010
0000
0000
0100
0010
1000
0000
0001
0000
,
0000
0000
0000
0000
1000
0000
0100
0000
0110
0000
0000
0000
0001
0000
0010
0000
0000
0000
0000
0000
0100
0000
1000
0000
0010
0000
0100
0000
0001
1000
0001
1000
0001
0000
0000
0000
0010
0000
0100
0000
0110
0000
0000
0000
1000
0000
0100
0000
0000
0000
0000
0000
0100
0000
0010
0000
0100
0000
0000
0000
0010
0000
0000
0000
,
0000
0000
0001
0010
0011
0000
0100
1000
0000
0000
1000
0100
1000
0000
0100
0000
0010
0000
0001
0100
0101
0000
0010
1000
0000
0000
1000
0010
1000
0000
0010
0000
,
0000
0000
0100
0001
0101
0000
0010
1000
0000
0000
1000
0010
1000
0000
0010
0000
0100
0000
0001
0010
0011
0000
0100
1000
0000
0000
1000
0010
1000
0000
0010
0000
,
0000
0000
0100
0001
0101
0000
0010
0100
0000
0000
0100
1000
0100
0000
1000
0000
0010
0000
0100
0001
0101
0000
0010
0100
0000
0000
0100
1000
0100
0000
1000
0000
,
0000
0000
0000
0000
0100
0000
0010
0000
0110
0000
0000
0000
0001
0000
0010
0000
0000
0000
0000
0000
0010
0000
0100
0000
0010
0000
0100
0000
1000
0001
1000
0001
1000
0000
0000
0000
0100
0000
0010
0000
0011
0000
0000
0000
0010
0000
0100
0000
0000
0000
0000
0000
1000
0000
0010
0000
0100
0000
0000
0000
0001
0000
0000
0000
,
0000
0000
0100
0010
1010
0000
0100
0010
0000
0000
0001
0100
0010
0000
1000
0000
0010
0000
0100
0001
0011
0000
0100
1000
0000
0000
0100
0010
0001
0000
0100
0000
,
0000
0000
0010
1000
1010
0000
0100
0001
0000
0000
0010
0100
1000
0000
0100
0000
0010
0000
0001
0100
0110
0000
1000
0010
0000
0000
0100
0001
0010
0000
0100
0000
,
0000
0000
1000
0100
0110
0000
0001
0100
0000
0000
0010
1000
0100
0000
0010
0000
0001
0000
0010
0100
0110
0000
0001
0100
0000
0000
0010
0100
0001
0000
1000
0000
,
0001
0000
0000
0000
0010
0000
0000
0000
0100
1000
0100
0000
0010
0000
0010
0000
1000
0000
0000
0000
0100
0000
0000
0000
0010
0000
0100
0000
0001
1000
0001
1000
0000
0000
0000
0000
0001
0000
0010
0000
0001
0000
0000
0000
0010
0000
0000
0000
0000
0000
0000
0000
1000
0000
0100
0000
1000
0000
0000
0000
0100
0000
0000
0000
,
0000
0000
0001
0100
0001
0000
0100
0000
0000
0000
1000
0010
1000
0000
0010
0000
0000
0000
0001
0010
0001
0000
0010
0000
0000
0000
0100
0010
0100
0000
0010
0000
,
0000
0000
0100
1000
0100
0000
1000
0000
0000
0000
0001
1000
0001
0000
1000
0000
0000
0000
0001
0010
0001
0000
0010
0100
0000
0000
0010
0100
0010
0000
0100
0000
,
0000
0000
1000
0100
1000
0000
0100
0010
0000
0000
0100
0010
0100
0000
0010
0000
0000
0000
0001
0010
0001
0000
0010
0100
0000
0000
0010
0100
0010
0000
0100
0000
,
1000
0000
0000
0000
0010
0000
0000
0000
0100
0000
0000
0000
0001
0000
0010
0000
0011
0000
0000
0000
0100
0000
0000
0000
0010
0000
0000
0000
1000
0001
1000
0001
1000
0000
0000
0000
0100
0000
0000
0000
0000
0000
0000
0000
0100
0000
0000
0000
0010
0000
0001
0000
0100
0000
0010
0000
1000
0000
0000
0000
0000
0000
0000
0000
,
0010
0000
0100
0000
0000
0000
0100
0000
0001
0000
0010
0000
0000
0000
0010
0000
0100
0000
1000
0000
0000
0000
1000
0000
0100
0010
1000
0100
1000
0010
0100
0010
,
1000
0000
0000
0000
0100
0000
0000
0000
0000
0000
0000
0000
0100
0000
0000
0000
0010
0000
0000
0000
0001
0000
0000
0000
0000
0000
0000
0000
0001
1000
0001
1000
0001
0000
0000
0000
0010
0000
0000
0000
0000
0000
0000
0000
0010
0000
0000
0000
0100
0000
0000
0000
1000
0000
0000
0000
0010
0000
0000
0000
0000
0000
0000
0000
,
0100
0000
0001
0000
0000
0000
0001
0000
0100
0000
0010
0000
0000
0000
0010
0000
1000
0000
0100
0000
0000
0000
0100
0000
0010
0001
0100
0010
0100
0001
0010
0001
,
0100
0000
0000
0000
0000
0000
0000
0000
0000
0000
0000
0000
0010
0000
0000
0000
0000
0000
0000
0000
0000
0000
0000
0000
1000
0000
0000
0001
0000
0000
1000
0000
0000
0000
0000
0000
0100
0000
0000
0000
0000
0000
0010
0000
0000
0000
0000
0000
0001
0000
0000
0000
0000
0000
0000
0000
0000
0000
0000
0000
0100
0000
0000
0000
0000
0000
0000
0000
0000
0000
0000
0000
0010
0000
0000
0000
0000
0000
0000
0000
0000
0000
0000
0000
1000
0000
0000
0001
0000
0000
1000
0000
0000
0001
0000
0000
1000
0000
0000
0000
0000
0000
0000
0000
0000
0000
0000
0000
0100
0000
0010
0000
0100
0000
0010
0000
0000
0000
0000
0000
0001
0000
0000
0000
0000
0000
0000
0000
0000
0000
0000
0000
0100
0000
0000
0000
0000
0000
0000
0000
0000
0000
0000
0000
0010
0000
0000
0000
0000
0000
1000
0000
0000
0000
0000
0000
0100
0000
0000
0000
0000
0000
0010
0000
0000
0000
0000
0000
0001
0000
0000
0000
0000
0000
0000
0000
0000
0000
0000
0000
0000
0000
0000
0000
0000
0000
0000
0000
0000
0000
0000
0000
,
1000
0000
0010
0000
0100
0000
0100
0000
0011
0000
0010
0000
0100
0000
0000
0000
1000
0000
0100
0000
0000
0000
0100
0000
0010
0001
0100
0010
0100
0001
0010
0001
,
1000
0000
0000
0000
0000
0000
0000
0000
0000
0000
0000
0000
0010
0000
0000
0000
0000
0000
0000
0000
0000
0000
0000
0000
0000
0000
0000
0000
0000
0000
0000
0000
0000
0000
0000
0000
0010
0000
0000
0000
0000
0000
0000
0000
0000
0000
0000
0000
0100
0000
0000
0000
0000
0000
0000
0000
0000
0000
0000
0000
0001
0000
0000
0000
0000
0000
0000
0000
0000
0000
0000
0000
0000
0000
0000
0000
0000
0000
0000
0000
0000
0000
0000
0000
0001
0000
0000
1000
0000
0000
0001
0000
0000
1000
0000
0000
0001
0000
0000
0000
0000
0000
0000
0000
0000
0000
0000
0000
0010
0000
0000
0000
0000
0000
0000
0000
0000
0000
0000
0000
0100
0000
1000
0000
0100
0000
1000
0000
0000
0000
0000
0000
0100
0000
0000
0010
0000
0000
0100
0000
0000
0010
0000
0000
0100
0000
0000
0000
0000
0000
0000
0000
0000
0000
0000
0000
0010
0000
0000
0000
0000
0000
0000
0000
0000
0000
0000
0000
0001
0000
0000
0000
0000
0000
0000
0000
0000
0000
0000
0000
0000
0000
0000
0000
0000
0000
0000
0000
0000
0000
0000
0000
,
0001
0000
0010
0000
0100
0000
0100
0000
1010
0000
0010
0000
0100
0000
0000
0000
0001
0000
0100
0000
0000
0000
0100
0000
0010
1000
0100
0010
0100
1000
0010
0100
,
0001
0000
0000
0000
0010
0000
0000
0000
0100
1000
0100
0000
0010
0000
0001
0000
1000
0000
0000
0000
0010
0000
0000
0000
0100
0000
0000
0000
0001
1000
0001
1000
0001
0000
0000
0000
0000
0000
0000
0000
0000
0000
0000
0000
0000
0000
0000
0000
0001
0000
0010
0000
1000
0000
0010
0000
0001
0000
0000
0000
0000
0000
0000
0000
,
1000
0000
0000
0000
0000
0000
0000
0000
1000
0000
0000
0000
0100
0000
0000
0000
0000
0000
0000
0000
0100
0000
0000
0000
0010
0000
0000
0000
0000
0000
0000
0000
0000
0000
0000
0000
0010
0000
0001
0000
0010
0000
0001
0000
0010
0000
0001
0000
0010
0000
0000
0000
0000
0000
0001
0000
0000
0000
0000
0000
0000
0000
0000
0000
0000
0000
0000
0000
0000
0000
0000
0000
0001
0000
0000
0010
0000
0000
0001
0000
0000
0100
0000
0000
0010
0000
0000
0100
0000
0000
0001
0000
0000
0010
0000
0000
,
0001
0000
0000
0000
0010
0000
0000
0000
0000
0000
0000
0000
0000
0000
0000
0000
0010
0000
0000
0000
0100
0000
0000
0000
0000
0000
0000
0000
0100
1000
0100
1000
0100
0000
0000
0000
0010
0000
0000
0000
0000
0000
0000
0000
0000
0000
0000
0000
0010
0000
0000
0000
0001
0000
0000
0000
0100
0000
0000
0000
0000
0000
0000
0000
,
0010
0000
0000
0000
0000
0000
0000
0000
1000
0000
0000
0000
0000
0000
0000
0000
0100
0000
0000
0000
0000
0000
0000
0000
1000
0010
1000
0100
0010
0100
1000
0010
,
1000
0000
0000
0000
0100
0001
0010
0100
1000
0000
0000
0000
0010
0000
0100
0000
2002
0000
0000
0000
3003
0000
0000
0000
0000
0000
0000
0000
0000
0000
0000
0000
0000
0000
0000
0000
0000
0000
0000
0000
0000
0000
0000
0000
0000
0000
0000
0000
0000
0000
0000
0000
0000
0000
0000
0000
0000
0000
0000
0000
0000
0000
0000
0000
;
