#TITLE:gentle stress;
#SUBTITLE:;
#ARTIST:DJ Swan;
#TITLETRANSLIT:;
#SUBTITLETRANSLIT:;
#ARTISTTRANSLIT:;
#GENRE:;
#CREDIT:;
#MUSIC:gentle stress.ogg;
#BANNER:gentle stress.png;
#BACKGROUND:gentle stress-bg.png;
#CDTITLE:;
#SAMPLESTART:53.480;
#SAMPLELENGTH:15.000;
#SELECTABLE:YES;
#OFFSET:0.000;
#BPMS:0.000=175.020;
#STOPS:;
#DISPLAYBPM:175.000;
#BGCHANGES:;
#FGCHANGES:;

//--------------- dance-single - ----------------
#NOTES:
     dance-single:
     :
     Beginner:
     6:
     0,0,0,0,0:
0000
0000
0000
0000
,
0000
0000
0000
0000
,
0000
0000
0000
0000
,
0000
0000
0000
0000
,
0000
0000
0000
0000
,
0000
0000
0000
0000
,
0000
0000
0000
0000
,
0000
0000
0000
0000
,
0000
0000
0000
0000
,
0000
0000
0000
0000
,
0000
0000
0000
0000
,
0000
0000
0000
0000
,
0000
0000
0000
0000
,
0000
0000
0000
0000
,
0000
0000
0000
0000
,
0000
0000
0000
0000
,
0000
0000
0000
0000
,
0000
0000
0000
0000
,
0000
0000
0000
0000
,
1001
0000
0000
0000
,
0100
0000
0000
0000
,
1001
0000
0000
0000
,
0010
0000
0000
0000
,
1001
0000
0000
0000
,
0100
0000
0000
0000
,
1001
0000
0000
0000
,
0010
0000
0000
0000
,
0110
0000
0000
0000
,
0001
0000
0000
0000
,
0110
0000
0000
0000
,
1000
0000
0000
0000
,
0110
0000
0000
0000
,
0001
0000
0000
0000
,
0110
0000
0000
0000
,
1000
0000
0000
0000
,
1001
0000
0000
0000
,
0000
0000
0000
0000
,
0010
0010
0010
0010
0100
0100
0100
0100
,
0001
0001
1000
1000
0110
0000
1001
0000
,
1000
0100
0010
0001
,
0100
0010
1000
0100
,
0001
0010
0100
1000
,
0010
0100
0001
0010
,
1000
0100
0010
0100
,
1000
0100
0010
0001
,
0010
0100
0010
0001
,
1001
0000
0000
0000
,
1000
0010
0100
0001
,
0010
0100
1000
0010
,
0001
0100
0010
1000
,
0100
0010
0001
0100
,
1000
0010
0100
0010
,
1000
0010
0100
0001
,
0100
0010
0100
0001
,
1001
0000
0000
0000
,
1000
0000
0100
0000
,
0010
0000
0000
0000
,
0001
0000
0010
0000
,
0100
0000
0000
0000
,
0000
0000
0000
0000
,
0000
0000
0000
0000
,
1000
0000
0001
0000
,
1001
0000
0000
0000
,
0001
0000
0100
0000
,
0010
0000
0000
0000
,
1000
0000
0010
0000
,
0100
0000
0000
0000
,
0000
0000
0000
0000
,
0000
0000
0000
0000
,
0100
0100
0100
0100
0010
0010
0010
0010
,
1000
1000
0001
0001
0110
0000
0000
0000
,
1001
0000
0000
0000
;

//--------------- dance-single - ----------------
#NOTES:
     dance-single:
     :
     Easy:
     7:
     0,0,0,0,0:
0000
0000
0000
0000
,
0000
0000
0000
0000
,
0000
0000
0000
0000
,
0000
0000
0000
0000
,
0000
0000
0000
0000
,
0000
0000
0000
0000
,
0000
0000
0000
0000
,
0000
0000
0000
0000
,
0000
0000
0000
0000
,
0000
0000
0000
0000
,
0000
0000
0000
0000
,
1000
0000
0100
0000
,
0010
0000
0001
0000
,
1000
0000
0010
0000
,
0100
0000
0001
0000
,
1000
0000
0100
0000
,
0010
0000
0001
0000
,
1000
0000
0010
0000
,
0100
0000
0001
0000
,
1000
1100
0000
1010
,
0001
0011
0000
0101
,
1000
1010
0000
1100
,
0001
0101
0000
0011
,
1000
0110
0000
1001
,
0001
0110
0000
1001
,
1000
1001
0000
0110
,
0001
1001
0000
0110
,
1000
1100
0000
0110
,
0001
0101
0000
0110
,
1000
1010
0000
0110
,
0001
0011
0000
0110
,
1000
1100
0000
1001
,
0001
0101
0000
1001
,
1100
0000
0000
0100
,
0110
0000
0011
0000
,
1001
0000
0000
0000
,
0000
0000
0000
0000
,
0010
0010
0010
0010
0100
0100
0100
0100
,
0001
0001
1000
1000
0110
0000
1001
0000
,
1000
0100
1000
0000
0100
0010
0000
0010
,
0001
0000
0001
1000
0000
0000
0000
0000
,
0001
0010
0001
0000
0010
0100
0000
0100
,
1000
0000
1000
0001
0000
0000
0000
0000
,
1000
0100
0010
0000
0010
0001
0000
0001
,
0100
0000
0100
1000
0000
0000
0000
0000
,
0001
0010
0100
0000
0100
1000
0000
1000
,
1001
0000
0000
0000
,
1000
0010
1000
0000
0010
0100
0000
0100
,
0001
0000
0001
1000
0000
0000
0000
0000
,
0001
0100
0001
0000
0100
0010
0000
0010
,
1000
0000
1000
0001
0000
0000
0000
0000
,
1000
0010
0100
0000
0100
0001
0000
0001
,
0010
0000
0010
1000
0000
0000
0000
0000
,
0001
0100
0010
0000
0010
1000
0000
1000
,
1001
0000
0000
0000
,
1000
0100
0010
0001
,
0100
0010
0000
0000
,
0001
0010
0100
1000
,
0010
0100
0000
0000
,
1000
0000
1000
0000
0000
1000
0000
0000
,
1000
0000
0000
1000
0000
0000
1000
0000
,
1000
0100
0001
0010
,
1001
0000
0000
0000
,
1000
0010
0100
0001
,
0010
0100
0000
0000
,
0001
0100
0010
1000
,
0100
0010
0000
0000
,
0001
0000
0001
0000
0000
0001
0000
0000
,
0001
0000
0000
0001
0000
0000
0001
0000
,
0100
0100
0100
0100
0010
0010
0010
0010
,
1000
1000
0001
0001
0110
0000
0000
0000
,
1001
0000
0000
0000
;

//--------------- dance-single - ----------------
#NOTES:
     dance-single:
     :
     Medium:
     9:
     0,0,0,0,0:
0000
0000
0000
0000
,
0000
0000
0000
0000
,
0000
0000
0000
0000
,
0000
0000
0000
0000
,
0000
0000
0000
0000
,
0000
0000
0000
0000
,
0000
0000
0000
0000
,
0000
0000
0000
0000
,
0000
0000
0000
0000
,
0000
0000
0000
0000
,
0000
0000
0000
0000
,
1100
0000
0000
0000
,
0000
0000
0000
0000
,
0101
0000
0000
0000
,
0000
0000
0000
0000
,
0011
0000
0000
0000
,
0000
0000
0000
0000
,
1010
0000
0000
0000
,
0110
0000
0000
0000
,
1001
0110
0010
0101
,
0010
0000
1100
0100
0000
0100
0101
0000
,
0110
1001
1000
0011
,
1000
0000
0101
0100
0000
0100
1100
0000
,
1001
0110
0100
1010
,
0100
0011
0100
0011
,
0110
1001
0001
1100
,
0001
1010
0001
1010
,
1001
0110
0010
1100
,
1001
0000
1010
0010
0000
0010
0011
0000
,
0110
1001
0001
1010
,
0110
0000
1100
0100
0001
0100
0101
0000
,
0110
1001
0100
0011
,
1001
0000
0101
0100
0000
0100
1100
0000
,
1001
1000
0101
0110
,
1001
0000
0000
0011
1010
0000
0000
0000
,
1001
0000
0000
0000
,
0000
0000
0000
0000
,
0010
0010
0010
0010
0100
0100
0100
0100
,
0001
0001
1000
1000
0110
0000
1001
0000
,
1000
0100
1000
0000
0100
0000
0010
0000
0001
0000
0100
0000
0000
0000
0100
0000
,
1000
0000
0110
0001
0000
0001
0110
0000
,
1000
0010
1000
0000
0010
0000
0100
0000
0001
0000
0010
0000
0000
0000
0010
0000
,
1000
0000
0110
1000
0000
1000
0110
0000
,
0001
0010
0001
0000
0010
0000
0100
0000
1000
0000
0010
0000
0000
0000
0010
0000
,
0001
0000
1001
0100
0000
0100
1001
0000
,
0001
0100
0001
0000
0100
0000
0010
0000
1000
0000
0100
0000
0000
0000
0100
0000
,
1001
0000
0000
0000
,
1000
0100
0010
0000
0100
0000
1000
0000
1000
0000
0100
0000
0000
0000
0100
0000
,
0010
0000
0010
0001
0000
0000
0000
0000
,
0001
0010
0100
0000
0010
0000
0001
0000
0001
0000
0010
0000
0000
0000
0010
0000
,
0100
0000
0100
1000
0000
0000
0000
0000
,
1000
0010
0100
0000
0010
0000
1000
0000
1000
0000
0010
0000
0000
0000
0010
0000
,
0100
0000
0100
0001
0000
0000
0000
0000
,
0001
0100
0010
0000
0100
0000
0001
0000
0001
0000
0100
0000
0000
0000
0100
0000
,
1001
0000
0000
0000
,
1000
0100
0010
0001
1000
0100
0010
0001
,
1000
0100
0010
0001
0000
0000
0000
0000
,
0001
0010
0100
1000
0001
0010
0100
1000
,
0001
0010
0100
1000
0000
0000
0000
0000
,
1000
0000
0100
0000
0000
0010
0000
0000
,
0001
0000
0000
0010
0000
0000
0100
0000
,
1000
0100
0010
0001
0001
0010
0100
1000
,
0110
0000
0000
0000
,
1000
0010
0100
0001
1000
0010
0100
0001
,
1000
0010
0100
0001
0000
0000
0000
0000
,
0001
0100
0010
1000
0001
0100
0010
1000
,
0001
0100
0010
1000
0000
0000
0000
0000
,
1000
0000
0010
0000
0000
0100
0000
0000
,
0001
0000
0000
0100
0000
0000
0010
0000
,
0100
0100
0100
0100
0010
0010
0010
0010
,
1000
1000
0001
0001
0110
0000
0000
0000
,
1001
0000
0000
0000
;

//--------------- dance-single - ----------------
#NOTES:
     dance-single:
     :
     Hard:
     10:
     0.564761,0.817533,0.690873,0,0.158325,412,340,72,0,0,0,0.564761,0.817533,0.690873,0,0.158325,412,340,72,0,0,0:
0000
0000
0000
0000
,
0000
0000
0000
0000
,
0000
0000
0000
0000
,
0000
0000
0000
0000
,
0000
0000
0000
0000
,
1001
0000
0000
0000
,
0000
0000
0000
0000
,
0110
0000
0000
0000
,
0000
0000
0000
0000
,
1100
0000
0000
0000
,
0011
0000
0000
0000
,
1001
0000
1000
0100
1000
0000
0001
0010
,
0001
0000
1000
0010
1000
0000
0001
0100
,
0101
0000
1000
0100
0010
0000
0001
0010
,
0100
0000
1000
0010
0100
0000
0001
0100
,
1010
0000
0100
0001
1000
0000
0010
1000
,
0001
0000
1000
0100
0001
0000
0001
0010
,
0110
0000
1000
0100
0010
0001
0010
0100
,
1001
0000
0000
0000
0000
0000
0100
0000
0000
0000
0000
0000
0010
0000
0000
0000
0100
0000
0000
0000
0010
0000
0000
0000
0100
0000
0000
0010
0000
0000
0100
0000
0000
0010
0000
0000
0100
0000
0000
0010
0000
0000
0100
0000
0000
0010
0000
0000
,
0110
0000
0011
0000
0100
1000
1010
0000
,
0101
0000
1000
0100
0000
0100
0001
0000
,
1001
0000
1100
0000
0010
0001
0101
0000
,
1010
0000
0001
0010
0000
0010
1000
0000
,
1001
0000
0110
0000
0001
0010
1100
0000
,
0011
0000
0010
0100
0000
0010
1000
0000
,
1001
0000
0010
0000
0100
0010
0001
0000
,
1001
0000
1010
0000
0100
0001
0010
0000
,
1001
0000
0101
0000
0010
0100
1000
0000
,
0110
0000
0011
0010
0000
0010
1010
0000
,
1001
0000
1010
0000
0100
0010
0011
0000
,
0110
0000
0000
0000
0000
0000
1000
0100
0010
0000
0000
0001
0000
0000
0010
0000
,
1001
0000
0101
0000
0010
1000
1100
0000
,
0110
0000
1100
0100
0000
0100
0101
0000
,
1001
0000
0110
0000
1000
0001
1010
0000
,
0011
0000
0000
0010
0110
0000
0000
0000
,
1001
0000
0000
0000
,
0000
0000
0000
0000
,
0010
0010
0010
0010
0100
0100
0100
0100
,
0001
0001
1000
1000
0110
0000
1001
0000
,
0001
0010
0100
1000
0010
0000
0100
0001
0000
0100
0000
0000
0000
0000
0010
0000
,
0001
0000
0001
0100
0000
0000
1001
0000
,
1000
0100
0010
0001
0100
0000
0010
1000
0000
0100
0000
0000
0000
0000
0100
0000
,
1000
0000
1000
0010
0000
0000
1001
0000
,
0001
0010
1000
0010
0001
0000
0100
0010
0000
0100
0000
0000
0000
0000
1000
0000
,
1001
0000
0001
1001
0000
0000
0110
0000
,
1000
0100
0001
0100
1000
0000
0010
0100
0000
0010
0000
0000
0000
0000
0010
0000
,
1001
0000
0000
0000
,
1000
0100
0010
0100
1000
0000
0100
0000
0100
0000
0001
0000
0000
0000
0010
0000
,
1000
0000
0100
0001
0000
0000
0101
0000
,
0001
0010
0100
0010
0001
0000
0010
0000
0010
0000
1000
0000
0000
0000
0100
0000
,
0001
0000
0010
1000
0000
0000
1010
0000
,
1000
0010
0001
0010
1000
0000
0010
0000
0010
0000
0001
0000
0000
0000
1000
0000
,
0100
0000
0001
0010
0000
0000
0011
0000
,
0001
0100
1000
0100
0001
0000
0100
0000
0100
0000
1000
0000
0000
0000
0010
0000
,
1001
0000
0000
0000
,
1000
0100
0001
0100
1000
0010
0001
0010
,
1000
0100
0010
0001
0000
0000
0000
0000
,
0001
0010
1000
0010
0001
0100
1000
0100
,
0001
0010
0100
1000
0000
0000
0000
0000
,
0010
0000
0011
0000
0000
0110
0000
0000
,
1100
0000
0000
0000
0000
0000
0110
0000
0000
0000
0000
0000
1001
0000
0000
0100
,
1000
0100
0010
0001
1000
0010
0100
0001
,
1001
0000
0000
0000
,
0001
0100
1000
0100
0001
0010
1000
0010
,
0001
0100
0010
1000
0000
1000
1001
0000
,
1000
0010
0001
0010
1000
0100
0001
0100
,
1000
0010
0100
0001
0000
0001
1001
0000
,
0100
0000
0101
0000
0000
1001
0000
0000
,
1010
0000
0000
1001
0000
0000
0101
0000
,
0100
0100
0100
0100
0010
0010
0010
0010
,
1000
1000
0001
0001
0110
0000
0000
0000
,
1001
0000
0000
0000
;

//--------------- dance-single - ----------------
#NOTES:
     dance-single:
     :
     Challenge:
     11:
     0,0,0,0,0:
0000
0000
0000
0000
,
0000
0000
0000
0000
,
0000
0000
0000
0000
,
0110
0000
0000
0000
,
0000
0000
0000
0000
,
1100
0000
0000
0000
,
0000
0000
0000
0000
,
0101
0000
0000
0000
,
0000
0000
0000
0000
,
0011
0000
0000
0000
,
1010
0000
0000
0000
,
1001
0000
1000
0100
1000
0100
1000
0100
,
0010
0001
0010
0001
0010
0001
0100
0010
,
0110
0000
1000
0010
1000
0010
1000
0010
,
0100
0001
0100
0001
0100
0001
0010
0100
,
0110
0000
1000
0100
1000
0100
0010
0100
,
0010
0100
0010
0001
0010
0001
1000
0001
,
1001
0000
0100
0010
0100
0010
1000
0001
,
1001
0000
0100
0000
0010
0000
0001
0000
0100
0010
0100
0010
0100
0010
0100
0010
,
0110
0000
0000
0000
1010
0000
0000
0100
0010
0000
0001
0000
0011
0000
0000
0000
,
0110
0000
0101
0101
0000
1100
1100
0000
,
0110
0000
0000
0000
0101
0000
0000
0010
0100
0000
1000
0000
1100
0000
0000
0000
,
0110
0000
1010
1010
0000
0011
0011
0000
,
1001
0000
0000
0000
0110
0000
0010
0001
0010
0000
0001
0000
0101
0000
0000
0000
,
1001
0000
0000
0000
0110
0000
0100
1000
0100
0000
1000
0000
1010
0000
0000
0000
,
0110
0000
0000
0000
1001
0000
0001
0100
0001
0000
0100
0000
0011
0000
0000
0000
,
0110
0000
0000
0000
1001
0000
1000
0010
1000
0000
0010
0000
1100
0000
0000
0000
,
1001
0000
0000
0000
0110
0000
0001
0010
0001
0000
0100
0000
1010
0000
0000
0000
,
0011
0000
0101
0101
0000
1100
1100
0000
,
0110
0000
0000
0000
1001
0000
1000
0010
1000
0000
0100
0000
0011
0000
0000
0000
,
1010
0000
0000
0000
0110
0000
1000
0100
0001
0000
0010
0000
1100
0000
0000
0000
,
0110
0000
0000
0000
1001
0000
0001
0100
0001
0000
0010
0000
1100
0000
0000
0000
,
0101
0000
0000
0000
0110
0000
0010
0001
0010
0000
0100
0000
1010
0000
0000
0000
,
1100
0000
0000
0000
0110
0000
0010
1000
0010
0000
0100
0000
0011
0000
0000
0000
,
1001
0000
0100
0000
0010
0000
0001
0000
0100
0010
0100
0010
0100
0010
0100
0010
,
0110
0000
0000
0000
,
0000
0000
0000
0000
,
0010
0010
0010
0010
0100
0100
0100
0100
,
0001
0001
1000
1000
0110
0000
1001
0000
,
1000
0100
0001
0100
1000
0000
0100
0010
0000
0000
0001
0000
0000
0000
0010
0000
,
0100
0000
0000
0000
1100
0000
1000
0010
1000
0000
0100
0000
0011
0000
0000
0000
,
0001
0100
1000
0100
0001
0000
0100
0010
0000
0000
1000
0000
0000
0000
0010
0000
,
0100
0000
0000
0000
0101
0000
0001
0010
0001
0000
0100
0000
1010
0000
0000
0000
,
1000
0010
0001
0010
1000
0000
0010
0100
0000
0000
0001
0000
0000
0000
0100
0000
,
0010
0000
0000
0000
1010
0000
1000
0100
1000
0000
0010
0000
0101
0000
0000
0000
,
0001
0010
1000
0010
0001
0000
0010
0100
0000
0000
1000
0000
0000
0000
0100
0000
,
1001
0000
0000
0000
0110
0000
0100
0010
0100
0010
0100
0010
0100
0000
0010
0100
,
1000
0100
0001
0100
1000
0000
0100
0010
0100
0000
0010
0000
0000
0000
0001
0000
,
0100
0000
0000
0000
0100
0000
1000
0010
1000
0010
1000
0000
0110
0000
0000
0000
,
0001
0010
1000
0010
0001
0000
0010
0100
0010
0000
0100
0000
0000
0000
1000
0000
,
0010
0000
0000
0000
0010
0000
0001
0100
0001
0100
0001
0000
0110
0000
0000
0000
,
1000
0010
0001
0010
1000
0000
0010
0100
0010
0000
0100
0000
0000
0000
0001
0000
,
0010
0000
0000
0000
0010
0000
1000
0100
1000
0100
1000
0000
0110
0000
0000
0000
,
0001
0100
1000
0100
0001
0000
0100
0010
0100
0000
0010
0000
0000
0000
1000
0000
,
0110
0000
0000
0000
1001
0000
0001
1000
0001
1000
0001
1000
0001
0000
1000
0001
,
1000
0100
0001
0100
1000
0010
0001
0010
,
1000
0100
0001
0010
0000
0100
0110
0000
,
0001
0010
1000
0010
0001
0100
1000
0100
,
0001
0010
1000
0100
0000
0010
0110
0000
,
1001
0000
1010
0000
0000
0011
0000
0000
,
0101
0000
0000
1100
0000
0000
0110
0000
,
1000
0100
0010
0001
1000
0010
0100
0001
,
1001
0000
0000
0000
0110
0000
0010
0000
0100
0010
0100
0010
0100
0010
0100
0010
,
1000
0010
0001
0010
1000
0100
0001
0100
,
1000
0010
0001
0100
0000
0010
0110
0000
,
0001
0100
1000
0100
0001
0010
1000
0010
,
0001
0100
1000
0010
0000
0100
0110
0000
,
0110
0000
1100
0000
0000
0101
0000
0000
,
0011
0000
0000
1010
0000
0000
1001
0000
,
0100
0100
0100
0100
0010
0010
0010
0010
,
1000
1000
0001
0001
0110
0000
0000
0000
,
1001
0000
0000
0000
;
