#VERSION:0.83;
#TITLE:YOG SOTHOTH;
#SUBTITLE:;
#ARTIST:NATO;
#TITLETRANSLIT:;
#SUBTITLETRANSLIT:;
#ARTISTTRANSLIT:;
#GENRE:;
#CREDIT:;
#MUSIC:Yog Sothoth.ogg;
#BANNER:Yog Sothoth-bn.png;
#BACKGROUND:Yog Sothoth-bg.png;
#CDTITLE:;
#SAMPLESTART:46.780;
#SAMPLELENGTH:19.221;
#SELECTABLE:YES;
#OFFSET:-0.133;
#BPMS:0.000=200.000
,11.000=2000.000
,16.000=100.000
,60.000=200.000
,88.000=12800.000
,96.000=200.000
,124.000=100.000
,124.500=70.000
,125.000=400.000
,126.000=200.000
,155.000=50.000
,155.500=100.000
,156.000=25600.000
,296.000=200.000
,302.000=600.000
,308.000=200.000
,314.000=600.000
,320.000=200.000
,326.000=600.000
,332.000=200.000
,334.000=400.000
,338.000=200.000
,346.000=600.000
,352.000=200.000
,358.000=600.000
,364.000=200.000
,370.000=600.000
,376.000=200.000
,378.000=400.000
,382.000=200.000
,384.000=25.000
,387.500=50.000
,388.438=70.000
,393.000=200.000
,423.000=400.000
,424.000=12800.000
,436.000=200.000
;
#STOPS:334.000=0.050
,334.333=0.050
,334.667=0.050
,335.000=0.050
,335.333=0.050
,335.667=0.050
,336.000=0.050
,336.333=0.050
,336.667=0.050
,337.000=0.050
,337.333=0.050
,337.667=0.050
,378.000=0.051
,378.333=0.051
,378.667=0.051
,379.000=0.051
,379.333=0.051
,379.667=0.051
,380.000=0.051
,380.333=0.051
,380.667=0.051
,381.000=0.051
,381.333=0.051
,381.667=0.051
,423.000=0.025
,423.125=0.025
,423.250=0.025
,423.375=0.025
,423.500=0.025
,423.625=0.025
,423.750=0.025
,423.875=0.025
,452.500=0.025
,554.000=1.000
;
#WARPS:48.000=12.000,
60.250=12.125,
388.500=4.500,
436.500=12.500,
554.125=5.000
;
#SPEEDS:0.000=6.667=0.000=0,
11.000=0.625=0.256=0,
23.000=0.750=1.000=0,
31.000=0.875=1.000=0,
39.000=1.000=1.000=0,
45.000=0.750=3.000=0,
48.000=1.250=0.000=0,
59.750=0.050=0.000=0,
60.229=1.000=0.000=0,
72.375=0.110=0.000=0,
72.500=1.000=2.100=0,
155.833=0.125=0.000=0,
155.896=0.150=0.000=0,
155.958=1.000=0.000=0,
384.000=1.100=0.000=0,
384.042=1.250=0.000=0,
384.083=1.500=0.000=0,
384.125=1.833=0.000=0,
384.167=2.250=0.000=0,
384.188=2.625=0.000=0,
384.208=3.000=0.000=0,
387.500=2.625=0.000=0,
387.563=2.250=0.000=0,
387.625=1.833=0.000=0,
387.688=1.500=0.000=0,
387.750=1.250=0.000=0,
387.813=1.100=0.000=0,
387.875=1.050=0.000=0,
387.938=1.025=0.000=0,
388.000=1.000=0.000=0,
449.000=0.050=0.000=0,
449.063=0.100=0.000=0,
449.188=0.200=0.000=0,
449.313=0.300=0.000=0,
449.438=0.400=0.000=0,
449.563=0.500=0.000=0,
449.688=0.550=0.000=0,
449.813=0.600=0.000=0,
449.938=0.650=0.000=0,
450.063=0.700=0.000=0,
450.188=0.750=0.000=0,
450.313=0.775=0.000=0,
450.438=0.800=0.000=0,
450.563=0.825=0.000=0,
450.688=0.850=0.000=0,
450.813=0.875=0.000=0,
450.938=0.900=0.000=0,
451.063=0.910=0.000=0,
451.188=0.920=0.000=0,
451.313=0.930=0.000=0,
451.438=0.940=0.000=0,
451.563=0.950=0.000=0,
451.688=0.960=0.000=0,
451.813=0.970=0.000=0,
451.938=0.980=0.000=0,
452.063=0.990=0.000=0,
452.188=1.000=0.000=0,
549.000=0.100=0.000=0,
549.125=0.500=4.875=0
;
#SCROLLS:0.000=1.000,
59.750=0.500,
60.229=1.000,
388.500=0.250,
393.000=1.000
;
#TICKCOUNTS:0.000=4;
#TIMESIGNATURES:0.000=4=4;
#LABELS:0.000=Song Start;
#COMBOS:0.000=1;
#DISPLAYBPM:*;
#ORIGIN:;
#PREVIEWVID:;
#JACKET:;
#CDIMAGE:;
#DISCIMAGE:Yog Sothoth.jpg;
#BGCHANGES:0.000=Yog Sothoth.avi=1.000=0=0=0=StretchNoLoop====,
99999.000=-nosongbg-=1.000=0=0=0=StretchNoLoop====
;
#FGCHANGES:;

//--------------- dance-single - ----------------
#NOTEDATA:;
#STEPSTYPE:dance-single;
#DESCRIPTION:;
#DIFFICULTY:Beginner;
#METER:9;
#RADARVALUES:0,0,0,0,0;
#OFFSET:-0.283;
#BPMS:0.000=200.000;
#NOTES:
0000
0000
0000
0000
,
0000
0000
0000
0000
,
0000
0000
0000
1000
,
0000
0100
0000
0010
,
0000
0001
0000
1000
,
0000
0010
0000
0100
,
0000
0001
0000
0001
,
0000
0010
0000
0100
,
0000
1000
0000
0001
,
0000
0100
0000
0010
,
0000
1000
0000
1000
,
0000
0010
0000
0100
,
0000
0001
0000
1000
,
0000
0100
0000
0010
,
0000
0001
0000
0001
,
0000
0100
0000
0010
,
0000
1000
0000
0001
,
0000
0010
0000
0100
,
0000
1000
0000
1001
,
0000
0000
0000
0000
,
0000
0000
0000
1000
,
0100
0000
0010
0000
0001
0000
1000
0010
,
0100
0001
0010
0100
1000
0000
1001
0000
,
0001
0010
0100
1000
,
0100
0010
0001
1000
,
0010
0000
0100
0000
0001
0000
1000
0100
,
0010
0001
0100
0010
1000
0001
1000
0000
,
0010
0100
0001
1000
,
0100
0010
0001
1000
,
0100
0010
0100
1000
,
0001
0000
0000
0001
1000
0000
0001
0000
,
0010
0100
1000
0001
,
0100
0010
1000
0001
,
0010
0000
0100
0000
0010
0000
0001
0010
,
0100
1000
0010
0100
0001
1000
0001
0000
,
0100
0010
1000
0001
,
0010
0100
1000
0001
,
0100
0010
0100
0001
,
1000
0001
1001
1000
,
0100
0010
0001
0100
,
0010
0000
1000
0100
0001
0100
1000
0000
,
0010
0100
0001
0010
,
0100
0000
1000
0010
0001
0010
1000
0000
,
0100
0001
1000
0010
,
0001
0000
1000
0100
0001
0010
1000
0000
,
0001
2000
0000
3200
,
0000
0320
0000
0031
,
0100
0010
1000
0100
,
0010
0000
0001
0100
1000
0100
0001
0000
,
0010
0100
1000
0010
,
0100
0000
0001
0010
1000
0010
0001
0000
,
0010
1000
0001
0100
,
1000
0000
0001
0010
1000
0100
0001
0000
,
1000
0002
0000
0023
,
0000
0230
0300
2002
,
0000
0000
0000
0000
,
0000
0000
0000
0000
,
0000
0000
0000
0000
,
0000
0000
0000
0000
,
0000
0000
0000
0000
,
0000
3000
0000
0003
,
0000
0000
0000
1000
,
0001
1000
0001
1001
,
1001
1001
1001
0110
,
0110
0110
0110
1010
,
1010
1010
1010
0011
,
0011
0011
0011
1100
,
1100
1100
1100
0101
,
0101
0101
0101
1000
,
0100
0000
0010
0000
0001
0000
1000
0001
,
1000
0001
1000
0001
1000
0000
1001
0000
,
0000
0000
0000
0000
,
0000
0000
0000
1000
,
0100
0010
0001
1000
,
0010
0000
0100
0000
0001
0000
1000
0100
,
1000
0100
1000
0100
1000
0100
0010
0001
,
0010
0001
0010
0001
0010
0001
1000
0010
,
1000
0010
1000
0010
1000
0010
0100
0001
,
0100
0001
0100
0001
0100
0001
1000
0001
,
1000
0001
1000
0001
1000
0001
0100
0010
,
0100
0010
0100
0010
0100
0010
1000
0001
,
1000
0001
0010
0100
0010
0100
0010
0100
,
0010
0100
1000
0000
0001
0000
1000
0100
,
1000
0100
0010
0001
0010
0001
1000
0010
,
1000
0010
0100
0001
0100
0001
1000
0001
,
1000
0001
0100
0010
0100
0010
1000
0001
,
1000
0001
0010
0100
0010
0100
1000
0000
,
0000
0000
1000
0100
0010
0001
1000
0010
,
0100
0001
1000
0100
0010
0001
1000
0010
,
0100
0001
1000
0100
0010
0100
1000
0010
,
0100
0001
1000
0100
0010
0001
1000
0010
,
0100
0010
1000
0100
0010
0001
1000
0010
,
0100
0001
1000
0001
1000
0001
1000
0100
,
0010
0001
1000
0100
0010
0001
1000
0100
,
0010
0001
1000
0100
0010
0001
1000
0100
,
0010
0001
1000
0100
0010
0001
2002
0000
,
0000
0000
0000
0000
,
0000
0000
0000
3003
;

//--------------- dance-single - ----------------
#NOTEDATA:;
#STEPSTYPE:dance-single;
#DESCRIPTION:;
#DIFFICULTY:Easy;
#METER:11;
#RADARVALUES:0,0,0,0,0;
#OFFSET:-0.283;
#BPMS:0.000=200.000
,90.000=1600.000
,98.000=200.000
,126.000=100.000
,128.000=200.000
,159.000=800.000
,163.000=200.000
,227.000=50.000
,234.000=100.000
,236.000=200.000
,368.000=100.000
;
#NOTES:
0000
0000
0000
0000
,
0000
0000
0000
0000
,
0000
0000
0000
1100
,
0000
0110
0000
0011
,
0000
1001
0000
1010
,
0000
0110
0000
0101
,
0000
1001
0000
0011
,
0000
0110
0000
1100
,
0000
1001
0000
0101
,
0000
0110
0000
1010
,
0000
1001
0000
1010
,
0000
0110
0000
0011
,
0000
1001
0000
1100
,
0000
0110
0000
0101
,
0000
1001
0000
0101
,
0000
0110
0000
1100
,
0000
1001
0000
0011
,
0000
0110
0000
1010
,
0000
0110
0000
1001
,
0000
0000
0000
0000
,
0000
0000
0000
0000
0000
0000
1000
0100
,
0010
0000
0001
0000
0100
0000
0010
0000
1000
0000
0000
0000
1000
0100
1000
0100
,
0010
0001
0010
0001
1000
0001
1000
0001
1000
0000
0000
0000
0000
0000
0000
0000
,
0000
0000
0000
0000
,
0000
0000
1001
0100
,
0010
0001
1000
0000
0001
0000
0010
0000
,
0100
1000
0001
0000
1000
0000
0100
0000
,
0010
0001
1000
0000
1000
0100
0010
0100
,
1000
0100
0001
0100
1000
0000
0010
0000
,
0100
0001
1000
0000
0001
0000
0100
0000
,
0010
1000
0001
0000
1000
0000
0010
0000
,
0100
0000
0001
0000
1000
0000
0000
0000
0001
0000
0010
0000
0000
0100
0000
0000
,
1000
0000
0001
0000
0100
0010
1000
0000
,
0001
0000
1000
0000
0010
0100
0001
0000
,
1000
0000
0001
0000
0100
0010
1000
0000
,
1000
0010
0100
0010
1000
0010
0001
0010
,
1000
0000
0001
0000
0010
0100
1000
0000
,
0001
0000
1000
0000
0100
0010
0001
0000
,
1000
0000
0001
0000
0010
0100
1000
0000
,
1000
0000
0001
0000
1000
0001
1000
0000
,
0000
0000
0000
0000
0000
0000
0000
0000
0000
0000
0000
0000
0000
0000
0000
0000
0000
0000
2000
0000
0000
0100
0000
3000
,
2000
0000
0000
0010
0000
3000
2000
0000
0000
0001
0000
3000
2000
0000
0000
0010
0000
3000
0001
0000
0000
0000
0000
0000
,
0010
0000
0000
0000
0000
0000
0100
0000
0000
1000
0000
0000
0100
0000
0000
0000
0000
0000
0002
0000
0000
0010
0000
0003
,
0002
0000
0000
0100
0000
0003
0002
0000
0000
1000
0000
0003
0002
0000
0000
0100
0000
0003
1000
0000
0000
0000
0000
0000
,
0100
0000
0000
0000
0000
0000
0010
0000
0000
0001
0000
0000
0010
0000
0000
0000
0000
0000
2000
0000
0000
0100
0000
3000
,
0020
0000
0000
0001
0000
0030
0200
0000
0000
0010
0000
0300
2000
0000
0000
0100
0000
3000
0001
0000
0000
0000
0000
0000
,
0010
0000
0100
1000
0001
0000
0100
0000
,
0010
0000
0000
1000
0100
0010
0001
0100
0010
1000
0100
0010
,
0001
0000
0100
0000
0010
0000
1000
0000
0000
0000
0001
0000
0000
0000
1000
0000
0000
0000
0002
0000
0000
0100
0000
0003
,
0020
0000
0000
1000
0000
0030
0200
0000
0000
1000
0000
0300
0020
0000
0000
0100
0000
0030
0001
0000
0000
0000
0000
0000
,
1000
0000
0000
0000
0000
0000
0010
0000
0000
1000
0000
0000
0001
0000
0000
0000
0000
0000
2000
0000
0000
0010
0000
3000
,
0200
0000
0000
0001
0000
0300
0020
0000
0000
0001
0000
0030
0200
0000
0000
0010
0000
0300
1000
0000
0000
0000
0000
0000
,
0001
0000
0000
0000
0000
0000
0100
0000
0000
0001
0000
0000
1000
0000
0000
0000
0000
0000
0200
0000
0000
0010
0000
0300
,
0200
0000
0000
0001
0000
0300
0200
0000
0000
0010
0000
0300
0200
0000
0000
1000
0000
0300
0100
0000
0000
0000
0000
0000
,
0100
0000
0100
0001
1000
0000
0001
0000
,
1000
0000
0000
0001
0010
0100
1000
0001
0010
0100
1000
0001
,
0010
0100
1000
0001
0000
1000
0000
0001
0000
2002
0000
0000
,
0000
0000
0000
0000
,
0000
3000
0003
0000
1000
0001
1000
0001
,
2002
3003
0000
0000
0000
0000
0000
0000
0000
0000
0000
0000
0000
0000
0000
0000
0000
0000
0000
0000
0000
0000
0000
0000
0000
0000
0000
0000
0000
0000
0000
0000
0000
0000
0000
0000
0000
0000
0000
0000
0000
0000
0000
0000
0000
0000
0000
0000
0110
0000
0000
0000
0000
0000
0000
0000
0000
0000
0000
0000
0000
0000
0000
0000
0000
0000
0000
0000
0000
0000
0000
0000
0000
0000
0000
0000
0000
0000
0000
0000
0000
0000
0000
0000
0000
0000
0000
0000
0000
0000
0000
0000
0000
0000
0000
0000
1100
0000
0000
0000
0000
0000
0000
0000
0000
0000
0000
0000
0000
0000
0000
0000
0000
0000
0000
0000
0000
0000
0000
0000
0000
0000
0000
0000
0000
0000
0000
0000
0000
0000
0000
0000
0000
0000
0000
0000
0000
0000
0000
0000
0000
0000
0000
0000
0011
0000
0000
0000
0000
0000
0000
0000
0000
0000
0000
0000
0000
0000
0000
0000
0000
0000
0000
0000
0000
0000
0000
0000
0010
0000
0000
0000
0000
0000
0000
0000
0000
0000
0000
0000
0000
0000
0000
0000
0000
0000
0000
0000
0000
0000
0000
0000
,
0001
0010
0100
0010
1000
0010
0100
0010
,
0022
0033
0000
0000
0000
0000
0000
0000
0000
0000
0000
0000
0000
0000
0000
0000
0000
0000
0000
0000
0000
0000
0000
0000
0000
0000
0000
0000
0000
0000
0000
0000
0000
0000
0000
0000
0000
0000
0000
0000
0000
0000
0000
0000
0000
0000
0000
0000
1010
0000
0000
0000
0000
0000
0000
0000
0000
0000
0000
0000
0000
0000
0000
0000
0000
0000
0000
0000
0000
0000
0000
0000
0000
0000
0000
0000
0000
0000
0000
0000
0000
0000
0000
0000
0000
0000
0000
0000
0000
0000
0000
0000
0000
0000
0000
0000
1100
0000
0000
0000
0000
0000
0000
0000
0000
0000
0000
0000
0000
0000
0000
0000
0000
0000
0000
0000
0000
0000
0000
0000
0000
0000
0000
0000
0000
0000
0000
0000
0000
0000
0000
0000
0000
0000
0000
0000
0000
0000
0000
0000
0000
0000
0000
0000
0100
0000
0000
0000
0000
0000
0000
0000
0000
0000
0000
0000
0000
0000
0000
0000
0001
0000
0000
0000
0000
0000
0000
0000
0000
0000
0000
0000
0000
0000
0000
0000
0100
0000
0000
0000
0000
0000
0000
0000
0000
0000
0000
0000
0000
0000
0000
0000
,
0001
0010
0001
0010
0001
1000
0001
1000
,
2002
3003
0000
0000
0000
0000
0000
0000
0000
0000
0000
0000
0000
0000
0000
0000
0000
0000
0000
0000
0000
0000
0000
0000
0000
0000
0000
0000
0000
0000
0000
0000
0000
0000
0000
0000
0000
0000
0000
0000
0000
0000
0000
0000
0000
0000
0000
0000
0110
0000
0000
0000
0000
0000
0000
0000
0000
0000
0000
0000
0000
0000
0000
0000
0000
0000
0000
0000
0000
0000
0000
0000
0000
0000
0000
0000
0000
0000
0000
0000
0000
0000
0000
0000
0000
0000
0000
0000
0000
0000
0000
0000
0000
0000
0000
0000
1100
0000
0000
0000
0000
0000
0000
0000
0000
0000
0000
0000
0000
0000
0000
0000
0000
0000
0000
0000
0000
0000
0000
0000
0000
0000
0000
0000
0000
0000
0000
0000
0000
0000
0000
0000
0000
0000
0000
0000
0000
0000
0000
0000
0000
0000
0000
0000
0010
0000
0000
0000
0000
0000
0000
0000
0000
0000
0000
0000
0000
0000
0000
0000
0000
0000
0000
0000
0000
0000
0000
0000
0001
0000
0000
0000
0000
0000
0000
0000
0000
0000
0000
0000
0000
0000
0000
0000
0000
0000
0000
0000
0000
0000
0000
0000
,
0010
0000
0000
0100
0000
0000
1000
0000
0000
0100
0000
0000
0001
0000
0010
0000
0100
0000
0001
0000
0010
0000
0100
0000
,
1000
0000
0100
0000
0010
0000
0001
0000
1000
0000
0100
0000
,
0010
0000
0001
0000
1000
0000
0001
0000
1000
0001
1000
0001
1000
0000
0000
0000
,
1001
0000
0000
0000
,
0000
0000
0000
0000
,
1000
0100
0010
0001
0100
0010
1000
0000
,
1000
0001
1000
0001
1000
0001
1000
0001
,
1000
0100
0010
0001
0100
0010
1000
0100
,
0001
0010
0100
1000
0010
0100
0001
0010
,
1000
0100
0001
0100
1000
0010
0001
0010
,
1000
0100
1000
0010
0100
0001
0010
0001
,
0010
0100
0010
0100
1000
0010
0001
0010
,
1000
0100
0001
0010
1000
0010
0001
0100
,
1000
0000
0000
0100
0000
0000
1000
0000
0000
0001
0000
0000
1000
0000
0001
0000
1000
0000
0001
0000
0000
1000
0000
0000
,
0010
0000
0000
0100
0000
0000
0001
0000
0010
0000
0100
0000
1000
0000
0000
0000
1001
0000
0000
0000
1001
0000
0000
0000
,
1001
0100
0001
1000
0010
0001
1000
0100
,
0010
0001
0010
0100
0010
0001
1000
0100
,
0010
0100
0010
0001
0010
0100
1000
0001
,
1000
0100
0010
0001
0100
0010
1000
0010
0100
0001
0010
0100
,
2000
0000
3000
0000
0001
0010
0100
1000
,
0001
0100
0010
1000
1000
0100
0010
0001
,
1000
0000
0010
0000
0100
0000
0001
0000
1000
0001
1000
0000
0010
0000
0001
0000
,
0100
0000
1000
0000
0100
0000
0010
0000
0100
0010
0100
0000
0010
0000
1000
0000
,
0100
0000
0010
0000
0001
0000
1000
0000
0010
1000
0010
0000
1000
0000
0001
0000
,
1000
0000
0000
0000
0100
0000
0000
0000
0010
0000
0000
0000
0001
0000
0000
0000
1000
0000
0000
0000
0100
0000
0000
0000
0001
0000
0000
1000
0000
0000
0001
0000
0000
1000
0000
0000
0001
0000
0000
0000
0000
0000
1000
0000
0000
0000
0000
0000
,
0001
0000
0000
0000
1000
0000
0000
0000
0001
0000
0000
0000
1000
0000
0000
0000
0000
0000
0001
0000
0000
0010
0000
0000
0001
0000
0000
0010
0000
0000
0001
0000
0000
0000
0000
0000
0001
0000
0000
0000
0010
0000
0000
0000
0100
0000
0000
0000
,
1000
0000
0000
0000
0001
0000
0000
0000
0010
0000
0000
0000
1000
0000
0000
0000
0000
0000
0001
0000
0000
1000
0000
0000
0001
0000
0000
1000
0000
0000
0001
0000
0000
0000
0000
0000
1000
0000
0000
0000
0100
0000
0000
0000
0010
0000
0000
0000
,
0001
0000
0000
0000
0010
0000
0000
0000
0100
0000
0000
0000
1000
0000
0000
0000
0001
0000
0000
0000
1000
0000
0000
0000
0001
0000
0000
0010
0000
0000
0100
0000
0000
1000
0000
0000
0100
0000
0000
0000
0001
0000
0000
0000
1000
0000
0000
0000
,
2002
0000
0000
0000
,
0000
0000
0000
0000
0000
3003
0000
0000
0000
0000
0000
0000
0000
0000
0000
0000
;

//--------------- dance-single - ----------------
#NOTEDATA:;
#STEPSTYPE:dance-single;
#DESCRIPTION:;
#DIFFICULTY:Medium;
#METER:13;
#RADARVALUES:0,0,0,0,0;
#OFFSET:-0.283;
#BPMS:0.000=200.000
,25.000=400.000
,29.000=200.000
,43.000=400.000
,47.000=200.000
,61.000=400.000
,65.000=200.000
,81.000=1600.000
,113.000=400.000
,117.000=200.000
,124.000=3200.000
,140.000=200.000
,168.000=100.000
,169.000=200.000
,169.500=400.000
,170.500=100.000
,171.000=200.000
,199.000=50.000
,200.000=200.000
,264.000=100.000
,280.000=200.000
,416.000=0.391
;
#STOPS:113.000=0.037
,113.250=0.037
,113.500=0.037
,113.750=0.037
,114.000=0.037
,114.250=0.037
,114.500=0.037
,114.750=0.037
,115.000=0.037
,115.250=0.037
,115.500=0.037
,115.750=0.037
,116.000=0.037
,116.250=0.037
,116.500=0.037
,116.750=0.037
;
#WARPS:312.000=4.000;
#NOTES:
0000
0000
0000
0000
,
0000
0000
0000
0000
,
0000
0000
0000
1000
,
0000
0000
0100
0000
0000
0010
0001
0000
,
0001
1000
0000
0001
,
0000
0000
0010
0000
0000
0100
1000
0000
,
1000
0001
0000
1000
,
0000
0001
0000
0100
,
0000
0010
1000
0000
1000
0000
0001
0000
,
0000
1000
0000
0010
,
0000
0100
0001
0000
0000
0000
0001
0000
,
1000
0000
0001
1000
,
0000
0000
0100
0000
0000
0001
0100
0000
,
1000
0001
0000
0001
,
0000
0000
0010
0000
0000
1000
0010
0000
,
0001
1000
0000
0001
,
0000
1000
0000
0010
,
0000
0001
0010
0000
1000
0000
0001
0000
,
0000
0001
0000
0100
,
0000
1000
0100
0000
0001
0000
1000
0000
,
0000
1001
0000
0000
,
0000
0000
0000
0000
,
0000
0000
0000
0000
,
0000
0000
0000
0000
,
0000
0000
0000
0000
,
0000
0000
0000
0000
,
0000
0000
0000
0000
,
0000
0000
0000
0000
,
0000
0000
0000
0000
,
0000
0000
1001
0100
0010
0001
0100
0010
,
1000
0000
0000
0000
1000
0100
1000
0010
0100
0001
0010
0001
0100
0010
1000
0100
,
1000
0000
0000
0000
,
0000
0000
0000
0000
,
0000
0000
0000
0000
,
0000
0000
0000
0000
,
1001
0100
0010
0001
1000
0010
0100
0001
,
1000
0100
0010
0001
1000
0010
0100
0001
,
1000
0100
0010
0001
1000
0010
0100
0001
,
1000
0100
1000
0100
0010
0001
0010
0001
1000
0010
1000
0010
0100
0001
0100
0001
,
1000
0010
0100
0001
1000
0100
0010
0001
,
1000
0010
0100
0001
1000
0100
0010
0001
,
1000
0010
0100
0001
1000
0100
0010
0001
,
1000
0020
1000
0100
0031
0010
1001
0010
,
0100
1000
0001
0100
0010
1000
0001
0010
,
0100
1000
0001
0100
0010
1000
0001
0010
,
0100
0000
1000
0000
0001
0000
0100
0000
0010
0000
1000
0000
0001
0010
0001
0010
,
0100
1000
0100
1000
0001
0100
0001
0100
0010
1000
0010
1000
0001
0000
0100
0000
,
0010
1000
0001
0010
0100
1000
0001
0100
,
0010
1000
0001
0010
0100
1000
0001
0100
,
0010
0000
1000
0000
0001
0000
0010
0000
0100
0000
1000
0000
0001
1000
0001
1000
,
1000
0100
0010
1000
0100
0001
1000
0010
,
0001
0000
0100
0000
0010
0000
0001
0000
1000
0100
0010
1000
0010
0001
1000
0100
,
0001
0010
0100
0001
0010
1000
0001
0100
,
1000
0000
0010
0000
0100
0000
1000
0000
0001
0010
0100
0001
0100
1000
0001
0010
,
1000
0100
0010
1000
0100
0001
1000
0010
,
0001
0000
0100
0000
0010
0000
0001
0000
1000
0100
0001
0100
0010
0001
1000
0001
,
1000
0000
0000
0100
0000
0000
0010
0000
0000
0001
0000
0000
1000
0000
0100
0000
1000
0000
0001
0000
0100
0000
0001
0000
,
1000
0000
0000
0000
0010
0000
0000
0000
1000
0000
0000
0000
0001
0000
0000
0000
0010
0000
0000
0000
0001
0000
0000
0000
1000
0000
0000
0000
0000
0000
0000
0000
0000
0100
0000
0000
0000
0000
0000
0000
0000
0000
0010
0000
0000
0000
0000
0000
,
0001
0010
0100
0001
0010
1000
0001
0100
,
1000
0000
0010
0000
0100
0000
1000
0000
0001
0010
1000
0010
0100
1000
0001
0100
,
1000
0100
0010
0001
1000
0100
0010
1000
,
0100
0000
0010
0000
0001
0000
0010
0000
1000
0100
0010
1000
0100
0001
0100
0010
,
0001
0010
0100
1000
0001
0010
0100
0001
,
0010
0000
0100
0000
1000
0000
0100
0000
0001
0100
1000
0010
0100
1000
0001
0010
,
1000
0000
0000
0100
0000
0000
0010
0000
0000
0001
0000
0000
1000
0000
0010
0000
1000
0000
0001
0000
0010
0000
0001
0000
,
1000
0000
0000
0000
0100
0000
0000
0000
1000
0000
0000
0000
0001
0000
0000
0000
0100
0000
0000
0000
0001
0000
0000
0000
1000
0000
0000
0000
0000
0000
0000
0000
0000
0001
0000
0000
0000
0000
0000
0000
0000
0000
1000
0000
0000
0000
0000
0000
,
2002
0000
0000
0000
,
0000
0000
0000
0000
,
0000
0000
0000
3000
,
0003
0000
0000
0000
0000
0000
0000
0000
1000
0001
1000
0001
1000
0001
1000
0000
,
1001
0000
0000
0110
0000
0000
1001
0000
0000
1000
0100
0010
,
0001
0010
0100
0001
0010
0100
0001
0010
,
1001
0000
0000
0000
0000
0000
0110
0000
0000
0000
0000
0000
1000
0001
1000
0001
1000
0001
1000
0000
0100
0000
0010
0000
,
0001
0010
0100
1000
0100
0010
1000
0001
,
0110
0000
0000
1001
0000
0000
0110
0000
0000
1000
0100
0010
,
0001
0000
0000
0001
0000
0000
1000
0000
0000
1000
0000
0000
0010
0000
0100
0000
0010
0000
0100
0000
0010
0000
0100
0000
,
0010
0000
0001
0000
0010
0000
0100
0000
1000
0000
0001
0000
,
1000
0000
0000
0100
0000
0000
0010
0000
0000
0001
0000
0000
1000
0000
0000
0010
0000
0000
0100
0000
0000
0001
0000
0000
1000
0000
0001
0000
1000
0000
0001
0000
1000
0000
0001
0000
1000
0000
0000
0000
0000
0000
0000
0000
0000
0000
0000
0000
,
1001
0100
1001
0100
1001
0010
1001
0010
1001
0000
0000
0000
0000
0000
0000
0000
,
1001
0000
0000
0000
,
0000
0000
0000
0000
,
0010
0001
1000
0010
0100
0001
1000
0000
,
0001
0010
0001
1000
0010
1000
0010
0100
0001
0100
0001
1000
0010
0100
0001
1000
,
0100
0010
0000
0001
0010
0000
0100
0010
0100
1000
0001
0010
0100
0010
0001
1000
,
0010
0100
0000
0001
0100
0000
0010
0100
0010
1000
0001
0100
0010
0100
0001
1000
,
0100
0010
0000
0010
0001
0000
0001
0100
0000
0100
0010
0000
0010
1000
0000
1000
,
0001
0000
0000
0000
0000
0000
1000
0001
1000
0001
0100
0010
0100
0010
1000
0001
,
0100
0010
0000
1000
0010
0000
0100
0010
0100
0001
1000
0100
0010
0100
1000
0001
,
0100
0010
1000
0001
0010
0100
1000
0010
0100
0001
0010
0100
0010
0100
1000
0001
,
1000
0001
0010
0100
0010
0100
0010
0001
1000
0000
0001
1000
0100
0010
0100
0010
,
0001
1000
0010
0100
0010
0100
0010
1000
0001
0000
0000
1010
0000
0000
0101
0000
,
0001
0100
0000
0100
0001
0000
1000
0001
0100
0010
1000
0001
0100
0010
1000
0001
,
1000
0100
0000
0100
1000
0000
0001
1000
0100
0010
0001
1000
0100
0010
0001
1000
,
0010
0100
0000
0100
0001
0000
0001
0010
0000
0010
0100
0000
0100
1000
0000
1000
,
0001
1000
0001
0100
0010
1000
0001
0010
0100
0010
0100
1000
0001
0100
0010
0200
,
0020
0000
0000
0000
0000
0000
0330
0000
0100
0010
0001
1000
0100
0010
0001
1000
,
0100
0010
0100
0010
0100
0010
0100
0010
0001
1000
0001
1000
0001
1000
0001
1000
,
0010
1000
0000
0001
0100
0000
0010
0000
1010
0000
1000
0000
0001
0010
0000
0000
,
0010
0001
0000
1000
0100
0000
0010
0000
0011
0000
0001
0000
1000
0001
0000
0000
,
0001
0010
0000
0010
0100
0000
0100
0000
0110
0000
0010
0000
0100
0010
0000
0000
,
1000
0100
0001
0000
0100
0000
1000
0000
0001
0100
0010
0100
1000
0000
0100
0000
,
0010
0100
0001
1000
0010
0100
0001
0010
1000
0010
0001
0100
0010
1000
0001
0100
,
0010
0000
1000
0001
0010
0100
1000
0010
0001
0010
1000
0100
0010
0001
1000
0000
,
0001
0000
0000
1000
0000
0000
0100
0000
0000
0010
0000
0000
1000
0000
0000
0001
0000
0000
1000
0000
0000
0001
0000
0000
1000
0000
0001
0000
1000
0000
0001
0000
1000
0000
0001
0000
1000
0000
0000
0000
0001
0000
0000
0000
1000
0000
0000
0000
,
2002
3003
0000
0000
0000
0000
0000
0000
0000
0000
0000
0000
0000
0000
0000
0000
0000
0000
0000
0000
0000
0000
0000
0000
0000
0000
0000
0000
0000
0000
0000
0000
0000
0000
0000
0000
0000
0000
0000
0000
0000
0000
0000
0000
0000
0000
0000
0000
0000
0000
0000
0000
0000
0000
0000
0000
0000
0000
0000
0000
0000
0000
0000
0000
0000
0000
0000
0000
0000
0000
0000
0000
0000
0000
0000
0000
0000
0000
0000
0000
0000
0000
0000
0000
0000
0000
0000
0000
0000
0000
0000
0000
0000
0000
0000
0000
0000
0000
0000
0000
0000
0000
0000
0000
0000
0000
0000
0000
0000
0000
0000
0000
0000
0000
0000
0000
0000
0000
0000
0000
0000
0000
0000
0000
0000
0000
0000
0000
0000
0000
0000
0000
0000
0000
0000
0000
0000
0000
0000
0000
0000
0000
0000
0000
0000
0000
0000
0000
0000
0000
0000
0000
0000
0000
0000
0000
0000
0000
0000
0000
0000
0000
0000
0000
0000
0000
0000
0000
0000
0000
0000
0000
0000
0000
0000
0000
0000
0000
0000
0000
0000
0000
0000
0000
0000
0000
0000
0000
0000
0000
0000
0000
;

//--------------- dance-single - ----------------
#NOTEDATA:;
#STEPSTYPE:dance-single;
#DESCRIPTION:;
#DIFFICULTY:Hard;
#METER:16;
#RADARVALUES:0,0,0,0,0;
#OFFSET:-0.283;
#BPMS:0.000=200.000
,1.000=100.000
,13.000=200.000
,15.000=100.000
,22.000=200.000
,24.000=100.000
,31.000=200.000
,33.000=100.000
,41.000=1600.000
,73.000=200.000
,84.938=400.000
,85.000=25600.000
,89.000=200.000
,101.000=400.000
,109.000=200.000
,121.000=50.000
,122.000=200.000
,134.000=400.000
,142.000=200.000
,154.000=100.000
,155.000=200.000
,156.000=6400.000
,188.000=400.000
,240.000=200.000
,246.000=400.000
,298.000=200.000
,304.000=12.500
,305.750=50.000
,306.500=100.000
,316.000=200.000
,348.000=1600.000
,412.000=200.000
;
#STOPS:509.000=1.000;
#WARPS:307.000=9.000,
509.125=5.000
;
#SPEEDS:0.000=1.000=0.000=0,
504.000=0.100=0.000=0,
504.125=0.500=4.875=0
;
#SCROLLS:0.000=1.000,
6.000=0.250,
13.000=0.500,
22.000=0.750,
31.000=1.000
;
#NOTES:
0000
0000
0000
0000
,
0000
0000
0000
0000
0000
0000
0000
0000
1000
0100
0010
0001
1000
0100
0010
0001
,
1000
0010
0100
0001
1000
0010
0100
0001
1000
0100
0010
0001
1000
0100
0010
0001
,
1000
0010
0100
0001
1000
0000
0000
0000
0001
0000
0000
0000
1000
0010
0100
0001
,
1000
0010
0100
0001
1000
0100
0010
0001
1000
0100
0010
0001
1000
0010
0100
0001
,
1000
0010
0100
0001
1000
0100
0010
0001
1000
0000
0000
0000
0001
0000
0000
0000
,
0001
0010
0100
1000
0001
0010
0100
1000
0001
0100
0010
1000
0001
0100
0010
1000
,
0001
0010
0100
1000
0001
0010
0100
1000
0001
0100
0010
1000
0001
0000
0000
0000
,
1000
0000
0000
0000
0001
0100
0010
1000
0001
0100
0010
1000
0001
0010
0100
1000
,
0001
0010
0100
1000
0001
0100
0010
1000
0001
0100
0010
1000
0001
0010
0100
1000
,
0001
0010
0100
1000
0001
0100
0010
1000
1001
0000
0000
0000
0000
0000
0000
0000
0000
0000
0000
0000
0000
0000
0000
0000
0000
0000
0000
0000
0000
0000
0000
0000
,
0000
0000
0000
0000
,
0000
0000
0000
0000
,
0000
0000
0000
0000
,
0000
0000
0000
0000
,
0000
0000
0000
0000
,
0000
0000
0000
0000
,
0000
0000
0000
0000
,
0000
0000
0000
0000
0100
0010
0100
0010
0100
0010
0100
0010
0100
0010
0100
0010
,
0100
0010
0100
0010
1000
0000
0100
0000
0001
0000
1000
0000
0010
0000
0001
0000
,
1000
0000
0000
0000
0000
0000
0000
0000
0001
0000
0010
0000
1000
0000
0010
0000
0001
0000
0100
0000
1000
0000
0100
0000
0001
1000
0001
1000
0001
1000
0001
1000
,
0001
0000
0000
0000
,
0000
0000
0000
0000
1001
0000
0100
0000
0010
0000
0001
0000
1000
0100
0001
0000
,
0010
0000
0100
0000
1000
0000
0010
0000
0100
0000
0001
0000
1000
0010
0001
0000
,
0100
0010
1000
0100
0010
0001
1000
0010
,
0100
0001
1000
0100
0010
0001
1000
0010
,
0100
0010
1000
0100
0010
0100
1000
0010
,
0100
0000
0001
0000
1000
0000
0100
0000
0010
0000
0001
0000
1000
0010
0100
0000
,
0001
0000
1000
0000
0001
0000
0010
0000
0100
0000
1000
0000
0001
0100
0010
0000
,
1000
0001
1000
0100
0010
0001
0100
0010
,
1000
0000
0000
0000
0001
0000
0000
0000
1000
0000
0001
0000
0000
1000
0000
0000
0001
0000
0000
0000
0100
0000
0000
0000
0010
0000
0000
0000
1000
0000
0000
0000
,
0001
0010
0100
0000
1000
0000
0001
0000
1000
0000
0010
0000
0100
0000
0001
0000
,
1000
0100
0010
0000
0001
0000
1000
0000
0001
0000
0100
0000
0010
0000
1000
0000
,
0100
0010
0001
1000
0001
0010
0100
0010
,
1000
0100
0010
0100
0001
0010
0100
0010
,
1000
0100
0010
0001
1000
0100
0010
0001
,
1000
0100
0001
0000
0010
0000
1000
0000
0001
0000
0010
0000
0100
0000
1000
0000
,
0001
0010
1000
0000
0100
0000
0001
0000
1000
0000
0100
0000
0010
0000
0001
0000
,
1000
0000
0000
0000
0000
0000
0000
0000
0000
0000
0000
0000
0010
0000
0000
0000
0000
0000
0000
0000
0000
0000
0000
0000
0100
0000
0000
0000
0000
0000
0000
0000
0000
0000
0000
0000
0001
0000
0000
0000
0000
0000
0000
0000
0000
0000
0000
0000
1000
0000
0000
0000
0000
0000
0000
0000
0000
0000
0000
0000
0001
0000
0000
0000
0000
0000
0000
0000
0000
0000
0000
0000
1000
0000
0000
0000
0001
0000
0000
0000
1000
0000
0000
0000
0001
0000
0000
1000
0000
0000
0001
0000
0000
1000
0000
0000
,
0001
0000
0000
0000
,
0000
0000
0000
0000
,
0000
0000
0000
0000
,
0000
0000
0000
0000
,
0000
0000
0000
0000
,
0000
0000
0000
0000
,
0000
0000
0000
0000
,
0000
0000
0000
0000
,
1000
0100
0010
0001
0100
0010
1000
0100
,
0010
0001
0100
0010
1000
0100
0010
0001
,
1000
0100
0010
0001
,
1000
0100
0010
0100
1000
0010
0100
0010
,
1000
0010
0100
0001
0010
0100
1000
0010
,
0100
0001
0010
0100
1000
0010
0100
0001
,
1000
0010
0100
0001
,
1000
0010
0100
0010
1000
0100
0010
0100
,
1000
0100
0010
0100
1000
0001
0100
0010
,
0100
0001
1000
0100
0010
0100
1000
0001
,
1000
0100
0010
0001
,
1000
0100
0001
0100
1000
0100
0001
0100
,
1000
0010
0100
0001
,
1000
0100
0100
0001
0100
0100
1000
0100
0100
0001
0100
0100
,
1000
0000
0000
0000
0110
0000
0000
0000
0110
0000
0000
0000
0001
0000
0000
0010
0000
0000
0100
0000
0000
1000
0000
0000
,
0010
0100
0001
0010
0100
1000
0010
0100
,
0001
0010
0100
1000
0001
0000
0010
0000
,
0100
0000
1000
0000
0001
0010
1000
0010
,
0001
0010
1000
0010
0001
0100
0010
1000
,
0100
0010
0001
0100
0010
1000
0100
0010
,
0001
0100
0010
1000
0001
0000
0100
0000
,
0010
0000
1000
0000
0001
0100
1000
0100
,
0001
0100
1000
0100
0001
0010
0100
0010
,
0001
1000
0010
0100
0010
1000
0001
0010
,
0100
1000
0010
0100
1000
0000
0100
0000
,
0010
0000
0001
0000
1000
0010
0001
0010
,
1000
0010
0001
0010
1000
0000
0010
0000
,
0100
0000
0000
0001
0000
0000
1000
0010
0010
0001
0010
0010
,
1000
0010
0010
0001
0010
0010
1000
0000
0110
0000
0110
0000
,
2002
0000
0000
0000
0000
0000
0000
0000
0000
0000
0000
0000
0000
0000
0000
0000
0000
0000
0000
0000
0000
0000
0000
0000
0000
0000
0000
0000
0000
0000
0000
0000
0000
3000
0000
0000
0003
0000
0000
0000
0000
0000
1000
0001
1000
0001
1000
0001
1000
0001
1000
0001
1000
0001
1000
0001
1000
0001
1000
0001
1000
0000
0000
0000
0000
0000
0000
0000
0000
0000
0000
0000
1001
0000
0000
0000
0000
0000
0000
0000
0000
0000
0000
0000
0000
0000
0000
0000
0000
0000
0000
0000
0000
0000
0000
0000
,
0000
0000
0000
0000
,
0000
0000
0000
0000
,
1001
0000
0000
0000
0010
0000
0110
0000
0000
0000
0100
0000
0110
0000
0000
0000
0010
0000
1000
0100
1000
0000
0100
0000
,
0010
0001
0100
0010
1000
0001
1000
0001
,
1001
0000
0000
0000
0100
0000
0110
0000
0000
0000
0010
0000
0100
0001
0100
0001
0010
0000
0001
0000
0010
0000
0100
0000
,
1000
0100
0010
0001
1000
0001
1000
0001
,
1001
0000
0000
0000
0010
0000
0110
0000
0000
0000
0100
0000
0110
0000
0000
0000
0010
0000
1000
0010
0100
0000
0001
0000
,
1000
0000
0000
0100
0000
0000
0010
0000
0000
0001
0000
0000
1000
0000
0100
0000
0100
0000
0001
0000
0010
0000
0010
0000
,
1000
0000
0000
0000
0110
0000
0000
0000
0110
0000
0000
0000
0001
0000
0000
0010
0000
0000
0100
0000
0000
1000
0000
0000
,
1000
0000
0100
0000
0010
0000
0001
0000
1000
0000
0010
0000
0100
0000
0001
0000
1000
0000
0001
0000
1000
0001
1000
0001
1000
0000
0001
0000
0000
0000
0000
0000
,
1001
0000
0000
0000
,
0000
0000
0000
0000
,
0000
0000
0000
0000
,
0000
0000
0000
0000
,
0000
0000
0000
0000
,
0000
0000
0000
0000
,
0000
0000
0000
0000
,
0000
0000
0000
0000
,
0000
0000
0000
0000
,
0000
0000
0000
0000
,
0000
0000
0000
0000
,
0000
0000
0000
0000
,
0000
0000
0000
0000
,
0000
0000
0000
0000
,
0000
0000
0000
0000
,
0000
0000
0000
0000
,
0110
0100
0010
0001
1000
0010
0100
0000
,
0010
0100
0001
1000
0100
0010
0001
0010
0100
1000
0001
0100
0010
1000
0010
0100
,
0001
1000
0010
1000
0100
1000
0001
1000
0010
1000
0100
0010
0001
0010
0100
1000
,
0001
1000
0001
0010
0001
0100
0001
1000
0001
0010
0001
0100
0010
1000
0010
0100
,
0001
0100
0010
0100
0001
1000
0010
0100
0010
1000
0010
0100
0001
1000
0100
0010
,
0001
1000
0010
0100
0001
1000
0001
1000
0010
0100
0001
0010
0100
1000
0010
0100
,
0001
1000
0001
0010
0001
1000
0001
0010
0100
1000
0001
1000
0100
1000
0001
1000
,
0010
0100
0001
0100
0010
1000
0100
0010
0001
0100
0010
1000
0100
0010
0001
1000
,
0010
0000
0100
0000
0001
0000
0010
0000
0001
0000
0010
0000
0001
0000
0010
0000
0001
0010
0001
0100
0010
0000
0100
0000
1000
0000
0001
0000
0100
0000
0010
0000
,
1000
0000
0001
0000
1000
0000
0010
0000
1000
0000
0010
0000
1000
0000
0010
0000
1000
0010
1000
0010
1000
0000
0110
0000
0000
0000
0000
0000
0101
0000
0000
0000
,
0001
0100
1000
0100
0001
0100
0010
0100
1000
0100
0001
0100
1000
0100
0010
0100
,
0010
0001
0010
1000
0010
0001
0010
0100
0010
1000
0010
0001
0010
1000
0010
0100
,
0010
0100
0001
0010
0001
0100
0010
1000
0100
1000
0010
0100
0001
1000
0100
0010
,
0001
0000
1000
0000
0010
0000
0001
0000
1000
0000
0100
0000
0001
0000
0010
0000
1000
0000
0001
0000
0100
0000
1000
0000
0010
0000
0100
0000
0001
0000
0010
0001
,
0202
0000
0000
0000
0000
0000
0303
0000
1000
0001
0100
0001
1000
0001
0100
0001
,
1000
0010
0100
0001
0100
0010
0100
0001
0100
0010
1000
0100
0010
0001
0100
0010
,
1000
0000
0001
0000
0010
0000
0100
0000
1000
0000
0100
0000
0010
0000
0001
0000
0010
0001
0010
0100
0001
0000
0010
0000
0100
0000
1000
0000
0100
0000
0010
0000
,
0001
0000
0010
0000
0100
0000
1000
0000
0001
0000
0010
0000
0100
0000
1000
0000
0100
1000
0100
0010
1000
0000
0100
0000
0010
0000
0001
0000
0100
0000
0010
0000
,
1000
0000
0001
0000
0100
0000
0010
0000
1000
0000
0100
0000
1000
0000
0001
0000
1000
0001
1000
0001
0100
0000
0001
0000
1000
0000
0010
0000
0100
0000
0001
0000
,
1000
0000
0100
0000
0010
0000
0001
0000
1000
0000
0010
0000
0100
0000
0001
0000
1000
0001
0100
0010
0100
0010
1000
0000
0001
0000
1000
0000
0001
0000
1000
0000
,
0001
0010
0001
0100
0010
0000
0100
0000
1000
0000
0001
0000
1000
0010
1000
0100
0010
0000
0100
0000
1000
0000
0001
0000
0010
0000
0100
0000
0001
0000
1000
0000
,
0100
0010
0100
0001
0010
0000
1000
0000
0001
0000
0100
0000
0010
0100
0010
1000
0001
0000
0100
0000
1000
0000
0001
0000
0010
0000
1000
0000
0100
0000
0001
0000
,
1000
0000
0000
0001
0000
0000
1000
0000
0000
0100
0000
0000
0010
0000
0000
0000
0000
0000
0001
0000
0000
0000
0000
0000
0100
0000
0000
0000
0000
0000
1000
0000
0000
0000
0000
0000
0001
0000
0000
1000
0000
0000
0001
0000
0000
0010
0000
0000
1000
0000
0000
0000
0001
0000
0000
0000
1000
0000
0000
0000
0001
0000
0000
0000
1000
0000
0000
0000
0001
0000
0000
0000
0010
0000
0000
0000
0000
0000
0000
0000
0100
0000
0000
0000
0000
0000
0000
0000
0020
0000
0000
0000
0000
0000
0000
0000
,
0200
0000
0000
0000
,
0000
0000
0000
0000
,
0000
0330
0000
0000
;

//--------------- dance-single - ----------------
#NOTEDATA:;
#STEPSTYPE:dance-single;
#DESCRIPTION:;
#DIFFICULTY:Challenge;
#METER:20;
#RADARVALUES:1.262962,2.619881,0.947516,0.411963,1.651973,1073,958,115,50,0,0,0,0,4,1.262962,2.619881,0.947516,0.411963,1.651973,1073,958,115,50,0,0,0,0,4;
#DISPLAYBPM:*;
#CHARTNAME:;
#CHARTSTYLE:;
#CREDIT:;
#NOTES:
0000
0000
0000
0000
,
0000
0000
0000
0000
,
0000
0000
0000
0000
,
0000
0000
0000
0000
,
2000
3200
0320
0032
,
0203
0000
0000
0000
0000
0000
0000
0000
0000
0000
0000
0000
0000
0000
0000
0000
0320
0000
0000
0000
0000
0000
0000
0000
0000
0000
0000
0000
0000
0000
0000
0000
2030
0000
0000
0000
0000
0000
0000
0000
0000
0000
0000
0000
0000
0000
0000
3000
1002
0000
0000
0000
0000
0000
0000
0000
0000
0000
0000
0000
0000
0000
0000
0000
,
2003
3020
0230
0302
,
0023
0000
0000
0000
0000
0000
0000
0000
0000
0000
0000
0000
0000
0000
0000
0000
0230
0000
0000
0000
0000
0000
0000
0000
0000
0000
0000
0000
0000
0000
0000
0000
2300
0000
0000
0000
0000
0000
0000
0000
0000
0000
0000
0000
0000
0000
0000
3000
2001
0000
0000
0000
0000
0000
0000
0000
0000
0000
0000
0000
0000
0000
0000
0000
,
3002
0023
0230
2300
,
3020
0000
0000
0000
0000
0000
0000
0000
0000
0000
0000
0000
0000
0000
0000
0000
0230
0000
0000
0000
0000
0000
0000
0000
0000
0000
0000
0000
0000
0000
0000
0000
0302
0000
0000
0000
0000
0000
0000
0000
0000
0000
0000
0000
0000
0000
0000
0003
2001
0000
0000
0000
0000
0000
0000
0000
0000
0000
0000
0000
0000
0000
0000
0000
,
3002
0203
0320
2030
,
3200
0000
0000
0000
0000
0000
0000
0000
0000
0000
0000
0000
0000
0000
0000
0000
0320
0000
0000
0000
0000
0000
0000
0000
0000
0000
0000
0000
0000
0000
0000
0000
0032
0000
0000
0000
0000
0000
0000
0000
0000
0000
0000
0000
0000
0000
0000
0000
2000
0000
0000
0000
0000
0000
0000
0000
0000
0000
0000
0000
0000
0000
0000
3003
,
1001
0000
0000
0000
,
0000
0000
0000
0000
,
0000
0000
0000
0000
,
1001
0000
0000
0000
,
0000
0000
0000
0000
,
0000
0000
0000
0000
,
0000
0000
0000
0000
,
0000
0000
0000
0000
,
1000
0100
0010
0001
0100
0010
1000
0000
,
0001
1000
0001
0010
0001
0100
0010
1000
0100
0010
0100
1000
0010
0100
0001
0010
0001
1000
0001
0000
0000
0000
0000
0000
,
0000
0000
0000
0000
,
0000
0000
0000
0000
,
1001
0100
0001
0000
0010
0000
1100
0000
0100
0000
0101
0000
0110
0000
1000
0000
,
0001
0010
1000
0000
0100
0000
0011
0000
0010
0000
1010
0000
0110
0000
0001
0000
,
1000
0010
0001
0000
1000
0100
0001
0000
1000
0010
0001
0000
1000
0100
0001
0000
,
1000
0100
1000
0010
0100
0001
0010
0100
0010
0001
0100
0010
1000
0100
1000
0001
,
1001
0100
0001
0000
0100
0000
1010
0000
0010
0000
0011
0000
0110
0000
1000
0000
,
0001
0010
1000
0000
0010
0000
0101
0000
0100
0000
1100
0000
0110
0000
0001
0000
,
1000
0100
0001
0000
1000
0010
0001
0000
1000
0100
0001
0000
1000
0010
0001
0000
,
0010
0000
0020
0000
1000
0000
0100
0000
0031
0000
0000
0000
1001
0010
1000
0000
,
0100
0000
0011
0000
0010
0000
1010
0000
0110
0000
0001
0000
1000
0100
0001
0000
,
0010
0000
1100
0000
0100
0000
0101
0000
0110
0000
1000
0000
0001
0010
1000
0000
,
0001
0100
1000
0000
0001
0010
1000
0000
0001
0100
1000
0000
0001
0010
0001
0100
,
0010
1000
0100
0010
0100
1000
0010
0100
0001
0010
0001
1000
1001
0010
1000
0000
,
0010
0000
0101
0000
0100
0000
1100
0000
0110
0000
0001
0000
1000
0100
0001
0000
,
0100
0000
1010
0000
0010
0000
0011
0000
0110
0000
1000
0000
0001
0100
1000
0000
,
0001
0000
0000
0010
0000
0000
1000
0000
0000
0000
0000
0000
0001
0000
0000
0100
0000
0000
1000
0000
0000
0000
0000
0000
0001
0000
0000
0010
0000
0000
1000
0000
0000
0000
0000
0000
2000
0000
0000
3200
0000
0000
0310
0001
0010
0100
1000
0001
,
2002
0000
0000
0000
,
0000
0000
0000
0000
,
0000
0000
0000
0000
,
0000
0000
0000
0000
,
0000
0000
0000
0000
,
0000
0000
0000
0000
,
0000
0000
0000
0000
,
0000
0000
0000
0000
,
0000
0000
0000
0000
,
0000
0000
0000
0000
,
0000
0000
0000
0000
,
0000
0000
0000
0000
,
0000
0000
0000
0000
,
0000
0000
0000
0000
,
0000
0000
0000
0000
,
0000
0000
0000
0000
,
0000
0000
0000
0000
,
0000
0000
0000
0000
,
0000
0000
0000
0000
,
0000
0000
0000
0000
,
0000
0000
0000
0000
,
0000
0000
0000
0000
,
0000
0000
0000
0000
,
0000
0000
0000
0000
,
0000
0000
0000
0000
,
0000
0000
0000
0000
,
0000
0000
0000
0000
,
0000
0000
0000
0000
,
0000
0000
0000
0000
,
0000
0000
0000
0000
,
0000
0000
0000
0000
,
0000
0000
0000
0000
,
0000
0000
0000
0000
,
0000
0000
0000
0000
,
0000
0000
0000
3003
,
1001
0000
1000
0100
0010
1000
0010
0001
1000
0100
0001
0100
0010
0001
1000
0000
,
1001
0110
1001
0000
1000
0100
0010
0001
,
1000
0100
0010
0001
1000
0100
0010
0001
,
1001
0000
0001
0010
0100
0001
0100
1000
0001
0010
1000
0010
0100
1000
0001
0000
,
1001
0110
1001
0000
0001
0010
0100
1000
,
0001
0010
0100
1000
0001
0010
0100
1000
,
1001
0000
1000
0100
0010
1000
0100
0001
1000
0010
0001
0100
0010
0001
1000
0001
,
1001
0110
1001
0000
1000
0100
0010
0100
,
1000
0010
0100
0010
1000
0100
0010
0001
,
1001
0000
0000
0100
0000
0000
0010
0000
0000
0001
0000
0000
1000
0000
1000
0000
1000
0000
0100
0000
0100
0000
0100
0000
,
0010
0000
0000
0000
0010
0000
0000
0000
0010
0000
0000
0000
0001
0000
0000
0000
0001
0000
0000
0000
0001
0000
0000
0000
0011
0000
0000
1100
0000
0000
0000
0000
0000
1010
0000
0000
0101
0000
0000
0000
0000
0000
0110
0000
0000
1001
0000
0000
,
1001
0000
0001
0010
0100
0001
0100
1000
0001
0010
1000
0010
0100
1000
0001
1000
,
1001
0110
1001
0000
0001
0100
0010
1000
,
0001
0100
0010
1000
0001
0100
0010
1000
,
1001
0000
1000
0100
0010
1000
0010
0001
1000
0100
0001
0100
0010
0001
1000
0001
,
1001
0110
1001
0000
1000
0010
0100
0001
,
1000
0010
0100
0001
1000
0010
0100
0001
,
1001
0000
0001
0010
0100
0001
0010
1000
0001
0100
1000
0010
0100
1000
0001
1000
,
1001
0110
1001
0000
0001
0100
0010
0100
,
0001
0010
0100
0010
0001
0100
0010
1000
,
1001
0000
0000
0100
0000
0000
0010
0000
0000
1000
0000
0000
0001
0000
0001
0000
0001
0000
0100
0000
0100
0000
0100
0000
,
0010
0000
0000
0000
0010
0000
0000
0000
0010
0000
0000
0000
1000
0000
0000
0000
1000
0000
0000
0000
1000
0000
0000
0000
1100
0000
0000
0011
0000
0000
0000
0000
0000
0101
0000
0000
1010
0000
0000
0000
0000
0000
1001
0000
0000
0110
0000
0000
,
2002
0000
0000
0000
0000
0000
0000
0000
0000
0000
0000
0000
0000
0000
0000
0000
0000
0000
0000
0000
0000
0000
0000
0000
0000
0000
0000
0000
0000
0000
0000
0000
0000
0000
0000
0000
0000
0000
0000
0000
0000
0000
0000
0000
0000
0000
0000
0000
0000
0000
0000
0000
0000
0000
0000
0000
0000
0000
0000
0000
0000
0000
0000
0000
0000
0000
3000
0000
0000
0000
0000
0000
0003
0000
0000
0000
0000
0000
0000
0000
0000
0000
0000
0000
1000
0001
1000
0001
1000
0001
1000
0001
1000
0001
1000
0001
,
1000
0000
0001
0000
1000
0000
0001
0000
1000
0000
0001
0000
2002
0000
0000
3003
0000
0000
0000
0000
0000
0000
0000
0000
0000
0000
0000
0000
0000
0000
0000
0000
0000
0000
0000
0000
0000
0000
0000
0000
0000
0000
0000
0000
0000
0000
0000
0000
0000
0000
0000
0000
0000
0000
0000
0000
0000
0000
0000
0000
0000
0000
0000
0000
0000
0000
0000
0000
0000
0000
0000
0000
0000
0000
0000
0000
0000
0000
0000
0000
0000
0000
0000
0000
0000
0000
0000
0000
0000
0000
0000
0000
0000
0000
0000
0000
0000
0000
0000
0000
0000
0000
0000
0000
0000
0000
0000
0000
0000
0000
0000
0000
0000
0000
0000
0000
0000
0000
0000
0000
0000
0000
0000
0000
0000
0000
0000
0000
0000
0000
0000
0000
0000
0000
0000
0000
0000
0000
0000
0000
0000
0000
0000
0000
0000
0000
0000
0000
0000
0000
0000
0000
0000
0000
0000
0000
0000
0000
0000
0000
0000
0000
0000
0000
0000
0000
0000
0000
0000
0000
0000
0000
0000
0000
0000
0000
0000
0000
0000
0000
0000
0000
0000
0000
0000
0000
0000
0000
0000
0000
0000
0000
,
0000
0000
0000
0000
0000
0000
0000
0000
0000
0000
0000
0000
0000
0000
0000
0000
0000
0000
0000
0000
0000
0000
0000
0000
2002
0000
0000
3003
0000
0000
0000
0000
0000
0000
0000
0000
0000
0000
0000
0000
0010
0000
0000
0000
0000
0000
0000
0000
0101
0000
0000
0000
0000
0000
0000
0000
0000
0000
0000
0000
0000
0000
0000
0000
0100
0000
0000
0000
0000
0000
0000
0000
1010
0000
0000
0000
0000
0000
0000
0000
0000
0000
0000
0000
0000
0000
0000
0000
0001
0000
0000
0000
0000
0000
0000
0000
,
1010
0000
0010
1000
0010
0000
1010
0000
0000
0011
0000
0000
0101
0000
0000
1100
0000
0000
1001
0000
0000
0110
0000
0000
,
1001
0000
0000
0000
0000
0000
0000
0000
0000
0000
0000
0000
0000
0000
0000
0000
0000
0000
0000
0000
0000
0000
0000
0000
2002
0000
0000
3003
0000
0000
0000
0000
0000
0000
0000
0000
0000
0000
0000
0000
0010
0000
0000
0000
0000
0000
0000
0000
1100
0000
0000
0000
0000
0000
0000
0000
0000
0000
0000
0000
0000
0000
0000
0000
0100
0000
0000
0000
0000
0000
0000
0000
0010
0000
0000
0000
0001
0000
0000
0000
0010
0000
0000
0000
0001
0000
0000
0000
0010
0000
0000
0000
0001
0000
0000
0000
,
1000
0000
0100
0000
0010
0000
1001
0000
0000
1010
0000
0000
0011
0000
0000
1100
0000
0000
0101
0000
0000
0110
0000
0000
,
1001
0000
0000
0000
0000
0000
0000
0000
0000
0000
0000
0000
0000
0000
0000
0000
0000
0000
0000
0000
0000
0000
0000
0000
2002
0000
0000
3003
0000
0000
0000
0000
0000
0000
0000
0000
0000
0000
0000
0000
0100
0000
0000
0000
0000
0000
0000
0000
1010
0000
0000
0000
0000
0000
0000
0000
0000
0000
0000
0000
0000
0000
0000
0000
0010
0000
0000
0000
0000
0000
0000
0000
0101
0000
0000
0000
0000
0000
0000
0000
0000
0000
0000
0000
0000
0000
0000
0000
1000
0000
0000
0000
0000
0000
0000
0000
,
0101
0000
0100
0001
0100
0000
0101
0000
0000
1100
0000
0000
1010
0000
0000
0011
0000
0000
1001
0000
1001
0000
1001
0000
,
0110
0110
0110
1100
0000
0011
0000
1010
0000
0101
0000
0110
,
0000
0000
0000
0000
0000
0000
0000
0000
1001
0000
0000
0000
0000
0000
0000
0000
0000
0000
0000
0000
0000
0000
0000
0000
1000
0000
0000
0000
0000
0000
0000
0000
0100
0000
0000
0000
0000
0000
0000
0000
0010
0000
0000
0000
0000
0000
0000
0000
0001
0000
0000
0000
0000
0000
1000
0000
0000
0000
0000
0000
0001
0000
0000
0000
0000
0000
1000
0000
0000
0000
0000
0000
0001
0000
0000
1000
0000
0000
0001
0000
0000
1000
0000
0000
0001
0000
0000
1000
0000
0000
0001
0000
0000
1000
0000
0000
,
0002
0000
0000
0000
,
0000
0000
0000
0000
,
0000
0000
0000
0000
0000
0000
0000
0003
,
0000
1001
0000
0000
0000
0000
0000
0000
,
0000
0000
0000
0000
,
0000
0000
0000
0000
,
0000
1001
0000
0000
,
0000
0000
0000
0000
,
0000
0000
0000
0000
1000
0100
0010
0001
1000
0100
0010
0001
1000
0100
0010
0001
,
1000
0000
0000
0000
1000
0100
0010
1000
0100
0001
1000
0010
0001
0100
0010
0001
,
0010
0100
1000
0001
1000
0100
1000
0010
1000
0001
1000
0010
1000
0100
1000
0010
,
0100
0001
0010
1000
0001
0010
0001
0100
0001
1000
0001
0100
0001
0010
0001
0100
,
0010
1000
0100
0001
0010
0001
0010
0100
0010
1000
0010
0100
0010
0001
0100
0001
,
0100
0010
0100
1000
0001
0010
0100
0001
0100
1000
0001
0010
1000
0010
0100
1000
,
0100
0010
0001
0010
1000
0100
1000
0010
0100
0001
0010
0100
0010
0001
0100
0010
,
1000
0000
0000
0100
0000
0000
1000
0000
0000
0001
0000
0000
1000
0000
0000
0100
0000
0000
0010
0000
0000
0001
0000
0000
1000
0000
0000
0010
0000
0000
0100
0000
0000
0001
0000
0000
1000
0000
0100
0000
1000
0000
0100
0000
0010
0000
0100
0000
,
0010
0000
0000
0000
0001
0000
0000
0000
0010
0000
0000
0000
0001
0000
0000
0000
1000
0000
0000
0000
0001
0000
0000
0000
1000
0000
0000
0000
0000
0000
0100
0000
0000
0000
0000
0000
0010
0000
0000
0000
0000
0000
0001
0000
0000
0000
0000
0000
1000
0000
0000
0000
0000
0000
0010
0000
0000
0000
0000
0000
0100
0000
0000
0000
0000
0000
0001
0000
0000
0000
0000
0000
1000
0000
0000
0100
0000
0000
0010
0000
0000
0001
0000
0000
1000
0000
0000
0000
0000
0000
0001
0000
0000
0000
0000
0000
,
1000
0000
0100
0000
0001
0000
1000
0000
0001
0000
0010
0000
0100
0000
1000
0000
0001
0000
0100
0000
0010
0000
1000
0000
0001
0010
0100
1000
0001
0000
0010
0000
,
0100
0001
0010
0100
0010
0100
0010
1000
0010
0001
0010
0100
0010
0001
0010
1000
,
0010
0001
0010
1000
0100
0010
0100
0001
0100
1000
0100
0010
0100
1000
0100
0001
,
0100
1000
0010
0001
1000
0100
1000
0100
0010
0001
0010
0001
1000
0010
1000
0010
,
0100
0000
0000
0001
0000
0000
0100
0000
0000
0001
0000
0000
1000
0000
0100
0000
0010
0000
0001
0000
0100
0000
0010
0000
1000
0000
0100
0000
0010
0000
0001
0000
0100
0000
0010
0000
1000
0000
0100
0000
0010
0000
0001
0000
0100
0000
0010
0000
,
1000
0000
0100
0000
0010
0000
0001
0000
0100
0000
0010
0000
1000
0001
1000
0001
0000
0000
1000
0000
0000
0100
0000
0000
0010
0000
0000
0001
0000
0000
0100
0000
0000
0010
0000
0000
1000
0000
0000
0100
0000
0000
0010
0000
0000
1000
0000
0000
,
0010
0001
1000
0010
0100
0001
1000
0100
0001
0100
0010
0001
1000
0100
0010
0001
,
1000
0000
0010
0000
0100
0000
0001
0000
1000
0000
0100
0000
1000
0000
0010
0000
0100
0000
0001
0000
0010
0000
0100
0000
1000
0100
0010
0001
1000
0000
0001
0000
,
1000
0000
0010
0000
1000
0000
0100
0000
0010
0000
0001
0000
0100
0000
0010
0000
0100
0000
0001
0000
0010
0000
0100
0000
1000
0010
0100
0001
1000
0000
0001
0000
,
1000
0000
0100
0000
0010
0000
1000
0000
0010
0000
0001
0000
1000
0000
0100
0000
0001
0000
0100
0000
0010
0000
0001
0000
1000
0100
0010
0001
0100
0010
1000
0000
,
0001
0000
0000
0010
0000
0000
0100
0000
0000
1000
0000
0000
0001
0000
0010
0000
0001
0000
0010
0000
0001
0000
0010
0000
0100
0000
1000
0000
0100
0000
1000
0000
0100
0000
1000
0000
0001
0000
1000
0000
0001
0000
1000
0000
0001
0000
1000
0000
,
0001
0000
0000
1000
0000
0000
0001
0000
0000
1000
0000
0000
0001
0000
0000
0000
0000
0000
0010
0000
0000
0000
0000
0000
1000
0000
0000
0000
0000
0000
0100
0000
0000
0000
0000
0000
0001
0000
0000
0000
0000
0000
0100
0000
0000
0000
0000
0000
1000
0000
0000
0000
0000
0000
0001
0000
0000
0000
0000
0000
1000
0000
0000
0100
0000
0000
1000
0000
0000
0100
0000
0000
1000
0000
0000
0000
0100
0000
0000
0000
1000
0000
0000
0000
0100
0000
0000
0000
0000
0000
0001
0000
0000
0000
0000
0000
,
0010
0000
0000
0000
0000
0000
1000
0000
0000
0000
0000
0000
0010
0000
0000
0000
0000
0000
0001
0000
0000
0000
0000
0000
1000
0000
0000
0000
0000
0000
0010
0000
0000
0000
0000
0000
0001
0000
0000
0000
0000
0000
0010
0000
0000
0000
0000
0000
1000
0000
0000
0000
0000
0000
0001
0000
0000
0000
0000
0000
1000
0000
0000
0010
0000
0000
1000
0000
0000
0010
0000
0000
1000
0000
0000
0000
0010
0000
0000
0000
1000
0000
0000
0000
0010
0000
0000
0000
0000
0000
0001
0000
0000
0000
0000
0000
,
0100
0000
0000
0000
0000
0000
1000
0000
0000
0000
0000
0000
0100
0000
0000
0000
0000
0000
0001
0000
0000
0000
0000
0000
1000
0000
0000
0000
0100
0000
0000
0000
0010
0000
0000
0000
0001
0000
0000
0000
0100
0000
0000
0000
0010
0000
0000
0000
1000
0000
0000
0000
0100
0000
0000
0000
0010
0000
0000
0000
0001
0000
0000
0000
0100
0000
0000
0000
0010
0000
0000
0000
1000
0000
0000
0001
0000
0000
1000
0000
0000
0001
0000
0000
1000
0000
0000
0000
0001
0000
0000
0000
1000
0000
0000
0000
,
0001
1000
0001
2002
0000
0000
0000
0000
0000
0000
0000
0000
,
0000
0000
0000
0000
0000
3003
0000
0000
;
