#TITLE:Yog Sothoth;
#SUBTITLE:Shortcut;
#ARTIST:NATO;
#TITLETRANSLIT:;
#SUBTITLETRANSLIT:;
#ARTISTTRANSLIT:;
#GENRE:;
#CREDIT:;
#MUSIC:Yog Sothoth Shortcut.ogg;
#BANNER:Yog Sothoth Shortcut-bn.png;
#BACKGROUND:Yog Sothoth Shortcut-bg.png;
#CDTITLE:;
#SAMPLESTART:21.128;
#SAMPLELENGTH:9.600;
#SELECTABLE:YES;
#OFFSET:-0.428;
#BPMS:0.000=200.000
,193.000=100.000
;
#STOPS:;
#DISPLAYBPM:200.000;
#BGCHANGES:;
#FGCHANGES:;

//--------------- dance-single - ----------------
#NOTES:
     dance-single:
     :
     Beginner:
     8:
     0,0,0,0,0:
0000
0000
0000
0000
,
0000
0000
0000
0000
,
0000
0000
0000
0000
,
0000
2000
3000
0002
,
0003
2000
3000
0002
,
0003
2000
3000
0002
,
0003
2000
3000
2001
,
3000
0002
0003
2000
,
3000
0002
0003
2000
,
3000
0002
0003
2000
,
3000
0002
0003
2000
,
3000
1001
0000
0000
,
0000
0000
0000
0000
,
0000
1000
0100
0010
,
0001
1000
0010
0100
,
0001
1000
0100
0010
,
0001
0000
0200
0000
0020
0000
0300
1030
,
0000
1000
0100
0010
,
0001
0000
0100
0000
0010
0000
1000
0001
,
1000
0001
0010
0100
,
1000
0000
0010
0000
0100
0000
0001
1000
,
0001
1000
0010
0100
,
0001
0000
0010
0000
0100
0000
1000
0001
,
1000
0001
0010
2000
,
3200
0320
0032
1003
,
0001
2002
0000
0000
,
0000
0000
0000
0000
,
0000
0000
0000
0000
,
0000
0000
0000
0000
0000
0000
0000
3003
0000
0000
0000
0000
1000
0000
0001
0000
,
1000
1001
1001
1001
,
1001
1001
1001
1001
,
0110
1000
0100
0010
,
0001
0000
1000
0010
0100
0001
1000
0001
,
1000
1001
0000
0000
,
0000
0000
0000
0000
,
0000
0002
0000
0000
,
0003
0000
1000
0001
1000
0001
1000
0001
,
1000
0001
1000
0100
0010
0001
1000
0010
,
0100
0001
1000
0100
0010
0100
1000
0010
,
0100
0010
1000
0100
0010
0001
1000
0010
,
0100
0010
1000
0100
0010
0100
1000
0010
,
0100
0001
1000
0000
0000
0000
1000
0010
,
0100
0010
1000
0100
0010
0001
1000
0010
,
0100
0001
1000
0100
0010
0100
1000
0001
,
1000
0010
0100
0001
0010
0100
1000
0001
,
1000
0001
1000
0100
0010
0100
1000
0100
,
0010
0001
1000
0010
0100
0010
1000
0010
,
0100
0001
1000
0100
0010
0001
0010
0100
,
1000
0001
2002
0000
0000
0000
0000
0000
,
0000
0000
0000
3003
0000
0000
0000
0000
;

//--------------- dance-single - ----------------
#NOTES:
     dance-single:
     :
     Easy:
     10:
     0,0,0,0,0:
0000
0000
0000
0000
,
0000
0000
0000
0000
,
0000
0000
0000
0000
,
0000
0002
0003
0200
,
0300
0020
0030
2000
,
3000
0020
0030
0200
,
0300
0002
0003
2001
,
3000
0002
0003
0020
,
0030
0200
0300
2000
,
3000
0200
0300
0020
,
0030
0002
0003
2000
,
3000
1001
0000
0000
,
0000
0000
0000
0000
,
0000
0000
2000
0100
3001
0000
0010
0000
,
1000
0010
0001
0100
,
1000
0100
0001
1000
,
0100
0000
0010
0000
1000
0000
0000
0001
,
1000
0000
0000
0000
0000
0000
2000
0000
0000
0100
0000
3000
2000
0000
0000
0010
0000
3000
2000
0000
0000
0001
0000
3000
,
2000
0000
0000
0010
0000
3000
0001
0000
0000
0000
0000
0000
0010
0000
0000
0000
0000
0000
0100
0000
0000
1000
0000
0000
,
0100
0000
0000
0000
0000
0000
0002
0000
0000
0010
0000
0003
0002
0000
0000
0100
0000
0003
0002
0000
0000
1000
0000
0003
,
0002
0000
0000
0100
0000
0003
1000
0000
0000
0000
0000
0000
0100
0000
0000
0000
0000
0000
0010
0000
0000
0001
0000
0000
,
0010
0000
0000
0000
0000
0000
0200
0000
0000
0010
0000
0300
0200
0000
0000
0001
0000
0300
0200
0000
0000
0010
0000
0300
,
0200
0000
0000
1000
0000
0300
0100
0000
0000
0000
0000
0000
0100
0000
0000
0000
0000
0000
0100
0000
0000
0001
0000
0000
,
1000
0000
0000
0001
0000
0000
1000
0000
0000
0001
0010
0100
,
1000
0001
0010
0100
1000
0001
0010
0100
1000
0001
0000
1000
,
0000
0001
0000
2002
0000
0000
0000
0000
0000
0000
0000
0000
,
0000
0000
0000
0000
,
0000
0000
0000
0000
,
0000
0000
3003
1000
,
0001
0000
0000
0000
0000
0000
0000
0000
0000
0000
0000
0000
0000
0000
0000
0000
0000
0000
0000
0000
0000
0000
0000
0000
0000
0000
0000
0000
0000
0000
0000
0000
0000
0000
0000
0000
0000
0000
0000
0000
0000
0000
0000
0000
0000
0000
0000
0000
2002
3003
0000
0000
0000
0000
0000
0000
0000
0000
0000
0000
0000
0000
0000
0000
0000
0000
0000
0000
0000
0000
0000
0000
0000
0000
0000
0000
0000
0000
0000
0000
0000
0000
0000
0000
0000
0000
0000
0000
0000
0000
0000
0000
0000
0000
0000
0000
0110
0000
0000
0000
0000
0000
0000
0000
0000
0000
0000
0000
0000
0000
0000
0000
0000
0000
0000
0000
0000
0000
0000
0000
0000
0000
0000
0000
0000
0000
0000
0000
0000
0000
0000
0000
0000
0000
0000
0000
0000
0000
0000
0000
0000
0000
0000
0000
1100
0000
0000
0000
0000
0000
0000
0000
0000
0000
0000
0000
0000
0000
0000
0000
0000
0000
0000
0000
0000
0000
0000
0000
0000
0000
0000
0000
0000
0000
0000
0000
0000
0000
0000
0000
0000
0000
0000
0000
0000
0000
0000
0000
0000
0000
0000
0000
,
0010
0000
0000
0001
0000
0000
0010
0000
0000
0100
0000
0000
1000
0000
0000
0100
0000
0000
0001
0000
0010
0000
0100
0000
,
0001
0010
0100
1000
0000
0100
0000
0010
0000
0001
0000
1000
,
0000
0000
0000
0000
0100
0000
0000
0000
0000
0000
0000
0000
0010
0000
0000
0000
0000
0000
0001
0000
0000
0000
0000
0000
1000
0000
0000
0000
0000
0000
0001
0000
0000
0000
0000
0000
1000
0000
0000
0001
0000
0000
1000
0000
0000
0001
0000
0000
,
1000
1001
0000
0000
,
0000
0000
0000
0000
,
0000
0001
0010
0100
,
1000
0000
1000
0001
1000
0001
1000
0001
,
1000
0001
1000
0100
0010
0001
0100
0010
,
1000
0100
0001
0010
0100
1000
0010
0100
,
0001
0010
1000
0100
0001
0100
1000
0010
,
0001
0010
1000
0100
1000
0010
0100
0001
,
0010
0001
2000
0000
3000
0000
0001
0010
,
0100
1000
0001
0100
0010
1000
1000
0100
,
0010
0000
0001
0000
1000
0000
0010
0000
0100
0000
0001
0000
1000
0001
1000
0000
,
0010
0000
0001
0000
0100
0000
1000
0000
0100
0000
0010
0000
0100
0010
0100
0000
,
0001
0000
0000
0000
0000
0000
1000
0000
0000
0000
0000
0000
0001
0000
0000
0000
1000
0000
0000
0000
0001
0000
0000
0000
1000
0000
0000
0000
0000
0000
0001
0000
0000
0010
0000
0000
0001
0000
0000
0010
0000
0000
0001
0000
0000
0000
0000
0000
,
0001
0000
0000
0000
0010
0000
0000
0000
0100
0000
0000
0000
1000
0000
0000
0000
0001
0000
0000
0000
0010
0000
0000
0000
1000
0000
0000
0000
0000
0000
0001
0000
0000
1000
0000
0000
0001
0000
0000
1000
0000
0000
0001
0000
0000
0000
0000
0000
,
1000
0000
0000
0000
0100
0000
0000
0000
0010
0000
0000
0000
0001
0000
0000
0000
0010
0000
0000
0000
0100
0000
0000
0000
1000
0000
0000
0000
0001
0000
0000
0000
1000
0000
0000
0000
0001
0000
0000
0010
0000
0000
0100
0000
0000
1000
0000
0000
,
0100
0001
1000
2002
0000
0000
0000
0000
0000
0000
0000
0000
,
0000
0000
0000
3003
0000
0000
0000
0000
;

//--------------- dance-single - ----------------
#NOTES:
     dance-single:
     :
     Medium:
     12:
     0,0,0,0,0:
0000
0000
0000
0000
,
0000
0000
0000
0000
,
0000
0000
0000
0000
,
0000
2000
3000
0020
,
0030
0200
0300
0002
,
0003
0200
0300
0020
,
0030
2000
3000
1002
,
0003
2000
3000
0200
,
0300
0020
0030
0002
,
0003
0020
0030
0200
,
0300
2000
3000
0002
,
0003
1001
0000
0000
,
0000
0000
0000
0000
,
0000
0000
1000
0100
1000
0000
0001
0100
,
0001
0000
1000
0010
1000
0000
0001
0010
,
0001
0000
1000
0100
0010
0001
1000
0010
,
0100
0001
2000
0000
0002
0000
3000
1003
,
0000
0000
1000
0100
0010
0001
1000
0010
,
0100
0000
0001
0000
1000
0000
0100
0000
0010
0000
0100
0000
1000
0100
1000
0000
,
0100
0010
0100
0000
0001
0000
0010
0000
0100
0000
1000
0000
0001
0000
0100
0000
,
0010
0000
1000
0000
0001
0000
0010
0000
0100
0000
0010
0000
0001
0010
0001
0000
,
0010
0100
0010
0000
1000
0000
0010
0000
0100
0000
0001
0000
1000
0000
0100
0000
,
0010
0000
0001
0000
1000
0000
0010
0000
0100
0000
0010
0000
1000
0100
1000
0000
,
0001
0000
0000
0100
0000
0000
0001
0000
0000
0000
0000
0000
1000
0000
0000
0000
0000
0000
0100
0000
0000
0000
0000
0000
0010
0000
0000
0000
0000
0000
0001
0000
0000
0000
0000
0000
1000
0000
0000
0000
0100
0000
0000
0000
0010
0000
0000
0000
,
0100
0000
0000
0000
1000
0000
0000
0000
0010
0000
0000
0000
0100
0000
0000
0000
0001
0000
0000
0000
0010
0000
0000
0000
0100
0000
0000
0000
0010
0000
0000
0000
0001
0000
0000
0000
1000
0000
0000
0000
0000
0000
0000
0000
0000
0001
0000
0000
,
0000
1000
2002
0000
0000
0000
0000
0000
,
0000
0000
0000
0000
,
0000
0000
0000
0000
,
0000
0000
0000
0000
0000
0000
0000
0000
0000
3003
0000
0000
1000
0001
1000
0001
,
1000
1100
0110
0011
,
1000
0000
0100
0000
0010
0000
0001
0000
0000
0010
0000
0000
0100
0000
0000
1000
0000
0000
0010
0000
0100
0000
0010
0000
,
1000
0001
1000
0001
0000
0010
0000
0100
0000
1000
0000
0100
,
0000
0000
0000
0000
0010
0000
0000
0000
0000
0000
0000
0000
0001
0000
0000
0010
0000
0000
0100
0000
0000
1000
0000
0000
0100
0000
0000
0010
0000
0000
0001
0000
0000
1000
0000
0000
0001
0000
1000
0000
0001
0000
1000
0000
0001
0000
1000
0000
,
0001
1001
0000
0000
,
0000
0000
0000
0000
,
0000
1000
0100
0010
,
0001
0000
0000
0000
1000
0001
1000
0001
1000
0001
1000
0001
1000
0001
1000
0001
,
1000
0001
1000
0001
1000
0100
0000
0100
0010
0000
0010
0001
1000
0010
0000
0010
,
0100
0000
0100
0001
1000
0100
0000
0100
0001
0000
0001
0010
1000
0010
0000
0010
,
0001
0000
0001
0100
1000
0000
1000
0100
0000
1000
0100
0000
0001
0000
0001
0100
,
0000
0001
0100
0000
1000
0000
0100
0000
0010
0000
0001
0000
1000
0010
0100
0001
,
1000
0100
0010
0001
1000
0001
1000
0000
0000
0000
0000
0000
1000
0010
0100
0010
,
1000
0100
0010
0001
1000
0010
0100
0001
1000
0100
0010
0100
1000
0010
0100
0001
,
1000
0100
0010
0001
1000
0000
0000
0000
0110
0000
0110
0000
0000
0000
0011
0000
,
1000
0000
0010
0000
0101
0000
0010
0000
1100
0000
0001
0000
1000
0100
0010
0000
,
1000
0001
1000
0001
1000
0100
0010
0001
0010
0100
1000
0100
0010
0001
0010
0100
,
1000
0100
0010
0001
0010
0100
1000
0100
0010
0001
0010
0100
1000
0100
0010
0001
,
0010
0000
0000
0100
0000
0000
1000
0000
0000
0100
0000
0000
0010
0000
0000
0001
0000
0000
0010
0000
0000
0100
0000
0000
1000
0000
0000
0100
0000
0000
0010
0000
0000
0001
0000
0000
1000
0000
0000
0000
0100
0000
0000
0000
0010
0000
0000
0000
,
0001
0010
0100
2002
0000
0000
0000
0000
0000
0000
0000
0000
,
0000
0000
0000
3003
0000
0000
0000
0000
;

//--------------- dance-single - ----------------
#NOTES:
     dance-single:
     :
     Hard:
     13:
     0,0,0,0,0:
0000
0000
0000
0000
,
0000
0000
0000
0000
,
0000
0000
0000
0000
,
0000
0002
0003
0020
,
0030
0200
0300
2000
,
3000
0200
0300
0020
,
0030
0002
0003
2001
,
3000
0002
0003
0200
,
0300
0020
0030
2000
,
3000
0020
0030
0200
,
0300
0002
0003
2000
,
3000
1001
0000
0000
,
0000
0000
0000
0000
,
0000
0000
1000
0100
0010
0001
1000
0010
,
0100
0001
1000
0100
0010
0100
1000
0010
,
0100
0010
1000
0100
0010
0001
0100
0010
,
1000
0001
0200
0000
0020
0000
0300
0031
,
1000
0000
0000
0000
1001
0000
1000
0100
1000
0000
0001
0100
0001
0000
1000
0100
,
1000
0000
0001
0100
0001
0000
0010
0000
0100
0000
1000
0000
0001
0010
0100
1000
,
0100
0010
0001
1000
0001
0000
0001
0010
0001
0000
1000
0010
1000
0000
0001
0010
,
0001
0000
1000
0010
1000
0000
0100
0000
0010
0000
0001
0000
1000
0100
0010
0001
,
0010
0100
1000
0001
1000
0000
1000
0100
1000
0000
0001
0100
0001
0000
1000
0010
,
1000
0000
0001
0010
0001
0000
0100
0000
0010
0000
1000
0000
0001
0010
0100
1000
,
0010
0000
0000
0100
0000
0000
0001
0000
0000
1000
0000
0000
0001
0000
0000
0000
0000
0000
0010
0000
0000
0000
0000
0000
0100
0000
0000
0000
0000
0000
1000
0000
0000
0000
0000
0000
1000
0000
0000
0000
0100
0000
0000
0000
0010
0000
0000
0000
,
0001
0000
0000
0000
0010
0000
0000
0000
0100
0000
0000
0000
1000
0000
0000
0000
0100
0000
0000
0000
0010
0000
0000
0000
0001
0000
0000
0000
0010
0000
0000
0000
0100
0000
0000
0000
1000
0000
0000
0000
0000
0000
0000
0000
0000
0100
0000
0000
,
0000
0010
2002
0000
0000
0000
0000
0000
,
0000
0000
0000
0000
,
0000
0000
0000
0000
,
0000
0000
0000
0000
0000
0000
0000
0000
0000
0000
0000
0000
0000
0000
0000
3003
0000
0000
1000
0001
1000
0001
1000
0001
,
1000
1001
1010
0110
,
0001
0000
0010
0000
0100
0000
1000
0000
0000
0000
0000
0000
0101
0000
0000
0001
0000
0000
1000
0000
0100
0000
0010
0000
,
0001
0100
0010
1000
0000
0100
0000
0010
0000
1000
0000
0100
,
0000
0000
0000
0000
0000
0000
0000
0000
0010
0000
0000
0000
0000
0000
0000
0000
0000
0000
0000
0000
0000
0000
0000
0000
0001
0000
0000
0000
0000
0000
0000
0000
0000
0000
0000
0000
0010
0000
0000
0000
0000
0000
0000
0000
0000
0000
0000
0000
0100
0000
0000
0000
0000
0000
0000
0000
0000
0000
0000
0000
1000
0000
0000
0000
0000
0000
0000
0000
0000
0000
0000
0000
0001
0000
0000
0000
0000
0000
1000
0000
0000
0000
0000
0000
0001
0000
0000
1000
0000
0000
0001
0000
0000
0000
0000
0000
,
1000
1001
0000
0000
,
0000
0000
0000
0000
,
0000
0000
1000
0010
0100
0001
0010
0100
,
1000
0000
0000
0000
1000
0001
1000
0001
1000
0001
1000
0001
1000
0001
1000
0001
,
1000
0001
1000
0001
1000
0100
0010
0100
1000
0001
0100
0010
0100
0001
1000
0100
,
0010
0001
0010
0100
1000
0010
0100
0010
1000
0001
0010
0100
0010
0001
1000
0010
,
0100
0001
0100
0010
1000
0100
0010
0001
1000
0001
0010
0100
1000
0010
0100
0001
,
1000
0001
0100
0010
1000
0100
0010
0100
0010
0001
1000
0010
0100
0010
0100
0001
,
1000
0000
0000
0100
0000
0000
0010
0000
0000
0001
0000
0000
1000
0000
0100
0000
0010
0000
0001
0000
0000
0000
0000
0000
0000
0000
0000
0000
0000
0000
0000
0000
0000
0000
0000
0000
1000
0000
0000
0100
0000
0000
0010
0000
0000
0100
0000
0000
,
1000
0100
0010
0100
1000
0100
0010
0001
1000
0100
0010
0001
0010
0100
0010
0001
,
0010
0000
0000
0100
0000
0000
0010
0000
0000
0001
0000
0000
1000
0000
0000
0010
0000
0000
0100
0000
0000
0001
0000
0000
0010
0000
0000
0100
0000
0000
1000
0000
0000
0001
0000
0000
1000
0000
0100
0000
0010
0000
0001
0000
0000
1000
0000
0000
,
0001
0000
0000
0100
0000
0000
0010
0000
0000
1000
0000
0000
0100
0000
0000
0010
0000
0000
0001
0000
0000
0010
0000
0000
0100
0000
0000
1000
0000
0000
0001
0000
0010
0000
0100
0000
1000
0000
0000
0010
0000
0000
0100
0000
0000
0010
0000
0000
,
1000
0100
0010
0001
1000
0100
0010
0100
0001
0100
0010
0100
1000
0010
0100
0010
,
0001
0010
0100
0010
1000
0100
0001
0100
0010
0100
0001
0100
1000
0010
0001
0010
,
0100
0000
0000
0010
0000
0000
0001
0000
0000
0010
0000
0000
1000
0000
0000
0100
0000
0000
0010
0000
0000
0001
0000
0000
0100
0000
0000
0010
0000
0000
1000
0000
0100
0000
0010
0000
0001
0000
0000
0000
0010
0000
0000
0000
0100
0000
0000
0000
,
1000
0100
0010
2002
0000
0000
0000
0000
0000
0000
0000
0000
,
0000
0000
0000
3003
0000
0000
0000
0000
;

//--------------- dance-single - ----------------
#NOTES:
     dance-single:
     :
     Challenge:
     14:
     0,0,0,0,0:
0000
0000
0000
0000
,
0000
0000
0000
0000
,
0000
0000
0000
0000
,
0000
2000
3000
0200
,
0300
0020
0030
0002
,
0003
0200
0300
0020
,
0030
2000
3000
1002
,
0003
2000
3000
0020
,
0030
0200
0300
0002
,
0003
0020
0030
0200
,
0300
2000
3000
0002
,
0003
1001
0000
0000
,
0000
0000
0000
0000
,
0000
0000
0000
0000
1000
0100
0001
0000
0010
0000
0001
0000
1000
0000
0001
0000
,
1000
0010
0100
0010
1000
0010
0001
0000
0100
0000
0001
0000
1000
0000
0001
0000
,
1000
0100
0010
0100
1000
0000
0010
0000
0100
0000
0001
0000
0010
0000
0100
0000
,
1000
0100
0010
0001
0020
0000
0100
0000
0200
0000
0000
0000
0000
0030
0301
0010
,
1000
0000
0000
0000
1001
0000
1000
0100
0010
0000
0100
0010
0001
0000
0010
0001
,
1000
0000
0001
1000
0100
0000
0010
0000
0001
0000
0100
0000
1000
0010
0001
0100
,
1000
0100
0001
0010
1000
0000
1000
0010
0100
0000
0100
0001
0010
0000
0010
1000
,
0001
0000
0001
0100
1000
0000
0100
0000
0001
0000
0010
0000
1000
0100
0001
0010
,
1000
0010
0001
0100
1000
0000
0001
0010
0100
0000
0010
0100
1000
0000
0001
0100
,
0010
0000
0010
1000
0100
0000
0010
0000
0001
0000
0100
0000
1000
0010
0001
0010
,
1000
0000
0000
0100
0000
0000
0001
0000
0000
0100
0000
0000
1000
0000
0000
0100
0000
0000
0010
0000
0000
0000
0000
0000
0001
0000
0000
0000
0000
0000
0010
0000
0000
0000
0000
0000
1000
0000
0000
0000
0100
0000
0000
0000
0010
0000
0000
0000
,
0100
0000
0000
0000
0010
0000
0000
0000
0001
0000
0000
0000
1000
0000
0000
0000
0100
0000
0000
0000
0010
0000
0000
0000
0100
0000
0000
0000
0010
0000
0000
0000
0001
0000
0000
0000
1100
0000
0000
0010
0000
0000
0000
0000
0000
0101
0000
0000
,
0000
0110
2002
0000
0000
0000
0000
0000
,
0000
0000
0000
0000
,
0000
0000
0000
0000
,
0000
0000
0000
0000
0000
0000
0000
0000
0000
0000
0000
0000
0000
0000
0000
0000
0000
0000
0000
0000
0000
0000
0000
0000
0000
0000
0000
0000
0000
0000
0000
0000
0000
3003
0000
0000
0100
0000
0010
0000
0100
0000
0010
0000
0100
0000
0010
0000
,
0100
0000
1001
0010
0110
0010
1010
0010
,
0011
0000
0010
0000
0100
0000
1100
0000
0000
0100
0000
0000
0101
0000
0000
0001
0000
0000
1001
0000
1000
0000
1000
0000
,
0110
0010
0010
1000
0000
0100
0000
0010
0000
0001
0000
0100
,
0000
0000
0000
0000
0000
0000
0000
0000
0010
0000
0000
0000
0000
0000
0000
0000
0000
0000
0000
0000
0000
0000
0000
0000
1000
0000
0000
0000
0000
0000
0000
0000
0000
0000
0000
0000
0100
0000
0000
0000
0000
0000
0000
0000
0000
0000
0000
0000
0010
0000
0000
0000
0000
0000
0001
0000
0000
0000
0000
0000
0010
0000
0000
0000
0000
0000
0100
0000
0000
0000
0000
0000
1000
0000
0000
0000
0000
0000
0001
0000
0000
0000
0000
0000
1000
0000
0000
0001
0000
0000
1000
0000
0000
0001
0000
0000
,
1000
1001
0000
0000
,
0000
0000
0000
0000
,
0000
0000
1000
0100
0010
0001
0010
0100
,
1000
0000
0000
0000
1000
0001
1000
0001
1000
0001
1000
0001
1000
0001
1000
0001
,
1000
0001
1000
0001
1000
0100
0010
1000
0010
0001
1000
0100
0010
0001
0100
0010
,
1000
0100
0001
0100
1000
0100
0001
0100
0010
0001
1000
0010
0100
0001
0010
0100
,
1000
0010
0001
0010
1000
0100
0010
0100
0010
0100
0010
0001
1000
0010
0100
0010
,
0100
0010
0100
0001
1000
0100
0010
1000
0100
0001
1000
0010
0001
0100
0010
0001
,
0010
0000
0100
0000
1000
0000
0100
0000
0010
0001
1000
0010
0100
0000
0000
0000
0000
0000
0000
0000
0000
0000
0000
0000
1000
0000
0100
0000
0010
0000
0100
0000
,
1000
0100
0010
0001
1000
0010
0100
0010
1000
0010
0100
0001
1000
0100
0001
0100
,
1000
0000
0100
0000
0010
0000
0001
0000
1000
0000
0010
0000
0100
0000
0001
0000
0010
0000
0100
0000
1000
0000
0010
0000
0100
0001
0100
0000
0010
0000
0100
0000
,
1000
0000
0010
0000
0001
0000
0010
0000
1000
0000
0100
0000
0010
0000
0001
0000
0100
0000
0010
0000
1000
0100
0010
0100
0010
0000
0001
0000
1000
0000
0010
0000
,
0100
0000
0000
0010
0000
0000
0100
0000
0000
0010
0000
0000
1000
0000
0000
0100
0000
0000
0001
0000
0000
0100
0000
0000
0010
0000
0000
1000
0000
0000
0100
0000
0010
0000
0100
0000
0010
0000
0100
0000
0010
0000
0100
0000
0000
0010
0000
0000
,
1000
0000
0000
0100
0000
0000
0010
0000
0000
0001
0000
0000
1000
0000
0000
0010
0000
0000
0001
0000
0000
0010
0000
0000
0100
0000
0000
1000
0000
0000
0010
0000
0100
0000
0010
0000
0100
0000
0010
0000
0100
0000
0010
0000
0000
0100
0000
0000
,
1000
0000
0000
0010
0000
0000
0100
0000
0000
0001
0000
0000
1000
0000
0000
0100
0000
0000
0001
0000
0000
0100
0000
0000
1000
0000
0000
0010
0000
0000
0001
0000
0010
0000
0100
0000
1000
0000
0000
0100
0000
0000
0010
0000
0000
0001
0000
0000
,
0100
0010
1000
2002
0000
0000
0000
0000
0000
0000
0000
0000
,
0000
0000
0000
3003
0000
0000
0000
0000
;
