#TITLE:Y&Co. is dead or alive;
#SUBTITLE:;
#ARTIST:Y&Co.;
#TITLETRANSLIT:;
#SUBTITLETRANSLIT:;
#ARTISTTRANSLIT:;
#GENRE:;
#CREDIT:;
#MUSIC:Y&Co. is dead or alive.ogg;
#BANNER:Y&Co. is dead or alive-bn.png;
#BACKGROUND:Y&Co. is dead or alive-bg.png;
#CDTITLE:;
#SAMPLESTART:53.379;
#SAMPLELENGTH:26.483;
#SELECTABLE:YES;
#OFFSET:1.282;
#BPMS:0.000=145.000
,197.000=153.000
,198.000=154.000
,199.000=163.000
,200.000=167.000
,202.000=175.000
,203.000=178.000
,204.000=181.000
,205.000=188.000
,206.000=194.000
,207.000=204.000
,209.000=218.000
,210.000=221.000
,211.000=240.000
,212.000=246.000
,213.000=268.000
,214.000=265.000
,215.000=290.000
,216.000=294.000
,218.000=300.000
,219.000=325.000
,221.000=375.000
,222.000=350.000
,223.000=392.000
,224.000=420.000
,226.000=388.000
,227.000=510.000
,228.000=468.000
,231.000=540.000
,240.000=694.000
,242.000=822.000
,246.000=840.000
,247.000=876.000
,292.000=145.000
,294.000=72.500
,295.000=290.000
,415.000=145.000
,418.750=18.125
;
#STOPS:;
#DISPLAYBPM:145.000:876.000;
#LASTBEATHINT:0.681500;
#BGCHANGES:-0.400=Y&Co. is dead or alive.avi=1.000=1=0=0=StretchNoLoop==CrossFade==,
99999.000=-nosongbg-=1.000=0=0=0=StretchNoLoop====
;
#FGCHANGES:;

//--------------- dance-single - ----------------
#NOTES:
     dance-single:
     :
     Beginner:
     6:
     0,0,0,0,0:
0000
0000
0000
0000
,
0000
0000
0000
0000
,
0000
0000
0000
0000
,
0000
0000
0000
0000
,
2002
0000
0000
3003
,
1000
0000
0000
0000
,
1000
0000
0000
0000
,
1000
0000
0000
0000
,
1000
0000
0000
0000
,
1000
0000
0001
0000
,
1000
0000
0001
0000
,
1000
0000
0001
0000
,
1000
0100
0010
0001
,
1000
0000
1000
0000
,
0001
0000
0001
0000
,
0100
0000
0100
0000
,
0010
0000
0010
0000
,
1000
0000
1000
0000
,
0001
0000
0001
0000
,
0010
0000
0010
0000
,
0100
0000
0100
0000
,
1000
0010
0100
0001
,
1000
0100
0010
0001
,
1000
0010
0100
0001
,
1000
0100
0010
0001
,
1000
0000
0000
0000
,
1000
0000
0000
0000
,
1000
0000
0000
0000
,
1000
0000
0000
0000
,
1000
0000
0000
0000
,
1000
0000
0000
0000
,
1000
0000
0000
0000
,
1000
0100
0010
0001
,
1000
0100
1000
0100
1000
0100
1000
0100
,
0010
0001
0010
0001
0010
0001
0010
0001
,
1000
0010
1000
0010
1000
0010
1000
0010
,
0100
0001
0100
0001
0100
0001
0100
0001
,
1000
0100
0010
0001
,
1000
0010
0100
0001
,
1000
0100
0010
0001
,
1000
0000
0000
0000
,
1000
0100
0010
0001
,
1000
1000
1000
1000
,
1000
1000
1000
1000
,
1000
1000
1000
1000
,
1000
0010
0100
0001
,
1000
1000
1000
1000
,
1000
1000
1000
1000
,
2002
0000
0000
3003
,
1000
0000
0000
0000
,
0100
0000
0000
0000
,
0010
0000
0000
0000
,
0001
0000
0000
0000
,
1000
0000
0000
0000
,
0010
0000
0000
0000
,
0100
0000
0000
0000
,
0001
0000
0000
0000
,
1000
0000
0000
0000
,
0100
0000
0000
0000
,
0010
0000
0000
0000
,
0001
0000
0000
0000
,
0000
0000
0000
0000
,
0000
0000
0000
0000
,
0000
0000
0000
0000
,
0000
0000
0000
0000
,
0000
0000
0000
0000
,
0000
0000
0000
0000
,
0000
0000
0000
0000
,
0000
0000
0000
0000
,
0000
0000
0000
0000
,
0000
0000
0000
0000
,
0000
0000
0000
0000
,
0000
0000
0000
0000
,
1000
0000
0001
1000
,
0000
0000
0000
1000
,
0000
0000
0000
1000
,
0000
0000
0000
1000
,
0000
0000
0000
0001
,
0000
0000
0000
0001
,
0000
0000
0000
0001
,
0000
0000
0000
0001
,
0000
0000
0000
0100
,
0000
0000
0000
0100
,
0000
0000
0000
0100
,
0000
0000
0000
0100
,
0000
0000
0000
0010
,
0000
0000
0000
0010
,
0000
0000
0000
0010
,
0000
0000
0000
0010
,
0000
0000
0000
1000
,
0000
0100
0000
0010
,
0000
0001
0000
1000
,
0000
0010
0000
0100
,
0000
0001
0000
1000
,
0000
0100
0000
0010
,
0000
0001
0000
1000
,
0000
0010
0000
0100
,
0000
0001
0000
1000
,
0000
0100
0000
0010
,
0000
0001
0000
1000
,
0000
0010
0000
0100
,
0000
0001
0000
1000
,
0000
0001
0000
1000
,
0000
0001
0000
2002
,
0000
0000
0000
0000
0000
0000
0000
0000
0000
0000
0000
3003
0000
0000
0000
0000
;

//--------------- dance-single - ----------------
#NOTES:
     dance-single:
     :
     Easy:
     10:
     0,0,0,0,0:
0000
0000
0000
0000
,
0000
0000
0000
0000
,
0000
0000
0000
0000
,
0000
0000
0000
0000
,
2002
0000
0000
3003
,
1000
0100
0010
0001
,
1000
0010
0100
0001
,
1000
0100
0010
0001
,
1000
0010
0100
0001
,
1000
0100
0010
0001
,
1000
0010
0100
0001
,
1000
0100
0010
0001
,
1000
0100
0010
0001
1000
0010
0100
0001
,
1000
0100
0010
0001
,
1000
1000
1000
1000
,
1000
0010
0100
0001
,
1000
1000
1000
1000
,
0001
0010
0100
1000
,
0001
0001
0001
0001
,
0001
0100
0010
1000
,
0001
0001
0001
0001
,
1000
0100
0010
0001
1000
0010
0100
0001
,
1000
1000
1000
1000
0001
0001
0001
0001
,
1000
0010
0100
0001
1000
0100
0010
0001
,
1000
1000
1000
1000
0001
0001
0001
0001
,
1000
0000
1000
0000
,
0001
0000
0001
0000
,
1000
0000
1000
0000
,
0001
0000
0001
0000
,
1000
0000
0100
0000
,
0010
0000
0001
0000
,
1000
0000
0001
0000
,
1000
0010
0100
0001
1000
0100
0010
0001
,
1000
0000
0100
0000
1000
0100
0000
1000
0100
0000
1000
0100
0000
1000
0100
0000
,
0010
0000
0001
0000
0010
0001
0000
0010
0001
0000
0010
0001
0000
0010
0001
0000
,
1000
0000
0010
0000
1000
0010
0000
1000
0010
0000
1000
0010
0000
1000
0010
0000
,
0100
0000
0001
0000
0100
0001
0000
0100
0001
0000
0100
0001
0000
0100
0001
0000
,
1000
0000
0001
0000
1000
0001
0000
1000
0001
0000
1000
0001
0000
1000
0001
0000
,
0100
0000
0010
0000
0100
0010
0000
0100
0010
0000
0100
0010
0000
0100
0010
0000
,
0001
0000
1000
0000
0001
1000
0000
0001
1000
0000
0001
1000
0000
0001
1000
0000
,
0010
0000
0100
0000
0010
0100
0000
0010
0100
0000
0010
0100
0000
0010
0100
0000
,
1000
0100
1000
0000
0001
0100
0001
0000
,
1000
0010
1000
0000
0001
0010
0001
0000
,
1000
0100
0010
0000
0001
0100
0010
0000
,
1000
0010
0100
0000
0001
0010
0100
0000
,
1000
0100
0010
0001
,
1000
0010
0100
0001
,
2000
3000
0002
0003
,
2002
0000
0000
3003
,
1000
0000
0100
0000
,
0010
0000
0001
0000
,
1000
0000
0010
0000
,
0100
0000
0001
0000
,
1000
0000
0000
0000
,
0100
0000
0000
0000
,
0010
0000
0000
0000
,
0001
0000
0000
0000
,
1000
0000
0000
0000
,
0010
0000
0000
0000
,
0100
0000
0000
0000
,
0001
0000
0000
0000
,
1000
0000
0000
0000
,
0000
0000
0000
0000
,
0100
0000
0000
0000
,
0000
0000
0000
0000
,
0010
0000
0000
0000
,
0000
0000
0000
0000
,
0001
0000
0000
0000
,
0000
0000
0000
0000
,
0100
0000
0000
0000
,
0000
0000
0000
0000
,
0010
0000
0000
0000
,
0000
0000
0000
0000
,
1000
0001
0001
1000
,
0100
0010
0001
1000
,
1000
1000
0000
0001
,
0010
0100
1000
0001
,
0001
0001
0000
1000
,
0010
0100
0001
1000
,
1000
1000
0000
0001
,
0100
0010
1000
0001
,
0001
0001
0000
1000
,
0100
0010
0001
0100
,
0100
0100
0000
0001
,
0010
0100
1000
0010
,
0010
0010
0000
1000
,
0010
0100
0001
0010
,
0010
0010
0000
0001
,
0100
0010
1000
0100
,
0100
0100
0000
1000
,
0100
0010
0100
1000
,
0010
0100
0010
1000
,
0100
0010
0100
1000
,
0010
0100
0010
1000
,
0100
0010
0100
1000
,
0010
0100
0010
1000
,
0100
0010
0100
1000
,
0010
0100
0010
1000
,
0100
0010
0001
1000
,
0010
0100
0001
1000
,
0100
0010
0001
1000
,
0010
0000
0100
0000
0001
0000
1000
0100
,
1000
0100
0010
0001
0010
0001
1000
0010
,
1000
0010
0100
0001
0100
0001
2000
0000
,
0000
0000
0000
0000
0000
0000
0000
0000
0000
0000
0000
0000
0000
0000
0000
0000
0000
0000
0000
0000
0000
0000
0000
3000
0000
0000
0000
0000
0000
0000
0000
0000
;

//--------------- dance-single - ----------------
#NOTES:
     dance-single:
     :
     Medium:
     13:
     0,0,0,0,0:
0000
0000
0000
0000
,
0000
0000
0000
0000
,
0000
0000
0000
0000
,
0000
0000
0000
0000
,
2002
0000
0000
3003
,
1000
0100
0010
0001
0100
0010
1000
0000
,
0001
0010
0100
1000
0010
0100
0001
0000
,
1000
0010
0100
0001
0010
0100
1000
0000
,
0001
0100
0010
1000
0100
0010
0001
0001
,
1000
0100
1000
0100
0010
0001
0010
0001
,
1000
0010
1000
0010
0100
0001
0100
0001
,
1000
0001
1000
0001
0100
0010
0100
0010
,
1000
0100
1000
0100
0010
0001
0010
0001
1000
0010
1000
0010
0100
0001
0100
0001
,
1000
0000
0000
0100
0000
0000
0010
0000
0001
0000
0010
0000
0100
0000
0000
0000
,
1000
0000
0000
0010
0000
0000
0100
0000
0001
0000
0100
0000
0010
0000
0000
0000
,
1000
0000
0000
0100
0000
0000
0010
0000
0001
0000
0100
0000
0010
0000
0000
0000
,
1000
0000
0000
0010
0000
0000
0100
0000
0001
0000
0010
0000
0100
0000
1000
0000
,
0001
0000
0000
0010
0000
0000
0100
0000
1000
0000
0100
0000
0010
0000
0000
0000
,
0001
0000
0000
0100
0000
0000
0010
0000
1000
0000
0010
0000
0100
0000
0000
0000
,
0001
0000
0000
0010
0000
0000
0100
0000
1000
0000
0010
0000
0100
0000
0000
0000
,
0001
0000
0000
0100
0000
0000
0010
0000
1000
0000
0100
0000
0010
0000
0001
0000
,
1000
0100
1000
0000
0010
0000
0001
0000
1000
0010
1000
0000
0100
0000
0001
0000
,
0100
0010
0100
0000
0001
0000
1000
0000
0010
0100
0010
0000
1000
0000
0001
0000
,
1000
0100
0010
0000
0001
0000
1000
0000
0001
0100
0010
0000
1000
0000
0001
0000
,
1000
0010
0100
0000
0001
0000
1000
0000
0001
0010
0100
1000
0001
1000
0001
0000
,
1000
0000
0000
1000
0000
0000
1000
0000
1000
0000
1000
0000
1000
0000
0000
0000
,
0100
0000
0000
0100
0000
0000
0100
0000
0100
0000
0100
0000
0100
0000
0000
0000
,
0010
0000
0000
0010
0000
0000
0010
0000
0010
0000
0010
0000
0010
0000
0000
0000
,
0001
0000
0000
0001
0000
0000
0001
0000
0001
0000
0001
0000
0001
0000
0000
0000
,
1000
0100
0010
0001
,
1000
0010
0100
0001
,
1000
0100
0010
0001
,
1000
0010
1000
0010
0100
0001
0100
0001
1000
0100
1000
0100
0010
0001
0010
0001
,
1000
0000
0010
0000
1000
0100
0000
1000
0100
0000
1000
0100
0000
1000
0100
0000
,
0100
0000
0001
0000
0010
0001
0000
0010
0001
0000
0010
0001
0000
0010
0001
0010
,
1000
0000
0100
0000
1000
0010
0000
1000
0010
0000
1000
0010
0000
1000
0010
0000
,
0010
0000
0001
0000
0100
0001
0000
0100
0001
0000
0100
0001
0000
0100
0001
0100
,
1000
0000
0001
0000
1000
0100
0000
0010
1000
0000
1000
0010
0000
0100
1000
0000
,
0001
0000
1000
0000
0001
0010
0000
0100
0001
0000
0001
0100
0000
0010
0001
0010
,
1000
0000
0001
0000
1000
0100
0000
0100
0001
0000
1000
0010
0000
0010
0001
0000
,
1001
0000
0000
0000
,
1000
0100
0001
0100
1000
0010
0100
0001
,
1000
1000
1000
1000
0010
0010
0010
0010
,
1000
0010
0001
0010
1000
0100
0010
0001
,
1000
1000
1000
1000
0100
0100
0100
0100
,
1000
0010
0100
0001
1000
0100
0010
0001
,
1000
0100
0001
0100
1000
0010
0001
0010
,
2000
3000
0002
0003
,
2002
0000
0000
3003
,
1000
0100
0010
0001
,
1000
0010
0100
0001
,
1000
0100
0010
0001
,
1000
0010
0100
0001
,
1000
0100
0010
0001
,
1000
0010
0100
0001
,
1000
0100
0010
0001
,
1000
0010
0100
0001
,
1000
0100
0010
0001
,
1000
0010
0100
0001
,
1000
0100
0010
0001
,
1000
0010
0100
0001
,
1000
0100
0010
0001
,
1000
0100
1000
0010
,
1000
0010
0100
0010
,
0100
0001
0100
0001
,
0010
0001
0010
0100
,
0010
0100
1000
0100
,
1000
0001
0010
0100
,
1000
0010
0100
0010
,
1000
0100
0010
0001
,
1000
0100
0010
0100
,
1000
0001
0100
0010
,
1000
0100
0001
0100
,
1000
0000
0100
0000
0010
0000
0001
0000
2000
0000
0001
3000
1001
0000
0000
0000
,
0100
0011
1000
0110
,
0001
1010
0000
1001
,
0010
0101
1000
0110
,
0001
1100
0000
1001
,
0010
1100
0001
0110
,
1000
0101
0000
1001
,
0100
1010
0001
0110
,
1000
0011
0000
1001
,
0000
1001
0000
1001
,
0000
1001
0000
0110
,
0000
0110
0000
0110
,
0000
0110
0000
1001
,
0000
1001
0000
1001
,
0000
1001
0000
1000
,
0000
0100
0000
0010
,
0000
0000
0001
0000
0000
0000
1000
0100
,
1000
0100
1000
0100
1000
0100
1000
0000
,
0100
0000
0010
0000
0001
0000
1000
0010
,
1000
0010
1000
0010
1000
0010
1000
0000
,
0010
0000
0100
0000
0001
0000
0010
0001
,
0010
0001
0010
0001
0010
0001
0010
0000
,
0001
0000
1000
0000
0100
0000
0100
0001
,
0100
0001
0100
0001
0100
0001
0100
0000
,
0001
0000
1000
0000
0010
0000
1000
0100
,
1000
0100
1000
0100
1000
0100
0010
0001
,
0010
0001
0010
0001
0010
0001
1000
0010
,
1000
0010
1000
0010
1000
0010
0100
0001
,
0100
0001
0100
0001
0100
0001
1000
0100
,
1000
0100
0010
0001
0010
0001
1000
0010
,
1000
0010
0100
0001
0100
0001
2002
0000
,
0000
0000
0000
0000
0000
0000
0000
0000
0000
0000
0000
0000
0000
0000
0000
0000
0000
0000
0000
0000
0000
0000
0000
3003
0000
0000
0000
0000
0000
0000
0000
0000
;

//--------------- dance-single - ----------------
#NOTES:
     dance-single:
     :
     Hard:
     17:
     0.849864,1.172269,0.431786,0.335833,0.627689,744,690,54,42,0,0,0.849864,1.172269,0.431786,0.335833,0.627689,744,690,54,42,0,0:
0000
0000
0000
0000
,
0000
0000
0000
0000
,
0000
0000
0000
0000
,
0000
0000
0000
0000
,
2002
0000
0000
3003
,
1001
0000
0100
0000
0011
0000
0100
1000
0000
1000
0001
0000
0110
0000
0000
0000
,
1001
0000
0010
0000
1100
0000
0010
0001
0000
0001
1000
0000
0110
0000
0000
0000
,
1001
0000
0100
0000
1010
0000
0100
0001
0000
0001
1000
0000
0110
0000
0000
0000
,
1001
0000
0010
0000
0101
0000
0010
1000
0000
1000
0001
0000
0110
0000
0002
0003
,
1000
0000
0100
0000
0010
0000
0001
0100
0000
0001
0100
0000
0010
0000
1000
0000
,
0001
0000
0010
0000
0100
0000
1000
0010
0000
1000
0010
0000
0100
0000
0001
0000
,
1000
0000
0001
0000
0100
0000
0010
0001
0000
0100
1000
0000
1001
0000
0000
0000
,
1000
0000
0100
0000
0001
0000
0010
0000
1000
0100
0010
0001
1000
0001
1000
0000
,
0001
0010
0000
0001
0010
0000
0200
0300
1000
0010
0200
0000
0302
0000
0003
0000
,
1000
0100
0000
1000
0100
0000
0020
0030
0001
0100
0020
0000
2030
0000
3000
0000
,
0001
0100
0000
0001
0100
0000
0020
0030
1000
0100
0020
0000
0032
0000
0003
0000
,
1000
0010
0000
1000
0010
0000
0200
0300
0001
0010
0200
0000
2300
0000
3002
0003
,
1000
0100
0000
0010
0001
0000
2000
0000
3200
0000
0320
0000
0032
0000
0003
0000
,
1000
0010
0000
0100
0001
0000
2000
0000
3020
0000
0230
0000
0302
0000
0003
0000
,
0001
0010
0000
0100
1000
0000
0002
0000
0203
0000
0320
0000
2030
0000
3000
0000
,
0001
0100
0000
0010
1000
0000
0002
0000
0203
0000
0320
0030
2002
3003
0000
0000
,
1000
0000
0000
0000
0000
0000
0100
0000
0000
0010
0000
0000
0001
0000
0000
0000
0000
0000
0100
0000
0000
0000
0000
0000
0100
0000
0000
0010
0000
0000
1000
0000
0100
0000
1000
0000
0100
0000
0000
0001
0000
0000
0000
0000
0000
0000
0000
0000
,
0110
0000
0001
0000
1000
0010
0100
0001
0100
1000
0100
0010
0001
0000
0000
0000
,
1000
0000
0010
0000
1000
0000
0000
0000
0001
0000
0100
0000
0001
0000
0000
0000
1000
0001
1000
0000
0100
0000
0010
0000
0001
0000
0000
0000
1000
0000
0000
0000
,
0001
0000
0000
0010
0000
0000
0001
0000
0000
0000
0000
0000
1000
0000
0000
0010
0000
0000
1000
0000
0000
0000
0000
0000
0001
0000
1000
0000
0001
0000
1000
0000
0000
0001
0000
0000
1000
0000
0000
0001
0000
0000
1000
0000
0000
0000
0000
0000
,
1000
0000
0000
1000
0000
0000
1000
0000
1000
0000
1000
0000
1000
0000
0000
0000
,
0100
0000
0000
0100
0000
0000
0100
0000
0100
0000
0100
0000
0100
0000
0000
0000
,
0010
0000
0000
0010
0000
0000
0010
0000
0010
0000
0010
0000
0010
0000
0000
0000
,
0001
0000
0000
0001
0000
0000
0001
0000
0001
0000
0001
0000
0001
0000
0001
1000
,
1001
0000
0000
0001
0000
0000
0010
0000
0100
0000
1000
0000
0010
0000
0000
0000
,
1000
0000
0000
1000
0000
0000
0100
0000
0010
0000
0001
0000
0100
0000
0000
0000
,
0001
0000
0000
0001
0000
0000
0100
0000
1000
0000
0010
0000
0100
0000
0000
0000
,
0001
0000
0010
0000
1000
0000
0100
0000
0001
0010
0100
1000
0001
1000
0001
0000
,
1000
0000
0001
0000
1000
0100
0000
1000
0100
0000
1000
0100
0000
1000
0100
0000
,
0001
0000
1000
0000
0001
0100
0000
0001
0100
0000
0001
0100
0000
0001
0100
0001
,
0100
0000
0010
0000
1000
0010
0000
1000
0010
0000
1000
0010
0000
1000
0010
0000
,
0010
0000
0100
0000
0001
0010
0000
0001
0010
0000
0001
0010
0000
0001
0010
0001
,
0010
0000
1000
0000
0001
0010
0000
0001
0100
0000
0001
0010
0000
0001
1000
0000
,
0100
0000
0001
0000
1000
0100
0000
1000
0010
0000
1000
0100
0000
1000
0001
1000
,
0001
0000
0100
0000
0010
1000
0000
0010
0100
0000
0010
0001
0000
0010
0100
0000
,
1000
0000
0010
0000
0100
0001
0000
0100
0010
0000
0100
1000
0000
0100
0010
0000
,
1000
0000
0100
0000
0010
0000
0001
0001
0000
0000
1000
0000
0001
0000
0000
0000
,
1000
0010
0100
0001
1000
0100
0010
0001
,
1000
1000
1000
0000
0010
0010
0010
0010
,
0000
0000
0100
0000
0100
0000
0001
0001
0000
0000
1000
0001
0000
0000
2002
3003
,
0000
1000
0100
0001
0010
0100
0100
0000
,
0000
0010
0100
1000
0010
0010
0010
0000
,
0001
0010
0000
1001
0000
0000
0110
0000
1000
0100
0000
1001
0000
0000
0000
0000
,
2002
0000
0000
3003
,
1000
0100
0010
0001
1000
0010
0100
0001
,
1000
0100
0010
0001
1000
0010
0100
0001
,
1000
0000
0100
0010
0000
0001
1000
0000
0010
0100
0000
0001
,
1000
0000
0100
0010
0000
0001
1000
0000
0000
0100
0000
0000
,
0010
0001
0100
0010
,
1000
0100
0010
0001
,
0100
0010
1000
0100
,
0010
0001
0100
0010
,
1000
0100
0010
0001
,
0100
0010
1000
0100
,
0010
0001
0100
0010
,
1000
0100
0010
0001
,
0100
0010
1000
0001
,
1000
0001
1000
0001
,
1000
0000
0100
0000
1000
0000
0100
0000
0010
0000
0100
0000
,
0010
0000
0001
0000
0010
0000
0001
0000
0100
0000
0001
0000
,
0100
0000
0010
0000
0100
0000
0010
0000
1000
0000
0010
0000
,
1000
0000
0001
0000
1000
0000
0001
0000
0010
0000
0001
0000
,
0010
0000
0100
0000
0010
0000
0100
0000
1000
0000
0100
0000
,
1000
0000
0010
0000
1000
0000
0010
0000
0100
0000
0010
0000
,
0100
0000
0001
0000
0100
0000
0001
0000
1000
0000
0001
0000
,
1000
0000
0100
0000
0010
0000
0001
0000
1000
0000
0100
0000
,
0010
0000
0001
0000
1000
0000
0001
0000
0010
0000
0100
0000
,
1000
0000
0001
0000
0010
0000
0100
0000
1000
0000
0001
0000
,
1000
0100
0010
0001
2000
3001
1001
0000
,
0100
0000
0011
0000
1000
0100
0000
0010
,
0001
1001
0000
1001
,
0010
0000
1100
0000
0001
0010
0000
0100
,
1000
1001
0000
1001
,
0100
0000
1010
0000
0001
0100
0000
0010
,
1000
1001
0000
1001
,
0010
0000
0101
0000
1000
0010
0000
0100
,
0001
0000
1001
0000
0220
0330
1001
0000
,
0000
0000
1001
0000
0000
1001
0000
0000
,
1001
1001
1001
1001
,
0000
0000
1001
0000
0000
1001
0000
1001
,
1001
1001
1001
1001
,
0000
0000
1001
0000
0000
1001
0000
0000
,
1001
1001
1001
1000
,
0100
0000
0001
0000
0010
0000
1000
0100
,
0001
0100
1000
0001
1000
0000
1000
0100
,
1000
0100
1000
0100
1000
0100
0010
0001
,
0010
0001
0010
0001
0010
0001
1000
0010
,
1000
0010
1000
0010
1000
0010
0100
0001
,
0100
0001
0100
0001
0100
0001
1000
0001
,
1000
0001
1000
0001
1000
0001
0100
0010
,
0100
0010
0100
0010
0100
0010
1000
0001
,
1000
0001
1000
0001
1000
0001
0010
0100
,
0010
0100
0010
0100
0010
0100
1000
0100
,
1000
0100
0010
0001
0010
0001
1000
0100
,
0010
0001
1000
0100
0010
0001
1000
0010
,
1000
0010
0100
0001
0100
0001
1000
0010
,
0100
0001
1000
0010
0100
0001
1000
0100
,
0001
0100
1000
0010
0001
0010
1000
0100
,
0001
0100
1000
0010
0001
0010
2000
0000
,
0000
0000
0000
0000
0000
0000
0000
0000
0000
0000
0000
0000
0000
0000
0000
0000
0000
0000
0000
0000
0000
0000
0002
3003
0000
0000
0000
0000
0000
0000
0000
0000
;

//--------------- dance-single - ----------------
#NOTES:
     dance-single:
     :
     Challenge:
     18:
     1.02235,1.339736,0.591707,0.183909,0.94753,895,821,74,23,0,0,1.02235,1.339736,0.591707,0.183909,0.94753,895,821,74,23,0,0:
0000
0000
0000
0000
,
0000
0000
0000
0000
,
0000
0000
0000
0000
,
0000
0000
0000
0000
,
2002
0000
0000
3003
,
1001
0000
0010
0000
0100
0000
1000
0100
0000
1000
0010
0000
1001
0000
0000
0000
,
1001
0000
0100
0000
0010
0000
0001
0010
0000
0001
0100
0000
1001
0000
0000
0000
,
1001
0000
0010
0000
0100
0000
0001
0100
0000
0001
0010
0000
0110
0000
0000
0000
,
1001
0000
0100
0000
0010
0000
1000
0010
0000
1000
0100
0000
0110
0000
2002
3003
,
1001
0000
0100
0000
0011
0000
1000
0100
0000
0010
0001
0000
0110
0000
0000
0000
,
1001
0000
0010
0000
1100
0000
0001
0010
0000
0100
1000
0000
0110
0000
0000
0000
,
1001
0000
0110
0000
1001
0000
0100
0010
0000
0010
0100
0000
1001
0000
0000
0000
,
1000
0000
0000
0100
0000
0000
0010
0000
0000
0001
0000
0000
1000
0000
0000
0010
0000
0000
0100
0000
0000
0001
0000
0000
1000
0000
0000
0001
0000
0000
1000
0000
0001
0000
1000
0000
0001
0000
0000
0100
0000
0000
0010
0000
0000
0000
0000
0000
,
1000
0100
0000
1000
0010
0000
1000
0100
0010
0001
0100
0010
1000
0000
0000
0000
,
0001
0010
0000
0001
0100
0000
0001
0010
0100
1000
0010
0100
0001
0000
0000
0000
,
1000
0010
0000
1000
0100
0000
1000
0010
0100
0001
0010
0100
1000
0000
0000
0000
,
0001
0100
0000
0001
0010
0000
0001
0100
0010
1000
0100
0010
0001
0000
2000
3000
,
1000
0100
0000
0010
0100
0000
0002
0003
1000
0010
0100
0001
0010
0000
0000
0000
,
1000
0010
0000
0100
0010
0000
0002
0003
1000
0100
0010
0001
0100
0000
0000
0000
,
0001
0010
0000
0100
0010
0000
2000
3000
0001
0100
0010
1000
0100
0000
0000
0000
,
0001
0000
0000
0100
0000
0000
0000
0000
0000
0010
0000
0000
0100
0000
0000
0000
0000
0000
2000
0000
0000
3000
0000
0000
0001
0000
0000
0010
0000
0000
0100
0000
1000
0000
0001
0000
1000
0000
0000
0000
0000
0000
0001
0000
0000
0000
0000
0000
,
1000
0000
0000
0000
0000
0000
0000
0000
0000
0000
0000
0000
0100
0000
0000
0000
0010
0000
0000
0000
0100
0000
0000
0000
0000
0000
0000
0000
0000
0000
0000
0000
0000
0000
0000
0000
0001
0000
0000
0000
0000
0000
0000
0000
0000
0000
0000
0000
0010
0000
0000
0000
0000
0000
0010
0000
0000
0000
0000
0000
0100
0000
0000
0001
0000
0000
0100
0000
0000
0001
0000
0000
0100
0000
0000
0000
0000
0000
0000
0000
0000
0000
0000
0000
1000
0000
0000
0000
0000
0000
0000
0000
0000
0000
0000
0000
,
1001
0000
0000
0000
0000
0000
0100
0000
0000
0000
0000
0000
0010
0000
0000
0001
0000
0000
0200
0000
0000
0010
0000
0000
1300
0000
0000
0000
0000
0000
0100
0000
0000
0100
0000
0000
0100
0000
1000
0000
0010
0000
0100
0000
0000
0000
0000
0000
,
1001
0000
0000
0000
0000
0000
0010
0000
0000
1000
0000
0000
1000
0000
0000
0000
0000
0000
0100
0000
0000
0001
0000
0000
0010
0000
0000
0000
0000
0000
1000
0000
0100
0000
0010
0000
0001
0000
0000
0000
0000
0000
1000
0000
0000
0000
0000
0000
,
1001
0000
0000
0000
0000
0000
0001
0000
0000
0000
0000
0000
1000
0000
0000
0000
0000
0000
0000
0000
0000
0000
0000
0000
0100
0000
0000
0000
0000
0000
0010
0000
0000
0000
0000
0000
0100
0000
0000
0000
0000
0000
0000
0000
0000
0000
0000
0000
1000
0000
0000
0001
0000
0000
1000
0000
0000
0001
0000
0000
1000
0000
0000
0000
0001
0000
0000
0000
1000
0000
0000
0000
0001
0000
0000
0000
0000
0000
1000
0000
0000
0000
0000
0000
0001
0000
0000
0000
0000
0000
0000
0000
0000
0000
0000
0000
,
1100
0000
0000
0101
0000
0000
0110
0000
1010
0000
0011
0000
1001
0000
0000
0000
,
0011
0000
0000
1010
0000
0000
0110
0000
0101
0000
1100
0000
1001
0000
0000
0000
,
1100
0000
0000
0011
0000
0000
1001
0000
1010
0000
0101
0000
0110
0000
0000
0000
,
0011
0000
0000
1100
0000
0000
1001
0000
0101
0000
1010
0000
0110
0000
1000
0001
,
1001
0000
0000
1000
0000
0000
0100
0000
0010
0000
0001
0000
0100
0000
0000
0000
,
0001
0000
0000
0001
0000
0000
0010
0000
0100
0000
1000
0000
0010
0000
0000
0000
,
1000
0000
0000
1000
0000
0000
0010
0000
0100
0000
0001
0000
0010
0000
0000
0000
,
0001
0000
0000
0010
0000
0000
0100
0000
0000
1000
0000
0000
0001
0000
0000
0100
0000
0000
0010
0000
0000
1000
0000
0000
0001
0000
0000
1000
0000
0000
0001
0000
1000
0000
0001
0000
1000
0000
0000
0000
0000
0000
0001
0000
0000
0000
0000
0000
,
1000
0000
0100
0000
1000
0100
0000
1000
0010
0000
1000
0100
0000
1000
0010
0000
,
0001
0000
0010
0000
0001
0010
0000
0001
0100
0000
0001
0010
0000
0001
0100
0001
,
1000
0000
0010
0000
1000
0010
0000
1000
0001
0000
1000
0010
0000
1000
0100
0000
,
0001
0000
0100
0000
0001
0100
0000
0001
1000
0000
0001
0100
0000
0001
0010
0100
,
1000
0000
0010
0000
0100
0010
0000
0100
0001
0000
0100
0010
0000
0100
1000
0000
,
0001
0000
0100
0000
0010
0100
0000
0010
1000
0000
0010
0100
0000
0010
0001
0100
,
0010
0000
1000
0000
0001
0010
0000
0010
1000
0000
0001
0100
0000
0100
1000
0000
,
0001
0000
1000
0000
0001
1000
0000
0001
1000
0000
0001
1000
0000
0001
1000
0001
,
1000
0100
1000
0100
0000
0010
0010
0000
0001
0010
0100
1000
0100
0001
0100
1000
,
0001
0000
0010
0000
0100
0000
1000
1000
0001
0100
0010
1000
0010
0001
0010
1000
,
0001
0000
0010
0100
1000
0010
0100
0001
1000
0001
1000
0000
0010
0100
0010
0000
,
1000
0100
0001
0000
0010
0100
0000
1000
0001
0000
1000
0010
0000
0100
0001
0000
,
1001
0000
1000
0100
1000
0100
1000
0100
1000
0000
1000
1000
0000
0000
0001
0000
,
0001
0010
0100
0000
1000
0100
0010
0000
0001
0100
0010
0000
1000
0010
0100
0000
,
0001
0010
0100
1000
0100
0010
0001
0100
0010
1000
0010
0100
0001
0000
0000
0000
,
2002
0000
0000
3003
,
1000
0100
0010
0001
0100
0010
1000
0100
,
1000
0000
0000
0010
0000
0000
0100
0000
0000
0001
0000
0000
1000
0000
0000
0000
0100
0000
0010
0000
0000
0000
0001
0000
,
1000
0000
0010
0100
0000
0001
1000
0000
0100
0001
0000
0010
,
1000
0000
0010
0001
0000
0100
1000
0000
0100
0010
0000
0001
,
1000
0100
0010
0001
,
1000
0100
0001
0100
,
1000
0010
0100
0001
,
1000
0010
0001
0010
,
1000
0100
0010
0001
,
1000
0010
0100
0001
,
1000
0100
0010
0001
,
1000
0010
0100
0001
,
1000
0000
0100
0000
0010
0000
0001
0000
1000
0000
0100
0000
,
0010
0000
0001
0000
1000
0000
0100
0000
0010
0000
0001
0000
,
1000
0000
0100
0000
0010
0000
0001
0000
1000
0000
0100
0000
,
0010
0000
0001
0000
1000
0000
0100
0000
0010
0000
0001
0000
,
1000
0000
0100
0000
0010
0000
0001
0000
1000
0000
0100
0000
,
0010
0000
0001
0000
1000
0000
0100
0000
0010
0000
0001
0000
,
1000
0000
0100
0000
0010
0000
0001
0000
1000
0000
0100
0000
,
0010
0000
0001
0000
1000
0000
0100
0000
0010
0000
0001
0000
,
1000
0000
0100
0000
0010
0000
0001
0000
1000
0000
0100
0000
,
0010
0000
0001
0000
1000
0000
0100
0000
0010
0000
0001
0000
,
1000
0100
0010
0001
1000
0100
0010
0001
,
1000
0100
0010
0001
1000
0100
0010
0001
,
1000
0000
0000
0100
0000
0000
0010
0000
0000
0001
0000
0000
0100
0000
0000
0010
0000
0000
1000
0000
0000
0001
0000
0000
2000
0000
3000
0000
0000
0000
0001
0000
0000
0000
0000
0000
1001
0000
0000
0000
0000
0000
0100
0000
0000
0000
0000
0000
,
1000
0100
0010
0001
1000
0010
0100
0001
,
1000
0000
1001
0000
0110
0000
1001
0010
,
0001
0010
0100
1000
0001
0100
0010
1000
,
0001
0000
1001
0000
0110
0000
1001
0010
,
1000
0010
0100
0001
1000
0100
0010
0001
,
1000
0000
1001
0000
0110
0000
1001
0100
,
0001
0100
0010
1000
0001
0010
0100
1000
,
0001
1001
0110
1001
,
0000
0000
0110
0000
0000
1001
0000
0000
,
1100
0101
0011
1010
,
1000
0100
1100
0000
0001
0010
0110
0100
,
1000
0010
0100
0001
1000
0000
0101
0000
,
0001
0010
0011
0000
1000
0100
0110
0010
,
0001
0100
0010
1000
0001
0000
1000
0100
,
0001
0100
1000
0010
0001
0010
1000
0001
,
1000
0000
0001
0000
1000
0000
0002
0000
0000
1000
0000
0000
1003
0000
0000
0000
0000
0000
1000
0000
0000
0100
0000
0000
,
0010
0001
1000
0100
1000
0010
0100
0001
,
0010
0100
0010
0001
0100
0010
1000
0100
,
1000
0001
0010
0100
1000
0010
0100
0001
,
1000
0010
1000
0100
0010
0001
0100
0010
,
0100
0001
0010
0100
1000
0010
1000
0001
,
0100
0010
1000
0001
0100
0010
1000
0100
,
0001
0100
1000
0100
0010
0001
1000
0100
,
1000
0100
0010
0001
0010
0001
1000
0010
,
0001
0010
1000
0010
0100
0001
1000
0010
,
1000
0010
0100
0001
0100
0001
1000
0100
,
0001
0100
1000
0100
0001
0100
1000
0010
,
0001
0010
1000
0010
0001
0010
1000
0100
,
0010
0000
0000
0001
0000
0000
1000
0000
0000
0010
0000
0000
0100
0000
0000
0001
0000
0000
1000
0000
0100
0000
0010
0000
,
0001
0000
0100
0000
0010
0000
1000
0000
0010
0000
0100
0000
0001
0000
0010
0000
0100
0000
2000
0000
0000
3200
0000
0000
,
0320
0000
0000
0000
0000
0000
0032
0000
0000
0000
0203
0000
0320
0000
2030
0000
3002
0000
0000
0000
0003
0000
2000
3000
0000
0000
0000
0000
0000
0000
0000
0000
;
