#TITLE:Witch Doctor #1;
#SUBTITLE:;
#ARTIST:yahpp;
#TITLETRANSLIT:;
#SUBTITLETRANSLIT:;
#ARTISTTRANSLIT:;
#GENRE:;
#CREDIT:;
#MUSIC:Witch Doctor #1.ogg;
#BANNER:Witch Doctor #1-bn.png;
#BACKGROUND:Witch Doctor #1-bg.png;
#CDTITLE:;
#SAMPLESTART:7.993;
#SAMPLELENGTH:15.738;
#SELECTABLE:YES;
#OFFSET:-0.124;
#BPMS:0.000=122.000
,35.000=244.000
,37.000=122.000
,40.000=244.000
,42.000=122.000
,46.000=61.000
,48.000=122.000
,83.000=244.000
,85.000=122.000
,88.000=244.000
,90.000=122.000
,93.000=244.000
,95.000=122.000
,98.000=244.000
,100.000=122.000
,108.000=30.500
,112.000=122.000
;
#STOPS:;
#DISPLAYBPM:122.000;
#BGCHANGES:;
#FGCHANGES:;

//--------------- dance-single - ----------------
#NOTES:
     dance-single:
     :
     Beginner:
     2:
     0,0,0,0,0:
0000
0000
0000
0000
,
0000
0000
0000
0000
,
0000
0000
0000
0000
,
0001
0000
0000
0000
,
1000
0000
0100
0000
,
0010
0001
0010
0001
,
1000
0000
0010
0000
,
0100
0000
0001
0000
,
1000
0000
0100
0000
,
0000
0001
0000
0010
,
0000
0000
1000
0000
,
0100
0000
0000
0000
0000
0000
0000
0000
0002
0000
0000
0000
0000
0000
0000
0003
,
1000
0000
0000
0000
,
0100
0000
0000
0000
,
0010
0000
0000
0000
,
0001
0000
0000
0000
,
1000
0000
0000
0000
,
0010
0000
0000
0000
,
0100
0000
0000
0000
,
0001
0000
0000
0000
,
1000
0000
0100
0000
,
0000
0001
0000
0100
,
0000
0000
1000
0000
,
0010
0000
0000
0001
,
0000
0010
0000
0000
,
1000
0000
0000
0000
,
2002
0000
0000
0000
,
0000
0000
0000
0000
0000
0000
0000
3003
,
1000
0100
1000
0100
,
0010
0001
0010
0001
,
1000
0100
1000
0100
,
0010
0001
0010
0001
,
1000
0100
1000
0100
,
1000
0100
1000
0100
,
1000
0100
1000
0100
,
1000
0000
0000
0001
,
1000
0100
0010
0100
,
1000
0010
0100
0000
,
0001
0010
0100
0010
,
0001
0100
0010
0000
,
1000
0010
0100
0010
,
1000
0100
0010
0000
,
0001
0100
0010
0100
,
0001
0010
0100
0000
,
2000
0000
0000
0000
,
3000
0000
0000
0000
;

//--------------- dance-single - ----------------
#NOTES:
     dance-single:
     :
     Easy:
     5:
     0,0,0,0,0:
0000
0000
0000
0000
,
0000
0000
0000
0000
,
0000
0000
0000
0000
,
0001
0000
0000
0001
0000
0000
0001
0000
,
1000
0100
0010
0100
,
1000
0010
1000
0010
1000
0010
1000
0000
,
0100
0010
0001
0100
,
1000
0100
0001
0010
,
1000
0000
0000
0100
0000
0000
0001
0000
,
0000
0000
0001
0000
0000
0010
0000
0000
,
1000
0000
0000
0000
1000
0000
0000
0100
,
0000
0000
0000
0000
0001
0000
0000
0000
0002
0000
0000
0000
0000
0000
0000
0003
,
1000
0000
0100
0000
,
0001
0000
0100
0000
,
1000
0000
0010
0000
,
0001
0000
0010
0000
,
1000
0100
1000
0010
,
0100
0001
0010
0001
,
1000
0100
1000
0010
,
0100
0001
0010
0001
,
1000
0100
0010
0001
,
0000
0001
0010
0100
,
1000
0000
1000
0100
,
0010
0001
0000
0001
,
0010
0100
1000
0000
,
1000
0000
0000
0010
0000
0010
0010
0000
,
2002
0000
0000
0000
,
0000
0000
0000
0000
0000
0000
0000
0000
0000
0000
0000
0000
0000
0000
0000
0000
0000
0000
0000
0000
0000
0000
0000
0000
0000
0000
0000
3003
0000
0000
0000
0000
,
0010
0100
1000
0100
1000
0100
1000
0100
,
1000
0100
1000
0100
1000
0100
1000
0100
,
0010
0100
1000
0100
1000
0100
1000
0100
,
1000
0100
1000
0100
1000
0100
1000
0100
,
0010
0100
1000
0100
1000
0100
1000
0100
,
0010
0100
1000
0100
1000
0100
1000
0100
,
0010
0100
1000
0100
0010
0100
1000
0100
,
1000
0000
0000
0010
0000
0100
0001
0000
,
1000
0100
0010
0100
,
1000
0010
0100
0001
,
1000
0100
0010
0100
,
1000
0010
0100
0001
,
1000
0010
0100
0010
,
1000
0100
0010
0001
,
1000
0010
0100
0010
,
1000
0100
0010
0001
,
2000
0000
0000
0000
,
3000
0000
0000
0000
;

//--------------- dance-single - ----------------
#NOTES:
     dance-single:
     :
     Medium:
     7:
     0,0,0,0,0:
0000
0000
0000
0000
,
0000
0000
0000
0000
,
0000
0000
0000
0000
,
0001
0000
0000
0001
0000
0000
0001
0000
0000
0001
0000
0000
0001
0000
0001
0000
,
1000
0100
1000
0010
0100
0001
0010
0001
,
2000
0000
0000
0000
0100
0000
0000
0000
0001
0000
0000
0000
0100
0000
0000
3000
,
1000
0010
1000
0100
0010
0001
0100
0001
,
1000
0100
0010
0001
,
1000
0000
0100
0010
0001
1000
0000
0000
,
0000
0000
0001
0000
0010
0100
1000
0001
,
0000
0000
0000
0000
1000
0000
0010
0100
,
0001
0000
1000
0000
0000
0000
0000
0000
0002
0000
0000
0000
0000
0000
0000
0003
,
1000
0000
0110
0000
0001
0000
0100
0010
,
1000
0000
0110
0000
0001
0000
0010
0100
,
1000
0000
0110
0000
0001
0000
0100
0010
,
1000
0000
0100
0000
1000
0000
0010
0000
0100
0000
0001
0000
0010
0000
0001
1000
,
0001
0010
0100
1000
,
0001
0010
0001
0100
0000
0010
1000
0000
,
1000
0100
0010
0001
,
1000
0100
1000
0010
0100
0001
0010
0001
,
1000
0100
0010
0001
,
0000
0001
0010
0100
,
1000
0000
1000
0010
,
0100
0001
0000
0001
,
0100
0010
1000
0000
,
1000
0000
0100
0100
0000
0010
0010
0000
,
2002
0000
0000
0000
,
0000
0000
0000
0000
0000
0000
0000
0000
0000
0000
0000
0000
0000
0000
0000
0000
0000
0000
0000
0000
0000
0000
0000
0000
0000
0000
0000
3003
0000
0000
0000
0000
,
1000
0000
0100
1000
0010
0000
0100
0000
0001
0000
0010
0001
0100
0000
0010
0000
,
1000
0100
1000
0000
0010
0000
0100
0000
0001
0010
0001
0000
0100
0000
0010
0000
,
1000
0000
0010
1000
0100
0000
0010
0000
0001
0000
0100
0001
0010
0000
0100
0000
,
1000
0010
1000
0000
0100
0000
0010
0000
0001
0100
0001
0000
0010
0000
0100
0000
,
1000
0100
1000
0010
0100
0001
0010
0001
,
1000
0100
1000
0010
0100
0001
0010
0001
,
1000
0100
1000
0010
1000
0100
1000
0010
,
0100
0000
0000
0001
0000
0010
0100
0000
,
1000
0100
1000
0100
1000
0100
1000
0100
,
0010
0001
0010
0001
0010
0000
0000
0000
,
0001
0100
0001
0100
0001
0100
0001
0100
,
0010
1000
0010
1000
0010
0000
0000
0000
,
1000
0100
1000
0100
1000
0100
1000
0100
,
0001
0100
0001
0100
0001
0000
0000
0000
,
1000
0010
1000
0010
1000
0010
1000
0010
,
0001
0000
0010
0000
0001
0000
0010
0000
0001
0000
0010
0001
0100
0010
1000
0100
,
2000
0000
0000
0000
,
3000
0000
0000
0000
;

//--------------- dance-single - ----------------
#NOTES:
     dance-single:
     :
     Hard:
     9:
     0,0,0,0,0:
0000
0000
0000
0000
,
0000
0000
0000
0000
,
0000
0000
0000
0000
,
0001
0000
0000
0001
0000
0000
0001
0000
0000
0001
1000
0001
1000
0000
0010
0100
,
0010
0000
1000
0100
1000
0000
0010
0000
0100
0000
0001
0000
0010
0000
0100
0000
,
1000
0010
1000
0010
1000
0010
1000
0010
1000
0010
1000
0010
1000
0000
0100
0000
,
0010
0001
0100
0010
1000
0100
0010
0001
,
1000
0000
0000
0100
0000
0010
0000
0001
0000
0100
0000
0010
0000
1000
0000
0000
,
0001
0010
0100
0010
0001
1000
0000
0000
,
0000
0000
1000
0100
0010
0100
1000
0001
,
0000
0000
0000
0000
0001
0010
0100
1000
,
0010
0000
0100
0000
0001
0000
0000
0000
0002
0000
0000
0000
0000
0000
0000
0003
,
1000
0000
0000
0000
0100
0000
0000
0000
0010
0000
0001
0000
1000
0010
1000
0010
,
1000
0000
0000
0000
0010
0000
0000
0000
0100
0000
0001
0000
1000
0100
1000
0100
,
1000
0000
0000
0000
0010
0000
0000
0000
0100
0000
0001
0000
1000
0001
1000
0001
,
1000
0000
0100
0000
0010
0000
0001
0000
0100
0010
0100
0010
0100
0001
0010
0100
,
1000
0010
0100
0010
1000
0100
0010
0100
,
1000
0000
0010
0100
0000
0001
0001
0000
,
0001
0100
0010
0100
0001
0010
0100
0010
,
0001
0000
0100
0010
0000
1000
1000
0000
,
1000
0010
0100
0010
1000
0100
0000
0000
,
0000
0000
0001
0100
0010
0100
0001
0010
,
0000
0000
0000
0000
1000
0100
0010
0100
,
1000
0010
0000
0000
0000
0000
0001
0010
,
0100
0010
0001
0100
0000
0000
0000
0000
,
1001
0000
0100
0100
0000
0100
0100
0000
,
2002
0000
0000
0000
,
0000
0000
0000
0000
0000
0000
0000
0000
0000
0000
0000
0000
0000
0000
0000
3003
,
1000
0100
1000
0100
1000
0100
1000
0100
1000
0100
1000
0000
0100
0000
1000
0000
,
0100
0000
1000
0100
1000
0000
0100
1000
0100
1000
0100
1000
0100
0000
1000
0100
,
0010
0001
0010
0001
0010
0001
0010
0001
0010
0001
0010
0000
0001
0000
0010
0000
,
0001
0010
0001
0000
0010
0000
0001
0010
0001
0010
0001
0010
0001
0000
0010
0001
,
1000
0000
0010
1000
0010
0000
1000
0010
1000
0010
1000
0010
1000
0000
0010
0000
,
0100
0000
0001
0100
0001
0000
0100
0001
0100
0001
0100
0001
0100
0000
0001
0000
,
0010
0000
0100
0010
0100
0000
0010
0000
1000
0000
0001
1000
0001
0000
1000
0000
,
2000
0000
0000
0000
0000
0000
3020
0000
0000
0000
0032
0000
0203
0300
0200
0300
,
1000
0100
1000
0010
0100
0001
0010
0001
,
0100
0010
1000
0100
1000
0000
1001
0000
,
1000
0010
1000
0100
0010
0001
0100
0001
,
0010
0100
1000
0010
1000
0100
0010
0001
,
1000
0100
1000
0010
0100
0001
0010
0001
,
1000
0010
1000
0100
0010
0001
0100
0001
,
0100
0010
1000
0100
1000
0010
0100
0001
,
0010
0100
1000
0010
1000
0100
0010
0001
,
2000
0000
0000
0000
,
3000
0000
0000
0000
;

//--------------- dance-single - ----------------
#NOTES:
     dance-single:
     :
     Challenge:
     11:
     0,0,0,0,0:
0000
0000
0000
0000
,
0000
0000
0000
0000
,
0000
0000
0000
0000
,
0001
0000
0000
0001
0000
0000
0001
0000
0000
0001
1000
0010
0100
0001
0010
0100
,
1100
0000
0100
0010
0100
0000
1000
0000
0001
0100
0010
0000
0100
0001
0010
0100
,
1000
0010
0100
0010
1000
0010
0100
0010
1000
0010
0100
0010
1000
0010
0100
0010
,
1000
0100
1000
0010
0100
0001
0010
0001
0100
0010
0100
0010
1000
0100
0010
0001
,
1000
0100
0000
0100
0000
0010
0000
0001
0000
0001
0000
0001
1000
0100
0010
0001
,
1000
0100
1000
0010
0100
0001
0010
0001
0100
0010
1000
0100
1000
0000
0000
0000
,
0010
0000
0000
0000
0001
0010
0001
0100
0010
1000
0100
1000
0010
0100
0001
0010
,
0001
0000
0000
0000
0100
0000
0000
0000
1000
0100
0010
0100
1000
0010
0100
0001
,
0010
0100
0010
0100
1000
0000
0000
0000
0002
0000
0000
0000
0000
0000
0000
0003
,
0100
0000
0000
0000
1010
0000
0000
0000
0010
0000
0100
0000
0001
1000
0001
1000
,
0010
0000
0000
0000
0101
0000
0000
0000
0100
0000
0010
0000
1000
0001
1000
0001
,
0100
0000
0000
0000
1010
0000
0000
0000
0100
0000
0010
0000
0001
1000
0001
1000
,
0010
0100
0010
1000
0001
0100
0010
0001
0010
1000
0010
0100
0001
0100
0010
0000
,
1100
0000
0001
0100
0001
0000
1100
0000
0010
0100
0001
0100
0010
1000
0100
1000
,
0011
0000
1000
0010
1000
0000
0011
0000
0100
0010
1000
0010
0100
0001
0010
0001
,
1010
0000
0001
0010
0001
0000
1010
0000
0001
0100
0010
0100
0001
1000
0010
1000
,
0101
0000
1000
0100
1000
0000
0101
0000
1000
0010
0100
0010
1000
0001
0100
0010
,
1100
0000
0001
0100
0001
0000
1010
0000
0010
1000
0001
0100
0001
0000
0000
0000
,
0101
0000
0000
0000
0011
0000
1000
0010
1000
0000
0101
0000
0100
0001
1000
0010
,
1000
0000
0000
0000
1010
0000
0000
0000
1100
0000
0001
0010
0001
0000
1010
0000
,
0010
1000
0001
0100
0001
0000
0000
0000
0101
0000
0000
0000
0011
0001
1000
0100
,
1000
0010
0100
0001
0100
0001
1000
0010
1000
0000
0100
0000
1010
0000
0000
0000
,
1010
0101
0000
1001
0000
0101
1010
0000
,
2002
0000
0000
0000
,
0000
0000
0000
0000
0000
0000
0000
0000
0000
0000
0000
0000
0000
0003
3000
0000
,
0001
1000
0100
1000
0010
0100
0001
1000
0001
0100
0010
1000
0100
1000
0010
0100
,
0010
1000
0001
0100
0010
1000
0100
1000
0010
0100
0001
0100
0010
1000
0001
0100
,
0010
0100
0001
1000
0010
1000
0001
1000
0010
0100
0001
0100
0001
0100
0010
1000
,
0010
0100
0001
1000
0001
0100
0010
0100
0001
0100
0010
1000
0001
1000
0010
0100
,
0001
0100
0010
1000
0001
0100
0010
1000
0010
0100
0010
1000
0001
0100
0010
1000
,
0010
0100
0001
1000
0010
0100
0001
0100
0010
1000
0001
0100
0010
1000
0001
0100
,
0010
1000
0001
0010
0001
0100
0001
0010
0001
0100
0010
1000
0010
0100
0001
0010
,
0002
0100
0000
0023
1000
0032
0203
0310
,
1000
0001
0010
0001
0100
0010
1000
0001
1000
0010
0100
0001
0010
0001
0100
0010
,
0100
0001
1000
0010
0100
0001
0010
0001
0100
0010
1000
0010
0100
0001
1000
0010
,
0100
0010
1000
0001
0100
0001
1000
0001
0100
0010
1000
0010
1000
0010
0100
0001
,
0100
0010
1000
0001
1000
0010
0100
0010
1000
0010
0100
0001
1000
0001
0100
0010
,
1000
0010
0100
0001
1000
0010
0100
0001
0100
0010
0100
0001
1000
0010
0100
0001
,
0100
0010
1000
0001
0100
0010
1000
0010
0100
0001
1000
0010
0100
0001
1000
0010
,
0100
0001
1000
0100
1000
0010
1000
0100
1000
0010
0100
0001
0100
0010
1000
0100
,
0010
0001
1000
0010
1000
0100
1000
0010
1000
0100
0010
0001
0010
0100
1000
0010
,
2000
0000
0000
0000
,
0000
0000
3000
0000
;
