#TITLE:Will O' The Wisp;
#SUBTITLE:;
#ARTIST:banya;
#TITLETRANSLIT:;
#SUBTITLETRANSLIT:;
#ARTISTTRANSLIT:;
#GENRE:;
#CREDIT:;
#MUSIC:Will O' The Wisp.ogg;
#BANNER:Will O' The Wisp-bn.png;
#BACKGROUND:Will O' The Wisp-bg.png;
#CDTITLE:;
#SAMPLESTART:4.856;
#SAMPLELENGTH:18.281;
#SELECTABLE:YES;
#OFFSET:0.000;
#BPMS:0.000=210.058
,1.000=26.257
,2.000=52.515
,3.000=105.029
,5.000=210.058
,85.000=52.515
,87.000=210.058
,159.000=52.515
,159.500=105.029
,160.000=26.257
,164.000=52.515
,172.000=420.117
,300.000=1.641
;
#STOPS:;
#DISPLAYBPM:*;
#BGCHANGES:;
#FGCHANGES:;

//--------------- dance-single - ----------------
#NOTES:
     dance-single:
     :
     Beginner:
     7:
     0,0,0,0,0:
0000
0000
0000
0000
,
0000
1000
0100
1000
,
0100
1000
0010
1000
,
0010
0100
0010
0100
,
0010
0100
0001
0100
,
0001
0010
0001
0010
,
0001
0010
0100
0010
,
0100
1000
0100
1000
,
0100
1000
0001
1000
,
0001
1000
0010
1000
,
0010
1000
0100
1000
,
0100
0010
0100
0010
,
0100
0010
0001
0010
,
0001
0100
0001
0100
,
0001
0100
0010
0100
,
0010
1000
0010
1000
,
0010
1000
0001
1000
,
0001
1100
0000
1010
,
0000
0011
0000
0101
,
0000
1100
1010
0011
,
0101
0000
1000
0100
0010
0001
1000
0100
,
0010
0000
0000
0000
0001
0000
0000
0000
0000
2002
0000
0000
0000
0000
3003
0000
0000
0000
0000
0000
0000
0000
0000
0000
1000
0000
0000
0000
0000
0000
0000
0000
,
0100
1000
0100
1000
,
0100
1000
0100
1000
,
0010
1000
0010
1000
,
0010
1000
0010
0100
,
0010
0100
0010
0100
,
0010
0100
0010
0100
,
0001
0100
0001
0100
,
0001
0100
0001
0010
,
0001
0010
0001
0010
,
0001
0010
0001
0010
,
0100
0010
0100
0010
,
0100
0010
0100
1000
,
0100
1000
0100
1000
,
0100
1000
0100
1000
,
0000
0001
0000
1000
,
0100
0010
0001
0010
,
0100
1000
0100
0010
,
0001
0000
0000
0000
0000
0000
0000
0000
0000
0000
0000
0000
0000
0000
0000
0000
0010
0000
0000
0000
0000
0000
0000
0000
0000
0000
0000
0000
0000
0000
0000
0000
0100
0000
0000
0000
0000
0000
0000
0000
0000
0000
0000
0000
0000
0000
0000
0000
0000
2002
0000
0000
0000
0000
0000
3003
0000
0000
0000
0000
0000
0000
0000
0000
,
0000
0000
0000
0000
,
0000
0000
0000
0000
,
0000
0000
0000
0000
,
1000
0000
0100
0000
,
0010
0000
0100
0000
,
1000
0000
0010
0000
,
0100
0000
0001
0000
,
0010
0000
0100
0000
,
0010
0000
0100
0000
,
1000
0000
0010
0000
,
0100
0000
0001
0000
,
1000
0000
0100
0000
,
0001
0000
0100
0000
,
1000
0000
0100
0000
,
0001
0000
0100
0000
,
1000
0000
0100
0000
,
0001
0000
0100
0000
,
1000
0000
0100
0000
,
0001
0000
0100
0000
,
1000
0000
0010
0000
,
0100
0000
0010
0000
,
1000
0000
0100
0000
,
0010
0000
0001
0000
,
0100
0000
0010
0000
,
0100
0000
0010
0000
,
1000
0000
0100
0000
,
0010
0000
0001
1000
,
1100
0000
0000
0000
,
1010
0000
0000
0000
,
0011
0000
0000
0000
,
0101
0000
0000
0000
,
1100
0000
1010
0000
,
0011
0000
0101
0000
,
1000
0100
0010
0001
,
1000
0100
0010
0001
1000
0100
0010
0001
,
2002
3003
0000
0000
0000
0000
0000
0000
0000
0000
0000
0000
0000
0000
0000
0000
0000
0000
0000
0000
0000
0000
0000
0000
0000
0000
0000
0000
0000
0000
0000
0000
0000
0000
0000
0000
0000
0000
0000
0000
0000
0000
0000
0000
0000
0000
0000
0000
0000
0000
0000
0000
0000
0000
0000
0000
0000
0000
0000
0000
0000
0000
0000
0000
;

//--------------- dance-single - ----------------
#NOTES:
     dance-single:
     :
     Easy:
     10:
     0,0,0,0,0:
0000
0000
0000
0000
,
0000
1000
0100
1000
,
0100
1000
0010
1000
,
0010
0100
0010
0100
,
0010
0100
0001
0100
,
0001
0010
0001
0010
,
0001
0010
0100
0010
,
0100
1000
0100
1000
,
0100
1000
0001
1000
,
0001
1000
0100
1000
,
0010
0100
0001
0010
,
0100
1000
0100
0010
,
0001
0100
0010
1000
,
0100
1000
0010
1000
,
0100
0010
0001
0100
,
0010
1000
0010
0100
,
0001
0010
0100
1000
,
0010
1100
0000
1010
,
0000
0011
0000
0101
,
0000
1100
1010
0011
,
0101
0000
1100
1010
0110
0101
0011
0101
,
0110
0000
0000
0000
1010
0000
0000
0000
0000
2002
0000
0000
0000
0000
3003
0000
0000
0000
0000
0000
0000
0000
0000
0000
1000
0000
0000
0000
0100
0000
0000
0000
,
1000
0100
1000
0100
1000
0100
1000
0100
,
1000
0100
1000
0100
1000
0000
0010
1000
,
0010
1000
0010
1000
0010
1000
0010
1000
,
0010
1000
0010
1000
0020
0000
0130
0010
,
0100
0010
0100
0010
0100
0010
0100
0010
,
0100
0010
0100
0010
0200
0000
0301
0100
,
0001
0100
0001
0100
0001
0100
0001
0100
,
0001
0100
0001
0100
0002
0000
0013
0001
,
0010
0001
0010
0001
0010
0001
0010
0001
,
0010
0001
0010
0001
0010
0001
0010
0100
,
0010
0100
0010
0100
0010
0100
0010
0100
,
0010
0100
0010
0100
0010
0100
1000
0100
,
1000
0100
1000
0100
1000
0100
1000
0100
,
1000
0100
1000
0100
1000
0100
1000
0000
,
0010
0100
0001
0010
,
0100
0000
1000
0100
1000
0100
1000
0010
,
1000
0010
0100
0010
0100
0010
0100
0001
,
0100
0000
0000
0000
0000
0000
0000
0000
0001
0000
0000
0000
0000
0000
0000
0000
0010
0000
0000
0000
0000
0000
0000
0000
0001
0000
0000
0000
0000
0000
0000
0000
1000
0000
0000
0000
0000
0000
0000
0000
0001
0000
0000
0000
0000
0000
0000
0000
0000
2002
0000
0000
0000
0000
0000
3003
0000
0000
0000
0000
0000
0000
0000
0000
,
0000
0000
0000
0000
,
0000
0000
0000
0000
,
0000
0000
0000
0000
,
1000
0100
0010
0100
,
1000
0100
0010
0100
,
1000
0010
0100
0010
,
1000
0010
0100
0010
,
1000
0100
0010
0001
,
1000
0100
0010
0001
,
1000
0010
0100
0001
,
1000
0010
0100
0001
,
1000
0100
0010
0100
,
1000
0010
0100
0001
,
0010
0100
0010
0100
,
1000
0010
0100
0001
,
1000
0010
0100
0010
,
1000
0100
0010
0001
,
0100
0010
0100
0010
,
1000
0100
0010
0001
,
1000
0100
1000
0100
,
0010
0001
0010
0001
,
1000
0010
1000
0010
,
0100
0001
0100
0001
,
0010
0100
1000
0001
,
0100
0010
0100
0010
,
1000
0001
1000
0001
,
1000
0010
0100
0001
,
1100
0000
0000
0000
,
1010
0000
0000
0000
,
0011
0000
0000
0000
,
0101
0000
0000
0000
,
1100
0000
1010
0000
,
0011
0000
0101
0000
,
1100
1010
0011
0101
,
1000
0100
0010
0001
1000
0100
0010
0001
,
2002
3003
0000
0000
0000
0000
0000
0000
0000
0000
0000
0000
0000
0000
0000
0000
0000
0000
0000
0000
0000
0000
0000
0000
0000
0000
0000
0000
0000
0000
0000
0000
0000
0000
0000
0000
0000
0000
0000
0000
0000
0000
0000
0000
0000
0000
0000
0000
0000
0000
0000
0000
0000
0000
0000
0000
0000
0000
0000
0000
0000
0000
0000
0000
;

//--------------- dance-single - ----------------
#NOTES:
     dance-single:
     :
     Medium:
     12:
     0,0,0,0,0:
0000
0000
0000
0000
,
0000
0000
1000
0100
1000
0100
1000
0100
,
1000
0100
1000
0010
1000
0010
1000
0010
,
1000
0010
0100
0010
0100
0010
0100
0010
,
0100
0010
0100
0001
0100
0001
0100
0001
,
0100
0001
0010
0001
0010
0001
0010
0001
,
0010
0001
0010
0100
0010
0100
0010
0100
,
0010
0100
1000
0100
1000
0100
1000
0100
,
1000
0100
1000
0001
1000
0001
1000
0001
,
1000
0001
1000
0100
1000
0010
0100
0001
,
0010
0001
1000
0010
0100
0001
0010
0001
,
0100
0010
1000
0010
1000
0100
0010
0001
,
0100
0001
1000
0100
0010
0001
0100
0001
,
0010
0100
1000
0010
0100
0010
1000
0100
,
0010
0001
0100
0010
0100
0010
1000
0100
,
0010
0001
1000
0100
0010
0100
1000
0010
,
0100
0001
0010
0100
0010
0100
1000
0010
,
0100
0001
1100
0000
0000
0000
1010
0000
,
0000
0011
0000
0101
,
0000
1100
1010
0011
,
0101
0000
1100
1010
0110
0101
0011
0101
,
0110
0000
0000
0000
1010
0000
0000
0000
0000
2002
0000
0000
0000
0000
3003
0000
0000
0000
0000
0000
0000
0000
0000
0000
1000
0000
0000
0000
0100
0000
0000
0000
,
1000
0100
1000
0100
1000
0100
1000
0100
,
1000
0100
1000
0100
1000
0100
1000
0010
,
1000
0010
1000
0010
1000
0010
1000
0010
,
1000
0010
1000
0010
1000
0010
0100
0010
,
0100
0010
0100
0010
0100
0010
0100
0010
,
0100
0010
0100
0010
0100
0010
0100
0001
,
0100
0001
0100
0001
0100
0001
0100
0001
,
0100
0001
0100
0001
0100
0001
0010
0001
,
0010
0001
0010
0001
0010
0001
0010
0001
,
0010
0001
0010
0001
0010
0001
0010
0100
,
0010
0100
0010
0100
0010
0100
0010
0100
,
0010
0100
0010
0100
0010
0100
1000
0100
,
1000
0100
1000
0100
1000
0100
1000
0100
,
1000
0100
1000
0100
1000
0100
1000
0001
,
1000
0001
1000
0001
1000
0001
1000
0100
,
0010
0000
0001
0000
1000
0100
1000
0100
1000
0010
1000
0010
0100
0010
0100
0010
,
0100
0001
0100
0001
0010
0001
0010
0001
0010
0100
0010
0100
1000
0100
1000
0100
,
1000
0000
0000
0000
0010
0000
0000
0000
1000
0000
0000
0000
0010
0000
0000
0000
0100
0000
0000
0000
0010
0000
0000
0000
0100
0000
0000
0000
0010
0000
0000
0000
0100
0000
0000
0000
0001
0000
0000
0000
0100
0000
0000
0000
0001
0000
0000
0000
0000
2002
0000
0000
0000
0000
0000
3003
0000
0000
0000
0000
0000
0000
0000
0000
,
0000
0000
0000
0000
,
2000
3200
0320
0032
2003
3200
0320
0032
,
2003
3020
0230
0302
2003
3020
0230
0302
,
1003
0100
0010
0100
,
1000
0100
0010
0100
,
1000
0010
0100
0010
,
1000
0010
0100
0010
,
1000
0100
0010
0001
,
1000
0100
0010
0001
,
1000
0010
0100
0001
,
1000
0010
0100
0001
,
1000
0100
0010
0100
,
1000
0010
0100
0001
,
0010
0100
0010
0100
,
1000
0010
0100
0001
,
1000
0010
0100
0010
,
1000
0100
0010
0001
,
0100
0010
0100
0010
,
1000
0100
0010
0001
,
1000
0100
1000
0100
,
0010
0001
0010
0001
,
1000
0010
1000
0010
,
0100
0001
0100
0001
,
0010
0100
1000
0001
,
0100
0010
0100
0010
,
1000
0001
1000
0001
,
1000
0000
0010
0000
0100
0000
0001
0010
,
1100
0000
0000
0000
,
1010
0000
0000
0000
,
0011
0000
0000
0000
,
0101
0000
0000
0000
,
1100
0000
1010
0000
,
0011
0000
0101
0000
,
1100
1010
0011
0101
,
1000
0100
0010
0001
1000
0100
0010
0001
,
2002
3003
0000
0000
0000
0000
0000
0000
0000
0000
0000
0000
0000
0000
0000
0000
0000
0000
0000
0000
0000
0000
0000
0000
0000
0000
0000
0000
0000
0000
0000
0000
0000
0000
0000
0000
0000
0000
0000
0000
0000
0000
0000
0000
0000
0000
0000
0000
0000
0000
0000
0000
0000
0000
0000
0000
0000
0000
0000
0000
0000
0000
0000
0000
;

//--------------- dance-single - ----------------
#NOTES:
     dance-single:
     :
     Hard:
     13:
     0,0,0,0,0:
0000
0000
0000
0000
,
0000
0000
1001
0010
0100
0010
1000
0100
,
0010
0001
0100
0010
0100
0000
0010
0000
1000
0000
0100
0000
0010
0000
0001
0000
,
0100
0010
1000
0001
0010
0000
0001
0000
0100
0000
0010
0000
1000
0000
0100
0000
,
0010
0001
1000
0010
0100
0000
0010
0000
1000
0000
0100
0000
0001
0000
0100
0000
,
1000
0010
0100
0010
1000
0000
0001
0000
0010
0000
0001
0000
0100
0000
0001
0000
,
0010
0001
1000
0010
1000
0000
0100
0000
0001
0000
0100
0000
0010
0000
0001
0000
,
0100
0010
1000
0100
1000
0000
0001
0000
0010
0000
1000
0000
0010
0000
0001
0000
,
0100
0001
0100
1000
0100
0000
0010
0000
1000
0000
0010
0000
0100
0000
0001
0000
,
0010
0001
0100
0010
0100
0000
0001
0000
0010
0000
0100
0000
0010
0000
0001
0000
,
0100
0010
1000
0001
0010
0000
0100
0000
1000
0000
0100
0000
0010
0000
0001
0000
,
0100
0001
0010
0100
0010
0000
0001
0000
0100
0000
0010
0000
1000
0000
0100
0000
,
1000
0010
1000
0100
0010
0000
0001
0000
0100
0000
0010
0000
0100
0000
0001
0000
,
0010
0001
0010
0100
1000
0000
0010
0000
0100
0000
0010
0000
1000
0000
0100
0000
,
0010
0001
0100
0010
0100
0000
0010
0000
1000
0000
0100
0000
0010
0000
0001
0000
,
1000
0001
0010
0100
1000
0000
0010
0000
0100
0000
0010
0000
1000
0000
0100
0000
,
0010
0001
1000
0010
0100
0000
0001
0000
0010
0000
0100
0000
1000
0000
0001
0000
,
1000
0100
0001
0100
1000
0000
0100
0000
1000
0000
0010
0000
0110
0000
0001
0000
,
0010
0001
0110
0010
1000
0100
1100
0010
,
0100
0001
1100
0000
1010
0000
0011
0000
,
0101
0000
1100
1010
0110
0101
0011
0101
,
0110
0000
0000
0000
1010
0000
0000
0000
0000
2002
0000
0000
0000
0000
3003
0000
0000
0000
0000
0000
0000
0000
0000
0000
1000
0000
0100
0000
1000
0000
0100
0000
,
1000
0000
0100
0010
0100
0000
0010
0000
0100
0001
0100
0000
0001
0010
0001
0010
,
0001
0000
0010
0100
0010
0000
0100
0000
0010
1000
0010
0000
1000
0100
1000
0000
,
0100
0000
0001
0100
0001
0000
0100
0000
1000
0001
1000
0000
0001
0010
0001
0000
,
0010
0000
1000
0010
1000
0100
0010
0100
1000
0010
0100
0001
0010
0000
0100
0000
,
0010
0000
0100
0000
1000
0100
1000
0100
0010
0001
0010
0001
0100
0000
0010
0000
,
0100
0010
1000
0100
0020
0001
0130
0010
,
0100
0000
0010
0000
1000
0010
1000
0010
0100
0001
0100
0001
0010
0000
0100
0000
,
0010
0000
0100
0000
1000
0000
0010
0000
0200
0000
0001
0000
0310
0001
1000
0010
,
0100
0000
0001
0010
0100
0010
0001
0000
1000
0001
1000
0000
0010
0100
0001
1000
,
0100
0000
1000
0010
0100
0010
1000
0000
0001
1000
0001
0000
0100
0010
1000
0001
,
0010
0000
0001
0100
0010
0100
0001
0000
0100
0010
0100
0000
0010
0001
1000
0010
,
0100
0000
0001
0010
0100
0010
0001
0000
0010
0100
0010
0000
1000
0100
1000
0100
,
0010
0001
0010
0001
1000
0010
1000
0000
0001
0010
0001
0000
1000
0000
0100
0000
,
0001
0100
1000
0010
0200
0301
1100
1000
,
1010
0010
0011
0001
0101
0100
1100
1010
,
0011
0000
0101
0000
1000
0100
1000
0100
0010
0001
0010
0001
1000
0100
1000
0100
,
1000
0010
1000
0010
0100
0010
0100
0010
0100
0001
0100
0001
0010
0001
0010
0001
,
0010
0000
0000
0000
0100
0000
0000
0000
0010
0000
0000
0000
0100
0000
0000
0000
1000
0000
0000
0000
0100
0000
0000
0000
1000
0000
0000
0000
0100
0000
0000
0000
1000
0000
0000
0000
0001
0000
0000
0000
1000
0000
0000
0000
0001
0000
0000
0000
0000
2002
0000
0000
0000
0000
0000
3003
0000
0000
0000
0000
0000
0000
0000
0000
,
0000
0000
0000
0000
,
1000
0000
0100
0000
0010
0001
0010
0000
0100
0000
1000
0000
0100
0010
0001
0000
0010
0000
0100
0000
1000
0100
0010
0000
0001
0000
0010
0000
0100
1000
0001
0000
1000
0000
0000
0000
0010
0000
0100
0000
0001
0000
0010
0001
1000
0010
0100
0001
0010
0001
0010
0001
1000
0010
1000
0010
1000
0000
0100
0000
0010
0001
0100
0010
,
1000
0000
0000
0000
0100
0000
0010
0000
0001
0100
0001
0100
0010
1000
0010
1000
0001
0000
0000
0000
0010
0000
0100
0000
1000
0000
0010
0000
0100
0000
0001
0000
1000
0100
0010
0100
1000
0100
0010
0001
0010
0000
0100
0000
0010
0000
0100
0000
1000
0000
0000
0000
0010
0000
0000
0000
0100
0000
0001
0000
0010
0000
0100
0000
,
1000
0100
0001
0100
1000
0000
0010
0000
,
0100
0001
0010
0100
,
1000
0100
0001
0100
1000
0000
0010
0000
,
0100
0001
0010
0100
,
1000
0010
0001
0010
1000
0000
0100
0000
,
0010
0001
0100
0010
,
1000
0010
0001
0010
1000
0000
0100
0000
,
0010
0001
0100
0010
,
1000
0100
0010
1000
0010
0000
0001
0000
,
0100
0010
1000
0001
,
1000
0100
0010
1000
0010
0000
0001
0000
,
0100
0010
1000
0001
,
1000
0010
0100
1000
0100
0000
0001
0000
,
0010
0100
1000
0001
,
1000
0010
0100
1000
0100
0000
0001
0000
,
0010
0100
1000
0001
,
1000
0100
1000
0100
1000
0010
1000
0010
,
0100
0010
0100
0010
0100
0001
0100
0001
,
0010
0001
0010
0001
0010
0100
0010
0100
,
1000
0100
1000
0100
1000
0001
1000
0001
,
1000
0100
1000
0010
0100
0001
0010
0100
,
1000
0100
0010
0001
0100
0010
1000
0100
,
1000
0010
1000
0100
0010
0001
0100
0010
,
1000
0010
0100
0001
0010
0100
1000
0010
,
1010
0000
0000
0000
,
1100
0000
0000
0000
,
0101
0000
0000
0000
,
0011
0000
0000
0000
,
1000
0100
0010
1000
0010
0001
0100
0010
,
1000
0100
0001
0100
1000
0010
0100
0001
,
1000
0010
0100
1000
0100
0001
0010
0100
,
1000
0010
0001
0010
1000
0100
0001
0100
,
2002
3003
0000
0000
0000
0000
0000
0000
0000
0000
0000
0000
0000
0000
0000
0000
0000
0000
0000
0000
0000
0000
0000
0000
0000
0000
0000
0000
0000
0000
0000
0000
0000
0000
0000
0000
0000
0000
0000
0000
0000
0000
0000
0000
0000
0000
0000
0000
0000
0000
0000
0000
0000
0000
0000
0000
0000
0000
0000
0000
0000
0000
0000
0000
;

//--------------- dance-single - ----------------
#NOTES:
     dance-single:
     :
     Challenge:
     14:
     0,0,0,0,0:
0000
0000
0000
0000
0000
0000
0000
0000
0000
0000
0000
0000
0000
0000
0000
0000
0000
0000
0000
0000
0000
0000
0000
0000
0000
0000
0000
0000
0000
0000
0000
0000
1000
0100
1000
0100
1000
0010
1000
0010
0100
0010
0200
0310
0100
0001
0100
0001
0010
0000
0001
0000
0010
0000
0001
0000
0010
0000
0100
0000
0010
0000
0100
0000
,
1000
0100
1000
0100
1000
0001
1000
0001
1001
0000
0000
0000
0010
0000
0000
0000
0100
0000
0000
0000
0010
0000
0000
0000
1000
0000
0000
0000
0100
0000
0000
0000
,
0010
0001
0100
0010
0100
0000
0010
0000
1000
0000
0100
0000
0010
0000
0001
0000
,
0100
0010
1000
0001
0010
0000
0001
0000
0100
0000
0010
0000
1000
0000
0100
0000
,
0010
0001
1000
0010
0100
0000
0010
0000
1000
0000
0100
0000
0001
0000
0100
0000
,
1000
0010
0100
0010
1000
0000
0001
0000
0010
0000
0001
0000
0100
0000
0001
0000
,
0010
0001
1000
0010
1000
0000
0100
0000
0001
0000
0100
0000
0010
0000
0001
0000
,
0100
0010
1000
0100
1000
0000
0001
0000
0010
0000
1000
0000
0010
0000
0001
0000
,
0100
0001
0100
1000
0100
0000
0010
0000
1000
0000
0010
0000
0100
0000
0001
0000
,
0010
0001
0100
0010
0100
0000
0001
0000
0010
0000
0100
0000
0010
0000
0001
0000
,
0100
0010
1000
0001
0010
0000
0100
0000
1000
0000
0100
0000
0010
0000
0001
0000
,
0100
0001
0010
0100
0010
0000
0001
0000
0100
0000
0010
0000
1000
0000
0100
0000
,
1000
0010
1000
0100
0010
0000
0001
0000
0100
0000
0010
0000
0100
0000
0001
0000
,
0010
0001
0010
0100
1000
0000
0010
0000
0100
0000
0010
0000
1000
0000
0100
0000
,
0010
0001
0100
0010
0100
0000
0010
0000
1000
0000
0100
0000
0010
0000
0001
0000
,
1000
0001
0010
0100
1000
0000
0010
0000
0100
0000
0010
0000
1000
0000
0100
0000
,
0010
0001
1000
0010
0100
0000
0001
0000
0010
0000
0100
0000
1000
0000
0001
0000
,
1000
0100
0001
0100
1000
0000
0100
0000
1000
0000
0010
0000
0110
0000
0001
0000
,
0010
0001
0110
0010
1000
0100
1100
0010
,
0100
0001
1100
1000
1010
0010
0011
0001
,
0101
0000
1100
1010
0110
0101
0011
0101
,
0110
0000
0000
0000
1010
0000
0000
0000
0000
2002
0000
0000
0000
0000
3003
0000
0000
0000
0000
0000
0000
0000
0000
0000
1000
0000
0100
0000
1000
0000
0100
0000
,
1000
0000
0100
0010
0100
0000
0010
0000
0100
0001
0100
0000
0001
0010
0001
0010
,
0001
0000
0010
0100
0010
0000
0100
0000
0010
1000
0010
0000
1000
0100
1000
0000
,
0100
0000
0001
0100
0001
0000
0100
0000
1000
0001
1000
0000
0001
0010
0001
0000
,
0010
0000
1000
0010
1000
0100
0010
0100
1000
0010
0100
0001
0010
0000
0100
0000
,
0010
0000
0100
0000
1000
0100
1000
0100
0010
0001
0010
0001
0100
0000
0010
0000
,
0100
0010
1000
0100
0020
0001
0130
0010
,
0100
0000
0010
0000
1000
0010
1000
0010
0100
0001
0100
0001
0010
0000
0100
0000
,
0010
0000
0100
0000
1000
0000
0010
0000
0200
0000
0001
0000
0310
0001
1000
0010
,
0100
0000
0001
0010
0100
0010
0001
0000
1000
0001
1000
0000
0010
0100
0001
1000
,
0100
0000
1000
0010
0100
0010
1000
0000
0001
1000
0001
0000
0100
0010
1000
0001
,
0010
0000
0001
0100
0010
0100
0001
0000
0100
0010
0100
0000
0010
0001
1000
0010
,
0100
0000
0001
0010
0100
0010
0001
0000
0010
0100
0010
0000
1000
0100
1000
0100
,
0010
0001
0010
0001
1000
0010
1000
0000
0001
0010
0001
0000
1000
0000
0100
0000
,
0001
0100
1000
0010
0200
0301
1100
1000
,
1010
0010
0011
0001
0101
0100
1100
1010
,
0011
0000
0101
0000
1000
0100
1000
0100
0010
0001
0010
0001
1000
0100
1000
0100
,
1000
0010
1000
0010
0100
0010
0100
0010
0100
0001
0100
0001
0010
0001
0010
0001
,
0010
0000
0000
0000
0100
0000
0000
0000
0010
0000
0000
0000
0100
0000
0000
0000
1000
0000
0000
0000
0100
0000
0000
0000
1000
0000
0000
0000
0100
0000
0000
0000
1000
0000
0000
0000
0001
0000
0000
0000
1000
0000
0000
0000
0001
0000
0000
0000
0000
2002
0000
0000
0000
0000
0000
3003
0000
0000
0000
0000
0000
0000
0000
0000
,
0000
0000
0000
0000
,
1000
0000
0100
0000
0010
0001
0010
0000
0100
0000
1000
0000
0100
0010
0001
0000
0010
0000
0100
0000
1000
0100
0010
0000
0001
0000
0010
0000
0100
1000
0001
0000
1000
0000
0000
0000
0010
0000
0100
0000
0001
0000
0010
0001
1000
0010
0100
0001
0010
0001
0010
0001
1000
0010
1000
0010
1000
0000
0100
0000
0010
0001
0100
0010
,
1000
0000
0000
0000
0100
0000
0010
0000
0001
0100
0001
0100
0010
1000
0010
1000
0001
0000
0000
0000
0010
0000
0100
0000
1000
0000
0010
0000
0100
0000
0001
0000
1000
0100
0010
0100
1000
0100
0010
0001
0010
0000
0100
0000
0010
0000
0100
0000
1000
0000
0000
0000
0010
0000
0000
0000
0100
0000
0001
0000
0010
0000
0100
0000
,
1000
0100
0010
1000
0010
0001
0100
0010
,
1000
0100
0010
0100
1000
0010
0100
0010
,
1000
0100
0010
1000
0010
0001
0100
0010
,
0100
0001
0010
0100
1000
0010
0100
0001
,
1000
0010
0100
1000
0100
0001
0010
0100
,
1000
0010
0100
0010
1000
0100
0010
0100
,
1000
0010
0100
1000
0100
0001
0010
0100
,
0010
0001
0100
0010
1000
0100
0010
0001
,
1000
0100
1000
0010
0100
0001
1000
0100
,
0001
0100
1000
0001
0100
0010
1000
0100
,
1000
0010
1000
0001
0010
1000
0010
0001
,
0100
0010
1000
0100
1000
0010
0100
0001
,
1000
0010
1000
0100
0010
0001
1000
0010
,
0001
0010
1000
0001
0010
0100
1000
0010
,
1000
0100
1000
0001
0100
1000
0100
0001
,
0010
0100
1000
0010
1000
0100
0010
0001
,
1000
0100
1000
0001
0100
1000
0100
0001
,
1000
0100
1000
0100
0010
0001
0010
0001
,
1000
0010
1000
0010
0100
0001
0100
0001
,
0010
0100
1000
0010
0100
0001
0010
0001
,
1000
0010
1000
0001
0010
1000
0010
0001
,
1000
0010
1000
0010
0100
0001
0100
0001
,
1000
0100
1000
0100
0010
0001
0010
0001
,
0100
0010
1000
0100
0010
0001
0100
0001
,
1000
0100
1000
0100
1000
0100
1000
0100
,
0001
0100
0001
0100
0001
0100
0001
0100
,
1000
0010
1000
0010
1000
0010
1000
0010
,
0001
0010
0001
0010
0001
0010
0001
0010
,
1000
0100
0010
1000
0010
0001
0100
0010
,
1000
0100
0001
0100
1000
0010
0100
0001
,
1000
0010
0100
1000
0100
0001
0010
0100
,
1000
0010
0001
0010
1000
0100
0001
0100
,
2002
3003
0000
0000
0000
0000
0000
0000
0000
0000
0000
0000
0000
0000
0000
0000
0000
0000
0000
0000
0000
0000
0000
0000
0000
0000
0000
0000
0000
0000
0000
0000
0000
0000
0000
0000
0000
0000
0000
0000
0000
0000
0000
0000
0000
0000
0000
0000
0000
0000
0000
0000
0000
0000
0000
0000
0000
0000
0000
0000
0000
0000
0000
0000
;
