#TITLE:WI-EX-DOC-VA;
#SUBTITLE:;
#ARTIST:YAHPP;
#TITLETRANSLIT:;
#SUBTITLETRANSLIT:;
#ARTISTTRANSLIT:;
#GENRE:;
#CREDIT:;
#MUSIC:WI-EX-DOC-VA.ogg;
#BANNER:WI-EX-DOC-VA-bn.png;
#BACKGROUND:WI-EX-DOC-VA-bg.png;
#CDTITLE:;
#SAMPLESTART:10.063;
#SAMPLELENGTH:40.615;
#SELECTABLE:YES;
#OFFSET:-0.217;
#BPMS:0.000=195.000
,96.000=390.000
,100.000=97.500
,101.000=195.000
,152.000=390.000
,154.000=195.000
,157.000=390.000
,159.000=195.000
,163.000=97.500
,165.000=195.000
,200.000=390.000
,202.000=195.000
,205.000=390.000
,207.000=195.000
,210.000=390.000
,212.000=195.000
,215.000=390.000
,217.000=195.000
,225.000=48.750
,229.000=195.000
,357.000=48.750
,361.000=195.000
,476.000=1560.000
,483.000=195.000
;
#STOPS:483.500=0.154;
#DISPLAYBPM:195.000;
#BGCHANGES:;
#FGCHANGES:;

//--------------- dance-single - ----------------
#NOTES:
     dance-single:
     :
     Beginner:
     9:
     0,0,0,0,0:
0000
0000
0000
0000
,
0000
0000
0000
0000
,
0000
0000
0000
0000
,
0000
0000
0000
0000
,
0000
0000
0000
0000
,
0000
0000
0000
0000
,
0000
0000
0000
0000
,
0000
0000
0000
0000
,
1000
0000
0100
0000
0010
0000
0001
1000
,
0001
0000
0010
0000
0100
0000
1000
0001
,
1000
0000
0100
0000
0010
0001
0010
0000
,
0100
0000
1000
0000
0100
0010
0100
0000
,
1000
0000
0010
0000
0100
0000
0001
1000
,
0001
0000
0100
0000
0010
0000
1000
0001
,
1000
0000
0010
0000
0100
0001
0100
0000
,
0010
0000
1000
0000
0010
0100
0010
0000
,
1000
0000
0100
0000
0010
0000
0001
1000
,
0001
0000
0100
0000
0010
0000
1000
0001
,
1000
0000
0100
0000
0010
0001
0010
0100
,
1000
0000
0010
0000
0100
0001
0100
0000
,
0010
0000
1000
0000
0001
0000
1000
0001
,
1000
0000
0100
0000
0010
0000
0001
1000
,
0001
0000
0010
0000
0100
1000
0010
0100
,
0001
0000
0100
0000
0010
1000
0100
0010
,
1001
0000
0000
0000
,
0000
0000
1000
0010
0100
0010
1000
0001
,
0100
0010
0100
0001
0100
0010
1000
0000
,
1000
0000
0001
0100
0010
0100
0001
1000
,
0010
0100
0010
1000
0010
0100
0001
0000
,
0001
0000
0001
0010
0100
0001
0010
0100
,
1000
0010
0100
0001
1000
0010
0100
0000
,
0100
0000
1000
0100
0010
1000
0100
0010
,
0001
0100
0010
1000
0001
0100
0010
0000
,
0010
0000
1000
0100
0010
0001
0100
1000
,
0010
0001
0010
1000
0100
0010
1000
0000
,
1000
0000
0001
0010
0100
1000
0010
0001
,
0100
1000
0100
0001
0010
0100
0001
0000
,
0001
0000
0010
0001
1000
0010
0100
0000
,
0000
0000
0000
0000
0100
1000
0001
0100
,
0010
0000
0000
0000
0000
0000
0100
0001
,
1000
0100
1000
0000
0001
0000
2002
0000
,
0000
0000
0000
3003
1000
0000
0000
0000
1100
0000
0000
0000
0000
0000
0000
0000
,
0000
0001
0011
0000
,
0000
1000
1010
0000
,
0000
0000
0001
0000
0101
0000
0001
1000
,
0010
0100
0001
0000
1000
0010
1000
0010
,
1000
0010
0100
0000
0001
0100
0001
0100
,
0001
0100
0010
0000
1000
0010
0100
0010
,
1000
0010
0100
0000
0001
0100
0010
0100
,
0001
0100
0010
0000
1000
0010
1000
0010
,
0000
0000
0000
0000
0100
0000
0001
0100
,
0001
0100
0000
0000
0000
0000
0010
0000
,
1000
0010
1000
0010
0000
0000
0000
0000
,
0100
0000
0001
0100
0001
0100
0010
0000
,
0100
0000
0001
1000
0000
1001
0000
1000
,
0001
2002
0000
0000
,
0000
0000
0000
0000
,
0000
3003
1000
0000
0000
0000
0000
0000
,
0000
0001
0000
0000
,
0000
0000
1000
0000
0001
0001
0000
0000
,
0000
0000
0001
0000
1000
1000
0000
0000
,
0000
0000
1000
0000
0010
0010
0000
0100
,
0000
0001
1000
0000
0100
0100
0000
0010
,
0000
0001
1000
0000
0010
0010
0000
0100
,
0000
0001
1000
0000
0100
0100
0000
0010
,
0000
0001
1000
0000
0001
0001
0000
0100
,
0000
0010
0100
0000
0001
0001
0000
0010
,
0000
1000
0010
0000
0100
0100
0000
0010
,
0000
0001
1000
0000
0010
0010
0000
0000
,
0000
1000
0000
0000
,
0000
0100
0000
0000
,
0000
0010
0000
0000
,
0000
0001
0000
0000
,
0000
0000
1000
0000
0100
0000
0010
0001
,
0100
0010
1000
0000
0100
0000
0010
0001
,
0010
0100
1000
0000
0010
0000
0100
0001
,
0010
0100
1000
0000
0010
0000
0100
0001
,
0100
0010
1000
0000
1000
0100
0010
0001
,
0010
0100
1000
0000
0001
0010
0100
1000
,
0100
0010
0001
0000
1000
0010
0100
0001
,
0100
0010
1000
0000
0001
0100
0010
1000
,
0010
0100
0001
0000
1000
0000
0001
0010
,
0100
1000
0001
0000
1000
0000
0001
0100
,
0010
1000
0001
0000
1000
0000
0001
1000
,
0100
0010
0001
0000
1000
0000
0001
1000
,
0010
0100
0001
0000
1000
0000
0001
0010
,
0100
1000
0000
0000
0010
0000
0001
0000
,
0000
0000
0000
0000
0010
0000
0000
0100
0000
0100
0000
0000
1000
0000
0000
0000
,
0000
0010
0001
0000
0010
0100
0000
1000
,
2002
0000
0000
0000
,
0000
3003
0001
0000
1000
0010
1000
0001
,
0010
0001
1000
0100
0001
0010
0001
0100
,
1000
0001
0100
0000
0001
0100
0001
1000
,
0100
1000
0001
0010
1000
0100
1000
0010
,
0001
1000
0010
0000
1000
0100
0001
0010
,
0001
0100
1000
0000
0001
0010
1000
0100
,
1000
0010
0001
0000
0100
0010
1000
0000
,
0010
0100
0002
0000
0003
0000
0000
0000
,
0000
2000
3000
0000
,
0000
0020
0030
0000
,
0000
0200
0300
0000
,
0000
0000
0001
0100
0001
0100
0001
0100
,
0001
0100
1000
0010
1000
0010
1000
0010
,
1000
0010
1000
0100
1000
0100
1000
0100
,
1000
0100
0010
0100
0010
0100
0010
0100
,
0010
0100
0001
1000
0001
1000
0001
1000
,
0001
1000
0010
0100
0010
0100
0010
0100
,
0010
0100
0001
0010
0001
0010
0001
0010
,
0001
0010
0001
0100
0001
0100
0001
0100
,
0001
1000
0001
0100
0001
0100
1000
0010
,
1000
0010
1000
0100
1000
0100
0010
0100
,
0010
0100
0001
1000
0001
1000
0010
0100
,
0010
0100
0001
0010
0001
0010
0001
0100
,
0001
0100
0001
0010
0001
0010
0100
0010
,
0100
0010
1000
0001
1000
0001
0100
0010
,
0100
0010
1000
0100
1000
0100
0010
0100
,
0010
0100
0010
0100
0010
0001
0010
0100
,
0010
0100
2000
0000
0000
0000
0000
0000
,
3000
0000
0000
0000
,
0000
0000
0000
0000
,
0000
0000
0000
0000
0000
0000
1000
0001
,
0001
0010
0100
0010
0001
0010
0100
0010
,
0001
0100
0010
0100
0001
0100
0010
0100
,
0001
0010
0100
1000
0001
0010
0100
1000
,
0001
0100
0010
1000
0001
0100
0010
1000
,
0001
0010
0100
0010
0001
0100
0010
0100
,
0001
0010
0100
1000
0001
0100
0010
1000
,
0001
0100
0010
0100
0001
0010
0100
0010
,
0001
0100
0010
1000
0001
0010
0100
1000
,
1001
0000
0000
0000
;

//--------------- dance-single - ----------------
#NOTES:
     dance-single:
     :
     Easy:
     11:
     0,0,0,0,0:
0000
0000
0000
0000
,
0000
0000
0000
0000
,
0000
0000
0000
0000
,
0000
0000
0000
0000
,
2000
3001
0020
0031
0200
0301
0020
0031
,
2000
3001
0020
0031
0000
0000
0000
0000
,
0002
1003
0200
1300
0020
1030
0200
1300
,
0002
1003
0200
1300
0000
0000
0000
0000
,
1000
0000
0100
0000
0010
0000
0001
0000
0100
0000
0010
0000
1000
0001
1000
0000
,
0001
0000
0010
0000
0100
0000
1000
0000
0010
0000
0100
0000
0001
1000
0001
0000
,
1000
0000
0100
0000
0010
0000
0001
0000
1000
0001
1000
0000
0001
0000
0010
0000
,
0100
0000
1000
0000
0010
0000
0100
0000
0001
1000
0001
0000
1000
0000
0100
0000
,
0010
0000
0001
0000
1000
0000
0001
0000
0100
0000
0010
0000
1000
0001
1000
0000
,
0001
0000
0100
0000
0010
0000
1000
0000
0100
0000
0010
0000
0001
1000
0001
0000
,
1000
0000
0010
0000
0100
0000
0001
0000
1000
0001
1000
0000
0001
0000
0100
0000
,
0010
0000
1000
0000
0100
0000
0010
0000
0001
1000
0001
0000
1000
0000
0010
0000
,
0100
0000
0001
0000
1000
0000
0001
0000
0010
0000
0100
0000
1000
0001
1000
0000
,
0001
0000
0010
0000
0100
0000
1000
0000
0010
0000
0100
0000
0001
1000
0001
0000
,
1000
0000
0100
0000
0010
0000
0001
0000
1000
0001
1000
0000
0001
0000
0010
0000
,
0100
0000
1000
0000
0010
0000
0100
0000
0001
1000
0001
0000
1000
0000
0010
0000
,
0100
0000
0001
0000
1000
0000
0001
0000
0010
0000
0100
0000
1000
0001
1000
0000
,
0001
0000
0010
0000
0100
0000
1000
0000
0010
0000
0100
0000
0001
1000
0001
0000
,
1000
0000
0010
0000
0100
0000
0001
0000
1000
0001
1000
0000
0001
0000
0100
0000
,
0010
0000
1000
0000
0100
0000
0010
0000
0001
1000
0001
0000
1000
0000
0001
0000
,
1001
0000
0000
0000
,
0000
0000
1000
0010
0100
0010
1000
0001
,
0100
0001
0001
1000
0010
0100
0010
0010
,
1000
1000
0001
0100
0010
1000
0001
0010
,
0001
0000
1000
0000
1000
0000
0010
0000
0100
0000
0010
0000
1000
0010
1000
0010
,
1000
0100
0001
0010
0100
0001
0010
0100
,
1000
0010
0010
0100
0010
1000
0001
0001
,
1000
1000
0010
0001
0100
1000
0001
0100
,
1000
0000
0100
0000
0100
0000
0001
0000
1000
0000
0010
0000
0100
0010
0100
0010
,
0100
0010
1000
0100
0010
0001
0100
1000
,
0010
0001
0001
0010
1000
0100
0010
0010
,
1000
1000
0010
0001
0100
1000
0100
0010
,
0001
0000
0100
0000
0100
0000
0001
0000
0010
0000
0001
0000
1000
0010
1000
0010
,
1000
0010
1000
0001
0100
0010
1000
1000
,
0000
0000
0000
0000
0001
1000
0010
1000
,
0001
0001
0000
0000
0000
0000
0100
0001
,
0010
0000
0010
1000
0100
0000
2002
0000
,
0000
0000
0000
3003
0001
0000
0000
0000
1001
0000
0000
0000
0010
0000
0000
0000
,
0010
0010
1000
0000
1001
0000
0100
0000
,
0100
0100
0001
0000
1001
0000
0010
0000
,
0010
0000
0010
0000
1000
0000
1000
0000
0001
0000
0001
0000
0100
0010
0100
0010
,
0100
0010
0100
0010
0100
0000
0001
0000
0100
0000
0001
0000
0100
0000
0001
0000
,
0100
0001
0010
1000
0010
1000
0010
1000
,
0010
1000
0100
0001
0010
0001
0100
0010
,
0100
0001
1000
0100
1000
0001
0100
0001
,
1000
0010
0001
0100
0010
0100
0001
0010
,
0000
0000
0000
0000
0010
1000
0100
1000
,
0010
0100
0000
0000
0000
0000
0001
0100
,
0010
0100
0001
0010
0000
0000
0000
0000
,
0001
0001
0100
0100
0010
0010
1000
0000
,
1000
0000
0010
0100
0001
1000
0010
0100
,
0001
0010
2002
0000
0000
0000
0000
0000
,
0000
0000
0000
0000
0000
0000
0000
0000
0000
3003
0020
0000
0000
0000
0000
0030
,
2002
0000
0000
3003
1000
0000
0000
0000
0000
0000
0000
0000
0000
0000
0000
0000
,
0000
0001
0000
0000
,
0000
0000
1000
0000
0001
0001
0000
0000
,
0000
0000
0001
0000
1000
1000
0000
0000
,
0000
0000
1000
0000
0010
0010
0000
0100
,
0000
0001
1000
0000
0100
0100
0000
0010
,
0000
0001
1000
0000
0010
0010
0000
0100
,
0000
0001
1000
0000
0100
0100
0000
0010
,
0000
0001
1000
0000
0001
0001
0000
0100
,
0000
0010
0100
0000
0001
0001
0000
0010
,
0000
1000
0010
0000
0100
0100
0000
0010
,
0000
0001
1000
0000
0010
0010
0000
0000
,
0000
1000
0000
0000
,
0000
0100
0000
0000
,
0000
0010
0000
0000
,
0000
0001
0000
0000
,
0000
0000
1000
0000
0100
0000
0010
0001
,
0100
0010
1000
0000
0010
0000
0100
0001
,
0010
0100
1000
0000
0100
0000
0010
0001
,
0010
0100
1000
0000
0010
0000
0100
0001
,
0100
0000
0010
0000
1000
0000
0000
0000
0100
0000
0000
0000
0010
0000
0001
0010
,
0001
0010
0001
0010
1000
0000
0000
0000
0010
0000
0000
0000
0100
0000
0001
0100
,
0001
0100
0001
0100
1000
0000
0000
0000
0100
0000
0000
0000
0010
0000
0001
0100
,
0001
0100
0001
0100
1000
0000
0000
0000
0010
0000
0000
0000
0100
0000
0001
0010
,
0001
0010
0001
0010
1000
0000
0000
0000
0001
0000
0000
0000
1000
0000
0100
0000
,
0010
0001
1000
0000
0001
0000
1000
0010
,
0100
0001
1000
0000
0001
0000
1000
0001
,
0010
0100
1000
0000
0001
0000
1000
0001
,
0100
0010
1000
0000
0001
0000
1000
0100
,
0010
0100
0000
0000
0100
0000
0010
0000
,
0001
0000
0000
0000
0010
0000
0000
0100
0000
0100
0000
0000
1000
0000
0000
0000
,
0000
0010
0001
0000
0010
0100
0000
1000
,
2002
0000
0000
0000
0000
0000
0000
0000
0000
3003
0020
0000
0000
0000
0000
0030
,
2002
0000
0000
3003
1000
0000
1000
0000
0001
0000
0001
0000
0100
0010
0100
0010
,
0100
0010
0100
0000
0001
0000
0001
0000
1000
0000
1000
0000
0010
0100
0010
0100
,
0010
0100
0010
0000
1100
0000
0010
0000
1000
0000
1000
0000
0001
0100
0001
0100
,
0001
0100
0001
0000
0100
0000
0100
0000
0010
0000
0010
0000
1000
0010
1000
0010
,
1000
0010
1000
0000
0101
0000
1000
0000
0001
0000
0001
0000
0100
0010
0100
0010
,
0100
0010
0100
0000
0011
0000
0100
0000
0001
0000
0001
0000
1000
0010
1000
0010
,
1000
0010
1000
0000
0101
0000
1000
0000
0001
0000
0001
0000
1010
0000
0001
0000
,
1000
1000
0002
1003
0000
0000
0000
0000
,
0000
0000
2000
3001
0000
0000
0000
0000
,
0000
0000
0200
0310
0000
0000
0000
0000
,
0000
0000
0020
0130
0001
0001
1000
1000
,
0010
0010
1000
0100
0010
0001
0100
0100
,
0010
0001
1000
0010
0100
0001
0010
0010
,
0100
0001
0001
0010
0100
1000
0010
0010
,
0100
1000
0001
0100
0010
1000
0100
0100
,
0010
1000
1000
0100
0010
0001
0010
0010
,
0100
0001
1000
0010
0100
0001
0100
0100
,
0010
0001
0001
0010
0100
1000
0100
0100
,
0010
1000
0001
0100
0010
1000
0010
0010
,
0100
1000
0001
0010
0100
1000
0100
0100
,
0010
0001
1000
0010
0100
0001
0010
0001
,
0100
0010
0001
0100
1000
0100
0010
0001
,
0100
1000
1000
0001
1000
0010
0010
0010
,
0001
0010
0010
0100
1000
0100
0010
1000
,
0010
0100
1000
0100
0001
1000
0100
0001
,
0010
0010
0100
0100
0001
0001
1000
1000
,
0010
0000
0010
0000
1000
0100
1000
0000
0001
0100
0001
0000
1000
0010
1000
0000
,
0001
0010
0001
0000
1000
0000
0000
0000
0000
0000
0000
0000
0000
0000
0000
0000
,
0000
0000
0000
0000
,
0000
0000
0000
0000
,
0000
0000
0000
0000
0000
0000
1000
0001
,
1000
0100
0010
0100
1000
0100
0010
0100
,
1000
0010
0100
0010
1000
0010
0100
0010
,
1000
0100
0010
0001
1000
0100
0010
0001
,
1000
0010
0100
0001
1000
0010
0100
0001
,
1000
0100
0010
0100
1000
0010
0100
0010
,
1000
0100
0010
0001
1000
0010
0100
0001
,
1000
0010
0100
0010
1000
0100
0010
0100
,
1000
0010
0100
0001
1000
0100
0010
0001
,
1001
0000
0000
0000
;

//--------------- dance-single - ----------------
#NOTES:
     dance-single:
     :
     Medium:
     12:
     0,0,0,0,0:
0000
0000
0000
0000
,
0000
0000
0000
0000
,
0000
0000
0000
0000
,
0000
0000
0000
0000
,
2001
0000
0000
0000
0100
0000
0000
3000
,
1002
0100
0000
0000
0000
0000
0000
0003
,
2001
0000
0000
0000
0100
0000
0000
3000
,
0001
0000
0001
0000
0000
0000
0001
0000
2002
0000
0000
0000
0000
3000
0003
0000
,
1000
0000
0100
0000
0010
0000
0001
0000
0100
0000
0010
0000
1000
0001
1000
0000
,
0001
0000
0100
0000
0010
0000
1000
0000
0100
0000
0010
0000
0001
0100
0001
0100
,
0001
0000
0010
0000
0100
0000
1000
0000
1000
0010
0100
0000
0001
0010
0001
0000
,
0010
0000
0100
0000
0001
0000
1000
0000
0010
0100
0010
0000
0100
0000
0001
0000
,
1000
0000
0100
0000
0010
0000
0001
0000
1000
0000
0010
0000
0100
0001
0100
0000
,
0001
0000
0010
0000
0100
0000
1000
0000
0010
0000
0100
0000
0001
1000
0001
1000
,
0001
0000
0010
0000
0100
0000
1000
0000
1000
0100
0010
0000
0001
0100
0001
0000
,
1000
0000
0100
0000
0010
0000
0001
0000
1000
0010
1000
0000
0001
0000
0001
0000
,
1000
0000
0100
0000
0010
0000
0001
0000
0100
0000
0010
0000
1000
0100
1000
0000
,
0100
0000
0010
0000
0001
0000
0100
0000
0010
0000
1000
0000
0100
0001
0100
0001
,
0100
0000
0001
0000
0010
0000
0100
0000
1000
0010
0100
0000
0001
0010
0001
0000
,
1000
0000
0100
0000
0010
0000
0100
0000
1000
0010
1000
0000
0001
0000
0010
0000
,
0100
0000
1000
0000
0010
0000
0100
0000
1000
0000
0001
0000
1000
0100
1000
0000
,
0100
0000
0010
0000
0001
0000
0100
0000
0010
0000
1000
0000
1000
0010
1000
0010
,
1000
0000
0100
0000
0010
0000
0001
0000
0001
0010
0100
0000
1000
0100
1000
0000
,
1000
0000
0100
0000
0010
0000
0001
0000
0100
0010
0100
0000
0010
0000
1000
0000
,
2002
0000
0000
3003
,
0020
0000
0030
0000
0010
0000
0001
0000
0100
0010
0100
0000
2000
0000
0000
3000
,
0100
0000
0001
0100
0001
0000
1000
0000
0200
0000
0000
0300
0010
0001
0010
0000
,
0001
0100
0001
0000
1000
0000
0010
0000
0200
0000
0000
0300
0001
0000
1000
0000
,
0001
0000
0100
0000
0010
1000
0000
0000
1010
0000
0000
0000
0010
1000
0010
1000
,
0100
1000
0100
1000
0001
0000
1000
0000
0010
0100
0010
0000
0002
0000
0000
0003
,
0100
0000
1000
0100
1000
0000
0001
0000
0020
0000
0000
0030
1000
0100
1000
0000
,
1000
0010
1000
0000
0001
0000
0100
0000
0020
0000
0000
0030
1000
0000
0001
0000
,
1000
0000
0010
0000
0100
0001
0000
0000
0101
0000
0000
0000
0100
0001
0100
0001
,
0010
0001
0010
0001
1000
0000
0010
0000
0100
0000
0000
0000
0010
1000
0000
0000
,
0010
0000
0100
0001
0100
0000
0010
0000
1000
0000
0100
0000
1000
0010
1000
0000
,
0001
0010
0001
0000
0100
0000
0001
0000
0010
0000
0000
0000
0100
0010
0100
0010
,
1000
0000
0010
0000
0100
0001
0000
0000
0100
0010
0000
0000
1000
0010
0100
0001
,
1000
0000
0001
0000
1001
0000
1000
0000
0001
0100
0010
1000
0001
0010
0001
0000
,
0000
0000
0000
0000
0000
0000
0000
0000
1001
0000
0001
0000
1000
0010
0100
0001
,
1000
0100
1000
0000
0000
0000
0000
0000
0000
0000
0000
0000
1001
0000
1000
0000
,
0010
0110
0000
0100
1001
0000
2002
0000
,
0000
0000
0000
3003
0100
0000
0000
0000
1001
0000
0000
0000
0100
0000
1000
0000
,
0001
1000
0001
0000
0100
0000
0000
0000
1001
0000
0000
0000
0100
0000
0001
0000
,
1000
0001
1000
0000
0100
0000
0000
0000
1001
0000
0000
0000
0100
0000
1000
0000
,
0001
1000
0001
0100
0010
1000
0100
1000
0010
0100
0010
1000
0100
1000
0010
0100
,
0001
1000
0010
0000
1000
0000
0000
0000
0010
0000
1000
0000
0010
0100
0001
0100
,
0010
1000
0100
1000
0001
0000
0000
0000
0100
0000
0001
0000
0100
0010
1000
0010
,
0100
0001
0010
0001
1000
0000
0000
0000
0001
0000
0100
0000
0001
0100
0010
0100
,
0001
1000
0010
0100
0001
0000
0000
0000
1000
0000
0010
0000
1000
0010
0100
0010
,
1000
0001
0100
0010
1000
0000
0000
1000
0000
0000
1000
0000
0100
1000
0010
0100
,
0001
0000
0000
0000
0100
0000
0000
0000
0001
0000
0000
0001
0000
0000
0001
0000
,
0010
0001
0100
0010
1000
0000
0000
0000
0010
0000
0000
0000
1000
0000
0000
1000
,
0000
0000
1000
0000
0100
1000
0010
0100
0001
0000
0000
0000
0100
0000
0000
0000
,
0010
0100
0010
0000
1000
0100
1000
0000
0001
0100
0001
0000
1000
0000
0010
0000
,
1000
0000
1010
0000
0000
0011
0000
0010
,
0110
2002
0000
0000
,
0000
0000
0000
0000
,
0003
0000
3000
0000
2000
0000
0000
0100
0000
0000
0200
0000
0000
0000
0000
0000
,
0000
0000
0300
0000
3002
0000
0000
0010
0000
0000
0020
0000
0000
0000
0000
0000
,
0000
0000
0030
0000
2003
0000
0000
0010
0000
0000
0020
0000
0000
0000
0000
0000
,
0000
0000
0030
0000
3002
0000
0000
0100
0000
0000
0200
0000
0000
0000
0000
0000
,
0000
0000
0300
0000
2003
0000
0000
0100
0000
0000
0100
0000
0000
0000
0100
0000
,
0000
0000
0100
0000
3200
0000
0000
0010
0000
0000
0010
0000
0000
0000
0010
0000
,
0000
0000
0010
0000
0320
0000
0000
0001
0000
0000
0001
0000
0000
0000
0001
0000
,
0000
0000
0001
0000
0032
0000
0000
1000
0000
0000
1000
0000
0000
0000
1000
0000
,
0000
0000
1000
0000
2003
0000
0000
0010
0000
0000
0010
0000
0000
0000
0010
0000
,
0000
0000
0010
0000
3020
0000
0000
0100
0000
0000
0100
0000
0000
0000
0100
0000
,
0000
0000
0100
0000
0230
0000
0000
0001
0000
0000
0001
0000
0000
0000
0001
0000
,
0000
0000
0001
0000
0302
0000
0000
1000
0000
0000
1000
0000
0000
0000
1000
0000
,
0000
0000
1000
0000
1003
0100
1000
0100
1000
0100
0000
0000
0100
0010
0100
0010
,
0100
0010
0000
0000
0010
0001
0010
0001
0010
0001
0000
0000
0001
0100
0001
0100
,
0001
0100
0000
0000
0010
1000
0010
1000
0010
1000
0000
0000
0100
1000
0100
1000
,
0100
1000
0000
0000
0001
0010
0001
0010
0001
0010
0000
0000
1000
0001
1000
0001
,
1000
0001
0000
0000
1000
0000
0000
0000
1001
0000
0000
0000
1000
0100
1000
0100
,
1000
0100
1000
0100
0010
0000
0000
0000
0110
0000
0000
0000
0100
0010
0100
0010
,
0100
0010
0100
0010
0001
0000
0000
0000
1001
0000
0000
0000
0001
0100
0001
0100
,
0001
0100
0001
0100
0010
0000
0000
0000
0110
0000
0000
0000
0010
0100
0010
0100
,
0010
0100
0010
0100
1000
0000
0000
0000
1001
0000
0000
0000
1000
0010
1000
0010
,
1000
0010
1000
0010
0100
0000
0000
0000
0110
0000
0000
0000
0100
0001
0100
0001
,
0100
0001
0100
0001
0010
0000
0000
0000
0011
0000
0000
0000
0001
0010
0001
0010
,
0001
0010
0001
0010
0100
0000
0000
0000
0101
0000
0000
0000
0100
0010
0100
0010
,
0100
0010
0100
0010
1000
0000
0000
0000
1100
0000
0000
0000
0100
1000
0100
1000
,
0100
1000
0100
1000
0010
0000
0000
0000
1010
0000
0000
0000
0010
0001
0010
0001
,
0010
0001
0010
0001
0100
0000
0000
0000
0110
0000
0000
0000
0010
0100
0010
0100
,
0010
0100
0010
0100
0001
0000
0000
0000
1001
0000
0000
0000
1000
0010
1000
0010
,
1000
0010
1000
0010
0100
0000
0000
0000
0110
0000
0000
0000
0010
0100
0010
0001
,
0100
0010
0001
0010
0100
0000
0000
0000
0210
0000
0000
0000
0001
0000
0000
0000
,
1300
0000
0000
0000
1001
0000
0000
1001
0000
0000
1001
0000
0000
0000
1001
0000
,
0000
1000
0100
0000
0010
0001
0000
0010
,
2002
0000
0000
0000
,
0003
0000
3000
0000
0010
1000
0010
1000
0010
1000
0010
1000
0010
1000
0010
1000
,
0010
0001
1000
0100
0010
0001
0100
0010
,
1000
0000
0001
0000
0100
0001
0100
0001
0100
0001
0100
0001
0100
0001
0100
0001
,
0100
1000
0001
0010
0100
1000
0010
0100
,
0001
0000
1000
0000
1000
0100
1000
0100
1000
0100
1000
0100
1000
0100
1000
0100
,
1000
0000
0100
0000
0001
0010
0001
0010
0001
0010
0001
0010
0001
0010
0001
0010
,
0001
0000
0010
0000
1000
0001
1000
0001
1000
0001
1000
0001
0100
0010
0100
0010
,
0100
0010
0100
0010
0002
0000
0200
0300
0000
0000
0200
0300
0000
0000
0200
0300
,
0200
0300
0200
0303
2000
0000
0200
0300
0000
0000
0200
0300
0000
0000
0200
0300
,
0200
0300
0200
3300
0020
0000
0200
0300
0000
0000
0200
0300
0000
0000
0200
0300
,
0200
0300
0200
0330
2000
0000
0200
0300
0200
0300
0200
0300
0200
0300
0200
0300
,
0200
0300
0200
3300
0002
0000
0023
0000
0032
0000
0203
0000
0320
0000
0230
0000
,
2300
3020
2030
3002
0203
0302
0023
0230
,
0320
2030
3020
0230
2300
3020
2030
3002
,
0203
0302
0023
0230
0320
2030
3200
0320
,
2030
3200
2300
3002
0203
0302
0023
0230
,
0302
0203
0320
0230
2300
3020
2030
3002
,
0023
0032
0023
0230
0302
0203
0320
0230
,
2300
3200
2300
3002
0203
0302
0023
0230
,
0302
2003
3002
0023
0032
2003
3020
2030
,
3200
0320
2030
3020
0230
0320
0032
0203
,
0302
2003
3200
2300
3200
0320
0230
0302
,
0023
0230
0302
0023
0032
2003
3020
2030
,
3200
0320
0230
0302
0023
0230
0302
0203
,
0302
2003
3200
2300
3200
0320
2030
3020
,
0230
0320
0032
0023
0032
2003
3020
2030
,
3200
0320
2030
3020
0230
0320
0032
0203
,
0302
2003
3200
0000
0000
0000
0000
0000
,
0000
0000
0000
0000
,
0000
0000
0000
0000
,
0000
0000
0300
0000
0000
0000
0010
0100
,
0002
0023
2030
3020
0032
0203
2300
3020
,
0032
0023
2030
3200
0302
0203
2300
3020
,
0032
0203
2300
3200
0302
0203
0320
0032
,
0023
2030
3020
0230
2300
3020
0032
0023
,
2030
3200
0302
0023
2030
3020
0032
0203
,
2300
3200
0302
0023
0230
0302
0203
2300
,
3002
0023
2030
3020
0230
2300
3002
0023
,
2030
3020
0032
0203
2300
3020
0032
0023
,
0230
0000
0000
0000
0000
0300
0000
0000
;

//--------------- dance-single - ----------------
#NOTES:
     dance-single:
     :
     Hard:
     14:
     0,0,0,0,0:
0000
0000
0000
0000
,
0000
0000
0000
0000
,
0000
0000
0000
0000
,
0000
0000
0000
0000
,
2001
0000
0000
0000
0000
0000
0000
3000
,
0001
1002
0000
0000
0000
0000
0000
0003
,
2010
0000
0000
0000
0000
0000
0000
3000
,
0001
0000
0001
0000
0000
0000
0001
0000
0101
0000
0001
0100
0010
1000
0100
0000
,
1000
0000
0100
0000
0001
0000
0010
0000
1000
0000
0010
0000
0001
0100
1000
0000
,
0001
0000
0010
0000
0100
0000
0001
0000
0100
0000
1000
0000
0010
0001
0100
0010
,
1000
0000
0100
0000
0001
0000
0010
1000
0100
0000
0010
0001
0100
0000
1000
0000
,
0010
0000
0100
0000
0001
0000
0010
0100
1000
0000
0001
0010
1000
0000
0100
0000
,
0001
0000
0010
0000
0100
0000
1000
0000
0010
0000
0001
0000
0100
0010
1000
0000
,
0100
0000
0001
0000
0010
0000
0100
0000
0001
0000
0100
0000
0010
0001
0010
0100
,
1000
0000
0010
0000
0100
0000
0001
0000
0010
0100
0001
0000
0010
0100
1000
0000
,
0010
0000
0001
0000
0100
0000
0010
0000
0100
0010
1000
0000
0001
0010
0100
0000
,
2002
0000
3003
0000
1000
0000
0010
0000
0001
0000
0100
0000
1000
0100
0001
0000
,
1000
0000
0010
0000
0100
0000
0001
0000
0010
0000
0100
0000
1000
0010
0001
0000
,
0010
0000
0100
0000
1000
0000
0001
0000
0100
1000
0010
0000
0001
0010
0100
0000
,
1000
0000
0010
0000
0100
0000
0001
0000
1000
0100
0010
0000
0001
0100
0010
0000
,
2002
0000
3003
0000
1000
0000
0100
0000
0001
0000
0010
0000
1000
0100
0001
0000
,
0010
0000
0100
0000
1000
0000
0010
0000
0001
0000
0100
0000
1000
0010
0100
0000
,
0001
0000
0010
0000
0100
0000
1000
0000
0001
0010
1000
0000
0001
0100
1000
0000
,
1000
0000
0010
0000
0100
0000
0001
0000
1000
0100
0010
0000
0100
0010
0001
0000
,
2002
0000
0000
3003
,
0020
0000
0000
0030
1000
0000
0010
0000
0100
0001
0010
0000
0100
0000
1000
0000
,
0001
0010
0100
0010
0001
0000
1000
0000
0010
0000
0100
0000
0001
1000
0010
0000
,
0100
0001
0100
0010
1000
0000
0001
0000
0100
0010
0001
0000
0010
0000
1000
0000
,
0001
0100
1000
0100
0001
0000
1000
0000
0010
0000
0100
0000
0001
0000
0010
0001
,
0100
0010
1000
0001
0100
0000
0010
0000
0001
0000
0100
0000
1000
0000
0001
0010
,
0001
0100
0010
1000
0001
0000
0100
0000
0001
0000
0010
0000
0100
1000
0010
0000
,
0100
0001
0100
0001
1000
0000
0010
0000
0100
0000
0001
0000
1000
0010
0100
0000
,
0010
0000
0100
0000
0010
0100
0000
0010
1000
0000
0100
1000
0000
0010
1000
0000
,
0100
0000
1000
0000
0010
0000
0100
0000
1000
0000
0100
0000
0001
0000
1000
0100
,
1000
0010
0100
0001
0100
0000
0010
0000
1000
0000
0100
0000
0010
0001
0100
0000
,
0010
1000
0010
1000
0001
0000
0100
0000
0010
0000
1000
0000
0001
0100
0010
0000
,
1000
0000
0001
0000
0100
0010
0000
0100
0001
0000
0010
0001
0000
0100
0001
0000
,
0100
0000
0001
0000
1001
0000
1000
0000
0010
1000
0001
0100
0010
0100
0001
0000
,
1000
0000
0000
0000
0010
0000
0000
0000
1001
0000
0001
0000
0100
0001
1000
0010
,
0100
0010
1000
0000
0001
0000
0000
0000
1000
0000
0000
0000
1001
0000
1000
0000
,
0010
1000
0001
0100
0010
0100
0001
0000
1000
0000
1010
0000
0002
0000
0000
0000
,
0000
0000
0000
0003
0100
0000
0000
0000
1010
0000
0000
0000
0001
1000
0001
1000
,
0001
1000
0001
1000
0010
0000
0000
0000
0101
0000
0000
0000
1000
0001
1000
0001
,
1000
0001
1000
0001
0100
0000
0000
0000
1010
0000
0000
0000
0001
1000
0001
1000
,
0001
1000
0001
1000
0010
0100
0010
1000
0001
0100
0010
0001
0010
1000
0010
0100
,
0001
0100
0010
0000
1100
0000
0001
0100
0001
0000
1100
0000
0010
0100
0001
0100
,
0010
1000
0100
1000
0011
0000
1000
0010
1000
0000
0011
0000
0100
0010
1000
0010
,
0100
0001
0010
0001
1010
0000
0001
0010
0001
0000
1010
0000
0001
0100
0010
0100
,
0001
1000
0010
1000
0101
0000
1000
0100
1000
0000
0101
0000
1000
0010
0100
0010
,
1000
0001
0100
0010
1100
0000
0001
0100
0001
0000
1010
0000
0010
1000
0001
0100
,
0001
0000
0000
0000
0101
0000
0000
0000
0011
0000
1000
0010
1000
0000
0101
0000
,
0100
0001
1000
0010
1000
0000
0000
0000
1010
0000
0000
0000
1100
0000
0001
0010
,
0001
0000
1010
0000
0010
1000
0001
0100
0001
0000
0000
0000
0101
0000
0000
0000
,
0011
0000
1000
0100
1000
0000
0101
0000
0100
0001
1000
0010
1000
0000
0000
0000
,
1010
0000
1010
0101
0000
1001
0000
0101
,
1010
2002
0000
0000
,
0000
0000
0000
0000
,
0000
0003
3000
0000
2000
0000
0000
0010
0000
0000
0200
0000
0000
0000
0000
0000
,
0000
0000
0000
0300
3002
0000
0000
0010
0000
0000
0200
0000
0000
0000
0000
0000
,
0000
0000
0000
0300
2003
0000
0000
0100
0000
0000
0020
0000
0000
0000
0000
0000
,
0000
0000
0000
0030
3002
0000
0000
0100
0000
0000
0020
0000
0000
0000
0000
0000
,
0000
0000
0000
0030
2003
0000
0000
0100
0000
0000
0010
0000
0000
0000
0001
0000
,
0000
0000
0000
0000
0020
0000
0000
0030
3200
0000
0000
0000
0000
0000
0010
0000
0000
0000
0000
0000
0001
0000
0000
0000
0000
0000
0000
0000
1000
0000
0000
0000
,
0000
0000
0000
0000
0002
0000
0000
0003
0320
0000
0000
0000
0000
0000
0001
0000
0000
0000
0000
0000
1000
0000
0000
0000
0000
0000
0000
0000
0100
0000
0000
0000
,
0000
0000
0000
0000
2000
0000
0000
3000
0032
0000
0000
0000
0000
0000
1000
0000
0000
0000
0000
0000
0100
0000
0000
0000
0000
0000
0000
0000
0010
0000
0000
0000
,
0000
0000
0100
0003
2100
0000
0000
0010
0000
0000
0100
0000
0000
0000
0001
0000
,
0000
0000
0100
3000
0210
0000
0000
0001
0000
0000
0010
0000
0000
0000
1000
0000
,
0000
0000
0010
0300
0021
0000
0000
1000
0000
0000
0001
0000
0000
0000
0100
0000
,
0000
0000
0001
0030
1002
0000
0000
0100
0000
0000
1000
0000
0000
0000
0010
0000
,
0000
0000
1000
0003
1000
0100
0001
0100
1000
0010
0001
0100
1000
0010
0100
0010
,
1000
0100
0001
0100
1000
0010
0100
0001
0010
1000
0010
0001
1000
0100
0010
0001
,
1000
0010
0001
0010
1000
0100
0001
0010
1000
0010
0001
0100
1000
0010
0100
0001
,
0010
0001
0100
0010
1000
0100
0001
0100
1000
0010
0001
0010
1000
0100
0001
0100
,
1000
0010
0100
0001
1000
0000
0001
0000
0110
0000
1000
0000
0001
0010
0100
1000
,
0010
0100
0001
1000
1001
0000
1000
0000
0110
0000
0001
0000
1000
0010
0100
0001
,
0010
0100
1000
0001
1001
0000
0001
0000
0110
0000
1000
0000
0001
0100
0010
1000
,
0100
0010
0001
1000
1001
0000
1000
0000
0110
0000
0001
0000
1000
0100
0010
0001
,
0100
0010
1000
0001
1001
0000
0010
0000
0101
0000
0010
0000
1100
0100
1000
0010
,
0100
0001
0010
0001
0101
0000
0010
0000
1100
0000
1000
0000
0011
0010
0001
0100
,
0010
1000
0100
1000
1010
0000
0100
0000
0011
0000
0100
0000
1010
0010
1000
0100
,
0010
0001
0100
0001
0011
0000
1000
0000
0110
0000
1000
0000
0101
0100
0001
0010
,
0100
1000
0010
1000
1100
0000
0110
0000
0011
0000
1001
0000
1100
0100
0001
0010
,
1000
0010
0001
0100
1100
0000
0110
0000
0101
0000
1001
0000
1010
0010
0001
0100
,
1000
0100
0001
0010
1010
0000
0110
0000
0101
0000
1001
0000
0011
0010
1000
0100
,
0001
0100
1000
0010
0011
0000
0110
0000
1010
0000
1001
0000
0101
0100
1000
0010
,
0001
0010
1000
0100
0101
0000
0110
0000
1001
0000
1010
0000
1100
0100
0001
0100
,
1000
0100
0001
0100
1100
0000
0000
0000
0110
0000
0000
0000
0011
0000
0000
0000
,
1001
0000
0000
0000
1010
0000
0000
0011
0000
0000
0101
0000
0000
0000
1100
0000
,
0000
0100
1001
0000
0010
1001
0000
0110
,
2002
0000
0000
0000
,
0000
0003
3000
0000
0001
1000
0100
1000
0010
0100
0001
1000
0001
0100
0010
1000
,
0100
1000
0010
0100
0010
1000
0001
0100
0010
1000
0100
1000
0010
0100
0001
0100
,
0010
1000
0001
0100
0010
0100
0001
1000
0010
1000
0001
1000
0010
0100
0001
0100
,
0001
0100
0010
1000
0010
0100
0001
1000
0001
0100
0010
0100
0001
0100
0010
1000
,
0001
1000
0010
0100
0001
0100
0010
1000
0001
0100
0010
1000
0010
0100
0010
1000
,
0001
0100
0010
1000
0010
0100
0001
1000
0010
0100
0001
0100
0010
1000
0001
0100
,
0010
1000
0001
0100
0010
1000
0001
0010
0001
0100
0001
0010
0001
0100
0010
1000
,
0010
0100
0001
0010
0002
0000
0100
0000
0000
0000
0100
0000
0000
0000
0100
0000
,
0100
0103
1000
0020
0000
0100
0000
0100
,
0100
0130
1000
0002
0000
0100
0000
0100
,
0100
0103
0200
0010
0010
0310
2000
0010
,
0010
0000
3010
0000
0200
0000
0320
0000
2030
0000
3020
0000
0032
0000
0103
0001
,
0020
0000
0130
0010
2000
0000
3020
0000
0230
0000
2300
0000
3200
0000
0301
0010
,
0200
0000
1300
0010
2000
0000
3200
0000
0302
0000
0023
0000
0230
0300
0100
1000
,
0020
0000
0031
0010
0200
0000
0302
0000
0023
0000
2030
0000
3020
0000
0031
0100
,
0020
0000
2030
0000
3020
0000
0230
0000
0302
0000
0203
0000
2300
0000
3010
1000
,
0200
0000
0310
0100
0002
0000
0203
0000
0320
0000
0032
0000
0203
0000
1300
0100
,
0020
0000
0031
0100
0002
0000
0203
0000
2300
0000
3200
0300
0200
0000
0310
0001
,
0200
0000
1300
0100
0020
0000
2030
0000
3020
0000
0032
0000
0203
0000
1300
0010
,
0200
0000
0000
0000
0302
0000
0000
0000
2003
0000
0000
0000
0100
3000
0000
0000
0002
0000
0000
0000
1000
0003
0000
0000
0020
0000
0000
0000
0100
0030
0100
0000
,
0010
0000
0000
0000
1000
0000
1000
0000
0002
0000
0000
0000
0010
0003
0000
0000
2000
0000
0000
0000
0001
3000
0000
0000
0200
0000
0000
0000
0010
0300
0010
0000
,
0100
0000
0000
0000
0001
0000
0001
0000
2000
0000
0000
0000
0010
3000
0000
0000
0002
0000
0000
0000
0100
0003
0000
0000
0002
0000
0000
0000
1000
0003
1000
0000
,
0010
0000
0000
0000
0100
0000
0100
0000
0002
0000
0000
0000
0010
0003
0000
0000
0200
0000
0000
0000
0010
0300
0000
0000
2000
0000
0000
0000
0001
3000
0001
0000
,
0100
0000
0000
0000
0010
0000
0010
0000
2000
0000
0000
0000
0100
3000
0000
0000
0002
0000
0000
0000
1000
0003
0000
0000
0002
0000
0000
0000
0100
0003
0100
0000
,
0010
0000
0000
0000
1000
0000
1000
0000
0002
0000
0000
0000
0010
0003
0000
0000
2000
0000
0000
0000
0001
3000
0000
0000
0200
0000
0000
0000
0010
0300
0010
0000
,
0100
0000
0000
0000
0001
0000
0001
0000
2000
0000
0000
0000
0100
3000
0000
0000
0020
0000
0000
0000
0100
0030
0000
0000
0002
0000
0000
0000
1000
0003
1000
0000
,
0010
0000
0000
0000
0100
0000
0100
0000
0002
0000
0000
0000
0100
0003
0000
0000
2000
0000
0000
0000
0010
3000
0000
0000
2000
0000
0000
0000
0001
3000
0001
0000
,
0100
0000
0010
0010
2000
0000
0000
0000
0000
0000
0000
0000
0000
0000
0000
0000
,
0000
0000
0000
0000
,
0000
0000
0000
0000
,
0000
0000
3000
0000
0000
0000
0110
1001
,
2000
3200
0302
0203
2300
3020
0032
0203
,
2300
3200
0302
0023
2030
3020
0032
0203
,
2300
3020
0032
0023
2030
3020
0230
2300
,
3200
0302
0203
0320
0032
0203
2300
3200
,
0302
0023
2030
3200
0302
0203
2300
3020
,
0032
0023
2030
3200
0320
2030
3020
0032
,
2003
3200
0302
0203
0320
0032
2003
3200
,
0302
0203
2300
3020
0032
0203
2300
3200
,
0320
0000
0000
0000
0000
0030
0000
0000
;

//--------------- dance-single - ----------------
#NOTES:
     dance-single:
     :
     Challenge:
     15:
     0,0,0,0,0:
0000
0000
0000
0000
,
0000
0000
0000
0000
,
0000
0000
0000
0000
,
0000
0000
0000
0000
,
2000
3001
0020
0031
0200
0301
0020
0031
,
2000
3001
0020
0130
2000
0000
3000
0000
,
0220
0330
0000
0000
,
0001
0000
0001
0000
0001
0001
0001
0001
,
1000
0000
0100
0000
0010
0000
0100
0000
1000
0000
0001
0000
0010
1000
0001
0010
,
0100
0000
0001
0000
0100
0000
0010
1000
0100
0000
0010
0000
0001
0100
0010
1000
,
0100
0000
0001
0000
0100
0000
1000
0000
0001
0100
1000
0000
0100
0001
1000
0100
,
0010
0000
0100
0000
1000
0000
0001
0100
0010
1000
0010
0001
0010
0000
1000
0001
,
1000
0000
0010
0000
0001
0000
0010
0000
1000
0000
0100
0000
0010
0001
1000
0010
,
0100
0000
0001
0000
0010
0000
0100
0010
0001
0000
0100
0000
0010
1000
0100
1000
,
0001
0000
0010
0000
1000
0000
0010
0000
0001
0100
0010
0001
0010
1000
0100
0010
,
0001
0000
0100
0000
0100
0000
1000
0010
0100
0001
0010
0100
1000
0000
0001
0000
,
0200
0000
0310
0000
2000
0000
3001
0010
0200
0000
1300
0000
0002
0000
1003
0100
,
0020
0000
0031
0000
2000
0000
3010
0000
0200
0000
0301
0010
0100
0000
0001
0000
,
1000
0000
0010
0000
0001
0000
0010
0000
1000
0100
0001
1000
0100
0000
0001
1000
,
0001
0000
0010
0000
0100
0000
1000
0010
0100
0001
0010
0100
1000
0000
0001
0000
,
0020
0000
0130
0000
2000
0000
3001
0100
0020
0000
1030
0000
0002
0000
1003
0010
,
0200
0000
0301
0000
2000
0000
3100
0000
0020
0000
0031
0100
0010
0000
0001
0000
,
1000
0000
0100
0000
0001
0000
0100
0000
1000
0010
0001
1000
0010
0000
0001
1000
,
0001
0000
0100
0000
0010
0000
1000
0100
0010
0001
0100
0010
1000
0000
0001
0000
,
2002
0000
0000
0000
0000
0000
0000
3003
,
0020
0000
0030
0000
1000
0100
1000
0001
0100
0010
1000
0100
0001
0100
1000
0010
,
0100
0001
0010
0100
1000
0010
0100
0010
0100
0010
1000
0100
0001
0100
1000
0010
,
0100
0001
0010
0100
1000
0010
1000
0001
0010
0100
1000
0010
0001
0010
1000
0100
,
0010
0001
0100
0010
1000
0100
0010
0100
1000
0010
0100
0010
1000
0100
0001
0100
,
1000
0010
0001
0010
1000
0010
1000
0001
0010
0100
1000
0010
0001
0010
1000
0100
,
0010
0001
0100
0010
1000
0100
0010
0100
0010
0100
1000
0010
0001
0010
1000
0100
,
0010
0001
0100
0010
1000
0100
1000
0001
0100
0010
1000
0100
0001
0100
1000
0010
,
0100
0001
0010
0100
1000
0010
0100
0010
1000
0100
0010
0100
1000
0010
0001
0010
,
1000
0100
0001
0100
1000
0010
1000
0100
0010
0001
1000
0010
0001
0010
1000
0001
,
0010
0100
1000
0010
1000
0100
0010
0100
0010
0001
0100
0010
0100
0010
1000
0100
,
0010
0001
0100
0010
1000
0100
1000
0010
0100
0001
1000
0010
0001
0010
1000
0001
,
0100
0010
1000
0100
1000
0010
0001
0010
1000
0010
0001
0010
1000
0100
0001
0100
,
1000
0100
0001
0100
1000
0010
0100
0001
0010
1000
0010
0001
0100
0010
1000
0100
,
1000
0000
0000
0000
1000
0000
0000
0000
0001
0100
0010
1000
0100
0001
0100
1000
,
0010
0100
0001
0010
0001
0000
0000
0000
0001
0000
0000
0000
1000
0100
1000
0010
,
0100
0001
1000
0010
0001
0010
1000
0001
0100
0010
1000
0100
2000
0000
0000
0000
,
0000
0000
0000
3000
0001
0000
0000
0000
1010
0000
0000
0000
0100
0010
0100
0010
,
1000
0100
0010
0001
1000
0000
0000
0000
0011
0000
0000
0000
0010
0100
0010
0100
,
0001
0010
0100
1000
0001
0000
0000
0000
1010
0000
0000
0000
0100
0010
0100
0010
,
1000
0100
0010
0001
1000
0100
1000
0001
0100
1000
0100
0001
1000
0100
0010
0001
,
0100
1000
0100
0001
1000
0010
0100
0010
1000
0001
0010
0100
1000
0010
0100
0001
,
0010
0001
0100
0010
1000
0100
0001
0100
1000
0010
0100
0001
0010
0100
1000
0100
,
0010
0001
0100
0010
1000
0100
0010
0100
1000
0001
0100
0010
1000
0100
0010
0001
,
0100
0001
0010
0100
1000
0010
0001
0010
1000
0100
0010
0001
0100
0010
1000
0010
,
0100
0001
0010
0100
1000
0010
0100
0001
0010
0001
0100
0010
1000
0100
0010
0001
,
1000
0000
0000
0000
1100
0000
0000
0000
0001
0100
0010
1000
0100
1000
0010
0100
,
0001
0010
0100
1000
0001
0000
0000
0000
0011
0000
0000
0000
1000
0100
0010
0001
,
0100
0001
0010
0100
1000
0010
0100
0001
1000
0000
0000
0000
1010
0000
0000
0000
,
0001
0010
0100
1000
0010
1000
0100
0010
0001
0100
0010
1000
0001
0000
0000
0000
,
0101
0000
1100
0000
0000
0011
0000
1010
,
0101
2002
0000
0000
,
0000
0000
0000
0000
0000
0000
3003
0000
1000
0000
1000
0000
1000
0000
1000
0000
0100
0000
0100
0000
0100
0000
0100
0100
0010
0000
0010
0000
0010
0000
0010
0000
,
0001
0000
0001
0000
0001
0000
0001
0001
2000
0000
0000
0000
0000
0000
0100
0000
0000
0000
0000
0000
0001
0000
0000
0000
0000
0000
0000
0000
0010
0000
0000
0000
,
0001
0000
0100
0000
3002
0000
0000
0010
0000
0000
1000
0000
0000
0000
0100
0000
,
1000
0000
0010
0000
2003
0000
0000
0010
0000
0000
0001
0000
0000
0000
0100
0000
,
0001
0000
0010
0000
3002
0000
0000
0100
0000
0000
1000
0000
0000
0000
0010
0000
,
1000
0000
0100
0000
0023
0000
0000
1000
0100
0000
0001
0000
0100
0000
1000
0000
,
0001
0000
1000
0000
0230
0000
0000
0001
0010
0000
1000
0000
0010
0000
0001
0000
,
1000
0000
0001
0000
0320
0000
0000
0001
0100
0000
1000
0000
0100
0000
0001
0000
,
1000
0000
0001
0000
0230
0000
0000
1000
0010
0000
0001
0000
0010
0000
1000
0000
,
0001
0000
1300
0000
2100
0000
0000
0010
0100
0000
0001
3000
0120
0000
1000
0000
,
0001
0000
0100
0030
2010
0000
0000
0100
0010
0000
0001
3000
0120
0000
0001
0000
,
1000
0000
0100
0030
0012
0000
0000
0100
0010
0000
1000
0003
0210
0000
0001
0000
,
1000
0000
0010
0300
0102
0000
0000
0010
0100
0000
1000
0003
0210
0000
1000
0000
,
0001
0000
0010
0300
1000
0100
0001
0100
1000
0010
0001
0100
1000
0010
0100
0010
,
1000
0100
0001
0100
1000
0010
0100
0001
0010
1000
0010
0001
1000
0100
0010
0001
,
1000
0010
0001
0010
1000
0100
0001
0010
1000
0010
0001
0100
1000
0010
0100
0001
,
0010
1000
0010
0001
1000
0100
0001
0100
1000
0010
0001
0010
1000
0100
0001
0100
,
1000
0010
0100
0001
1001
0000
1100
0000
1010
0000
0110
0000
1100
0100
1000
0001
,
0100
1000
0100
0001
1001
0000
0011
0000
0101
0000
0110
0000
0011
0010
0001
1000
,
0010
0001
0010
1000
1001
0000
1010
0000
0110
0000
1100
0000
1010
0010
1000
0001
,
0010
1000
0010
0001
1001
0000
0101
0000
0110
0000
0011
0000
0101
0100
0001
1000
,
0100
0001
0100
1000
1001
0000
1100
0000
1010
0000
0110
0000
1100
0100
1000
0001
,
0010
1000
0010
0001
1001
0000
0011
0000
0101
0000
0110
0000
0011
0010
0001
1000
,
0100
0001
0100
1000
1001
0000
1010
0000
0110
0000
1100
0000
1010
0010
1000
0001
,
0100
1000
0100
0001
1001
0000
0101
0000
0110
0000
0011
0000
0101
0100
0001
1000
,
0010
0001
0010
1000
1001
0000
1100
0000
0101
0000
0110
0000
1010
0010
1000
0001
,
0100
1000
0010
0001
1001
0000
1010
0000
0011
0000
0110
0000
1100
0100
1000
0001
,
0010
1000
0100
0001
1001
0000
0011
0000
1010
0000
0110
0000
0101
0100
0001
1000
,
0010
0001
0100
1000
1001
0000
0101
0000
1100
0000
0110
0000
0011
0010
0001
1000
,
0100
0001
0010
1000
1001
0000
1100
0000
0101
0000
0011
0000
0110
0100
0001
0010
,
1000
0100
0001
0100
1100
1000
0000
0000
0110
0000
0000
0001
0011
0000
0000
0000
,
1001
0000
0000
0000
1100
0000
0000
0101
0000
0000
0011
0000
0000
0000
1010
0000
,
0000
0110
1100
1010
0110
0101
0011
0110
,
0101
2002
0000
0000
0000
0000
0000
0000
,
0000
0000
0003
3000
0001
1000
0100
1000
0010
0100
0001
1000
0001
0100
0010
1000
,
0100
1000
0010
0100
0010
1000
0100
0001
0100
1000
0001
0100
1000
0100
0001
1000
,
0100
0001
0100
1000
0010
0100
0001
1000
0010
1000
0001
1000
0010
0100
0001
0100
,
0001
0100
0010
1000
0001
0010
0001
0100
0010
1000
0100
1000
0001
0100
0001
0010
,
0100
1000
0010
1000
0001
0100
0010
1000
0001
0100
0010
1000
0001
0010
0100
0010
,
0001
1000
0100
0010
0001
0100
0010
1000
0001
0100
0010
1000
0001
0010
0100
0010
,
0001
1000
0100
0010
0001
0100
0010
1000
0001
0100
0010
1000
0001
0100
0010
1000
,
0001
0100
0010
1000
0002
0003
0002
0003
0000
0000
0002
0003
0000
0000
0002
0003
,
0002
0003
0002
0003
2000
3000
2000
3000
0000
0000
2000
3000
0000
0000
2000
3000
,
2000
3000
2000
3000
0020
0030
0020
0030
0000
0000
0020
0030
0000
0000
0020
0030
,
0020
0030
0020
0030
0200
0310
0200
0310
0200
0310
0200
0310
0200
0310
0200
0310
,
0200
0310
0200
0310
1000
0100
1000
0001
0100
0010
1000
0100
1000
0001
0010
0100
,
0010
0001
1000
0010
0100
0010
1000
0100
0001
0100
1000
0010
0100
1000
0100
0001
,
0010
0100
1000
0010
0100
0010
1000
0100
0010
0100
1000
0010
1000
0100
0010
0001
,
0100
0010
0100
1000
0100
0001
0010
0100
1000
0010
0100
0010
0001
0010
0100
0010
,
1000
0001
0100
0010
0100
0001
1000
0001
0010
0001
1000
0010
0100
0001
0010
0100
,
1000
0001
0010
0001
0100
0010
1000
0001
0010
0001
0100
0010
1000
0100
0001
0100
,
1000
0010
0100
0001
0010
0001
0100
0010
1000
0100
0010
0100
0010
0001
0100
0010
,
1000
0100
0010
0100
1000
0010
0100
0001
0010
0100
0010
0100
1000
0010
0100
0001
,
0010
0100
1000
0001
1000
0100
0001
0100
1000
0010
0100
0001
1000
0100
0100
0001
,
1000
0010
0010
0001
1000
0010
0100
1000
0100
0001
0010
0100
1000
0010
0010
0001
,
1000
0100
0100
0001
1000
0010
0001
0010
1000
0100
0010
0001
1000
0010
0010
0001
,
1000
0100
0100
0010
1000
0100
0010
1000
0010
0001
0100
0010
1000
0100
0010
0010
,
0001
0001
0100
0010
1000
0100
0010
1000
0010
0001
0100
0010
0001
0010
1000
0001
,
0100
0100
0010
0010
1000
0100
0001
0100
1000
0010
0001
0010
1000
0001
0100
0100
,
0001
1000
0100
0100
1000
0010
0100
1000
0100
0001
0010
0100
1000
0001
0010
0010
,
0001
1000
0010
0010
1000
0100
0010
1000
0010
0001
0100
0010
0001
0010
1000
0100
,
0001
0100
1000
0001
2000
0000
0000
0000
0000
0000
0000
0000
0000
0000
0000
0000
,
0000
0000
0000
0000
,
3002
0000
0000
0000
,
0000
0000
0000
0000
0000
0000
0000
0000
0000
0000
0000
0003
0110
0000
1001
0000
,
0100
0010
0100
0010
1000
0100
1000
0100
1000
0010
1000
0010
1000
0001
1000
0001
,
0100
0010
0100
0010
1000
0001
1000
0001
0100
0001
0100
0001
0010
0001
0010
0001
,
0010
0100
0010
0100
0010
0001
0010
0001
0100
0001
0100
0001
1000
0001
1000
0001
,
0010
0100
0010
0100
1000
0001
1000
0001
1000
0010
1000
0010
1000
0100
1000
0100
,
1000
0100
1000
0100
1000
0010
1000
0010
0100
0010
0100
0010
0100
0001
0100
0001
,
0010
0001
0010
0001
0010
0100
0010
0100
1000
0100
1000
0100
1000
0001
1000
0001
,
1000
0000
1000
0000
0001
0000
0001
0000
1000
0000
1000
0000
0001
0000
1000
0001
,
0100
0010
0100
0001
0010
0100
0001
0100
0010
1000
0001
0100
0010
0001
0100
0010
,
2002
0000
0000
0000
0000
3003
0000
0000
;
