#TITLE:WE EAT AT FIVE FIVE FIVE;
#SUBTITLE:(guys);
#ARTIST:Cardboard Box vs. STereochan;
#TITLETRANSLIT:;
#SUBTITLETRANSLIT:;
#ARTISTTRANSLIT:;
#GENRE:;
#CREDIT:;
#MUSIC:WE EAT AT FIVE FIVE FIVE (guys).ogg;
#BANNER:WE EAT AT FIVE FIVE FIVE (guys)-bn.png;
#BACKGROUND:;
#CDTITLE:;
#SAMPLESTART:15.583;
#SAMPLELENGTH:20.703;
#SELECTABLE:YES;
#OFFSET:-0.015;
#BPMS:0.000=555.000;
#STOPS:;
#BGCHANGES:;
#FGCHANGES:;

//--------------- dance-single - ----------------
#NOTES:
     dance-single:
     :
     Beginner:
     5:
     0,0,0,0,0:
0000
0000
0000
0000
,
0000
0000
0000
0000
,
0000
0000
0000
0000
,
0000
0000
0000
0000
,
2000
0000
3200
0000
,
0320
0000
0032
0000
,
0203
0000
0320
0000
,
2030
0000
3002
0000
,
2003
0000
3020
0000
,
0230
0000
0302
0000
,
0023
0000
0230
0000
,
2300
0000
3002
0000
,
4003
0400
0040
0004
0000
0000
0000
0000
,
0000
0000
0000
0000
,
0000
0000
0000
0000
,
0000
0000
0000
0000
,
0000
0000
0000
0000
,
0000
0000
0000
0000
,
0000
0000
0000
0000
,
0000
0000
0000
0000
0000
3000
0300
0030
,
4003
3000
0000
0000
0100
0000
0000
0000
1000
0000
0000
0000
0040
0030
0000
0000
,
0100
0000
0000
0000
0001
0000
0000
0000
0040
0030
0000
0000
0001
0000
0000
0000
,
0200
0300
0010
0000
1000
0000
0100
0000
,
2000
3000
0010
0000
0100
0000
0001
0000
,
4000
3000
0000
0000
0010
0000
0000
0000
1000
0000
0000
0000
0400
0300
0000
0000
,
0010
0000
0000
0000
0001
0000
0000
0000
0400
0300
0000
0000
0001
0000
0000
0000
,
0020
0030
0100
0000
1000
0000
0010
0000
,
2000
3000
0100
0000
0010
0000
0001
0000
,
4000
3000
0000
0000
0100
0000
0000
0000
0010
0000
0000
0000
0400
0300
0000
0000
,
1000
0000
0000
0000
0010
0000
0000
0000
0400
0300
0000
0000
0001
0000
0000
0000
,
0020
0030
0100
0000
0010
0000
0100
0000
,
2000
3000
0010
0000
0100
0000
0001
0000
,
4000
3000
0000
0000
0010
0000
0000
0000
0100
0000
0000
0000
0040
0030
0000
0000
,
1000
0000
0000
0000
0100
0000
0000
0000
0040
0030
0000
0000
0001
0000
0000
0000
,
0200
0300
0010
0000
0100
0000
0010
0000
,
2000
3000
0100
0000
0010
0000
0001
0000
,
2000
0000
0000
3000
0000
0000
0000
0000
0100
0000
0000
0000
0000
0000
0000
0000
0010
0000
0000
0000
0000
0000
0000
0000
0100
0000
0000
0000
0000
0000
0000
0000
0010
0000
0000
0000
0000
0000
0000
0000
0001
0000
0000
0000
0000
0000
0000
0000
,
2000
0000
0000
3000
0000
0000
0000
0000
0100
0000
0000
0000
0000
0000
0000
0000
0010
0000
0000
0000
0000
0000
0000
0000
0100
0000
0000
0000
0000
0000
0000
0000
0010
0000
0000
0000
0000
0000
0000
0000
0001
0000
0000
0000
0000
0000
0000
0000
,
4000
0004
0040
0400
0000
0000
0000
0000
,
0000
0000
0000
0000
0000
3000
0003
0030
,
2300
0000
0000
3000
0000
0000
0000
0000
0100
0000
0000
0000
0000
0000
0000
0000
0010
0000
0000
0000
0000
0000
0000
0000
0100
0000
0000
0000
0000
0000
0000
0000
0010
0000
0000
0000
0000
0000
0000
0000
0001
0000
0000
0000
0000
0000
0000
0000
,
2000
0000
0000
3000
0000
0000
0000
0000
0100
0000
0000
0000
0000
0000
0000
0000
0010
0000
0000
0000
0000
0000
0000
0000
0100
0000
0000
0000
0000
0000
0000
0000
0010
0000
0000
0000
0000
0000
0000
0000
0001
0000
0000
0000
0000
0000
0000
0000
,
4000
0004
0040
0400
0000
0000
0000
0000
,
0000
0000
0000
0000
0000
3000
0003
0030
,
2300
3000
0100
0000
1000
0000
0010
0000
0100
0000
0010
0000
0100
0000
0001
0000
,
2000
3000
0010
0000
1000
0000
0100
0000
0010
0000
0100
0000
0010
0000
0001
0000
,
4000
0004
0040
0400
0000
0000
0000
0000
,
0000
0000
0000
0000
0000
3000
0003
0030
,
2300
3000
0000
0000
0010
0000
0000
0000
0100
0000
0000
0000
0001
0000
0000
0000
,
2000
3000
0000
0000
0100
0000
0000
0000
0010
0000
0000
0000
0001
0000
0000
0000
,
2000
3000
0001
0000
0010
0000
0001
0000
0100
0000
0010
0000
0100
0000
0010
0000
,
2000
3000
0001
0000
0010
0000
0001
0000
0100
0000
0010
0000
0100
0000
0010
0000
,
4000
0000
3400
0000
,
0340
0000
0034
0000
,
4003
0000
3040
0000
,
0430
0000
0304
0000
,
4003
0400
0040
0004
0000
0000
0000
0000
,
0000
0000
0000
0000
,
0000
0000
0000
0000
,
0000
0000
0000
0000
0000
3000
0300
0030
,
4003
0000
3400
0000
,
0340
0000
0034
0000
,
0403
0000
0000
0000
,
0340
0000
0000
0000
,
2030
3000
0000
0000
0100
0000
0000
0000
1000
0000
0000
0000
0010
0000
0000
0000
,
0200
0300
0000
0000
0010
0000
0000
0000
0100
0000
0000
0000
0001
0000
0000
0000
,
0020
0030
0000
0000
0001
0000
0000
0000
1000
0000
0000
0000
0010
0000
0000
0000
,
2000
3000
0000
0000
0100
0000
0000
0000
0010
0000
0000
0000
0001
0000
0000
0000
,
4000
0000
3040
0000
,
0430
0000
0304
0000
,
4003
0000
3400
0000
,
0340
0000
0034
0000
,
4003
0040
0400
0004
0000
0000
0000
0000
,
0000
0000
0000
0000
,
0000
0000
0000
0000
,
0000
0000
0000
0000
0000
3000
0030
0300
,
4003
0000
3040
0000
,
0430
0000
0304
0000
,
0043
0000
0000
0000
,
0430
0000
0000
0000
,
2300
3000
0000
0000
0010
0000
0000
0000
1000
0000
0000
0000
0100
0000
0000
0000
,
0020
0030
0000
0000
0100
0000
0000
0000
0010
0000
0000
0000
0001
0000
0000
0000
,
0200
0300
0000
0000
0001
0000
0000
0000
1000
0000
0000
0000
0100
0000
0000
0000
,
2000
3000
0000
0000
0010
0000
0000
0000
0100
0000
0000
0000
0001
0000
0000
0000
,
2000
0000
0000
0000
,
3000
1000
1000
1000
,
0020
0000
0000
0000
,
0030
0010
0010
0010
,
0200
0000
0000
0000
,
0300
0100
0100
0100
,
0002
0000
0000
0000
,
0003
0001
0001
0001
,
0020
0000
0000
0000
,
0030
0010
0010
0010
,
0200
0000
0000
0000
,
0300
0100
0100
0100
,
2000
0000
0000
0000
,
3000
1000
1000
1000
,
0002
0000
0000
0000
,
0003
0001
0001
0001
,
2000
0000
0000
0000
,
3000
1000
1000
1000
,
0200
0000
0000
0000
,
0300
0100
0100
0100
,
0020
0000
0000
0000
,
0030
0010
0010
0010
,
0002
0000
0000
0000
,
0003
0001
0001
0001
,
0200
0000
0000
0000
,
0300
0100
0100
0100
,
0020
0000
0000
0000
,
0030
0010
0010
0010
,
2000
0000
0000
0000
,
3000
1000
1000
1000
,
0002
0000
0000
0000
,
0003
0001
0001
0001
,
1000
0100
1000
0100
,
1000
0100
1000
0100
,
1000
0010
1000
0010
,
1000
0010
1000
0010
,
0100
0010
0100
0010
,
0100
0010
0100
0010
,
0100
0001
0100
0001
,
0100
0001
0100
0001
,
0010
0001
0010
0001
,
0010
0001
0010
0001
,
0010
0100
0010
0100
,
0010
0100
0010
0100
,
1000
0100
1000
0100
,
1000
0100
1000
0100
,
1000
0001
1000
0001
,
1000
0001
1000
0001
,
1000
0010
1000
0010
,
1000
0010
1000
0010
,
1000
0100
1000
0100
,
1000
0100
1000
0100
,
0010
0100
0010
0100
,
0010
0100
0010
0100
,
0010
0001
0010
0001
,
0010
0001
0010
0001
,
0100
0001
0100
0001
,
0100
0001
0100
0001
,
0100
0010
0100
0010
,
0100
0010
0100
0010
,
1000
0010
1000
0010
,
1000
0010
1000
0010
,
1000
0001
1000
0001
,
1000
0001
1000
0001
,
2000
0000
0000
0000
,
3000
1000
1000
1000
,
0020
0000
0000
0000
,
0030
0010
0010
0010
,
0200
0000
0000
0000
,
0300
0100
0100
0100
,
0002
0000
0000
0000
,
0003
0001
0001
0001
,
0020
0000
0000
0000
,
0030
0010
0010
0010
,
0200
0000
0000
0000
,
0300
0100
0100
0100
,
2000
0000
0000
0000
,
3000
1000
1000
1000
,
0002
0000
0000
0000
,
0003
0001
0001
0001
,
2000
0000
0000
0000
,
3000
1000
1000
1000
,
0200
0000
0000
0000
,
0300
0100
0100
0100
,
0020
0000
0000
0000
,
0030
0010
0010
0010
,
0002
0000
0000
0000
,
0003
0001
0001
0001
,
0200
0000
0000
0000
,
0300
0100
0100
0100
,
0020
0000
0000
0000
,
0030
0010
0010
0010
,
2000
0000
0000
0000
,
3000
1000
1000
1000
,
0002
0000
0000
0000
,
0003
0001
0001
0001
,
4000
3000
0000
0000
0100
0000
0000
0000
0010
0000
0000
0000
4000
3000
0000
0000
,
0010
0000
0000
0000
0001
0000
0000
0000
0400
0300
0000
0000
0010
0000
0000
0000
,
0200
0300
0010
0000
1000
0000
0100
0000
,
0020
0030
0001
0000
0100
0000
0010
0000
,
4000
3000
0000
0000
0100
0000
0000
0000
0010
0000
0000
0000
4000
3000
0000
0000
,
0010
0000
0000
0000
0001
0000
0000
0000
0400
0300
0000
0000
0010
0000
0000
0000
,
0200
0300
0010
0000
1000
0000
0100
0000
,
0020
0030
0001
0000
0100
0000
0010
0000
,
4000
3000
0000
0000
0010
0000
0000
0000
0100
0000
0000
0000
4000
3000
0000
0000
,
0100
0000
0000
0000
0001
0000
0000
0000
0040
0030
0000
0000
0100
0000
0000
0000
,
0020
0030
0100
0000
1000
0000
0010
0000
,
0200
0300
0001
0000
0010
0000
0100
0000
,
4000
3000
0000
0000
0010
0000
0000
0000
0100
0000
0000
0000
4000
3000
0000
0000
,
0100
0000
0000
0000
0001
0000
0000
0000
0040
0030
0000
0000
0100
0000
0000
0000
,
0020
0030
0100
0000
1000
0000
0010
0000
,
0200
0300
0001
0000
0010
0000
0100
0000
,
2000
0000
0000
0000
,
3000
0010
0010
0010
,
0020
0000
0000
0000
,
0030
0100
0100
0100
,
0200
0000
0000
0000
,
0300
0001
0001
0001
,
0002
0000
0000
0000
,
0003
0010
0010
0010
,
0020
0000
0000
0000
,
0030
0100
0100
0100
,
0200
0000
0000
0000
,
0300
1000
1000
1000
,
2000
0000
0000
0000
,
3000
0001
0001
0001
,
0002
0000
0000
0000
,
0003
1000
1000
1000
,
2000
0000
0000
3000
0000
0000
0000
0000
0100
0000
0000
0000
0000
0000
0000
0000
1000
0000
0000
0000
0000
0000
0000
0000
0010
0000
0000
0000
0000
0000
0000
0000
0100
0000
0000
0000
0000
0000
0000
0000
0001
0000
0000
0000
0000
0000
0000
0000
,
2000
0000
0000
3000
0000
0000
0000
0000
0100
0000
0000
0000
0000
0000
0000
0000
1000
0000
0000
0000
0000
0000
0000
0000
0010
0000
0000
0000
0000
0000
0000
0000
0100
0000
0000
0000
0000
0000
0000
0000
0001
0000
0000
0000
0000
0000
0000
0000
,
4000
0004
0400
0040
0000
0000
0000
0000
,
0000
0000
0000
0000
0000
3000
0003
0300
,
2030
0000
0000
3000
0000
0000
0000
0000
0100
0000
0000
0000
0000
0000
0000
0000
1000
0000
0000
0000
0000
0000
0000
0000
0010
0000
0000
0000
0000
0000
0000
0000
0100
0000
0000
0000
0000
0000
0000
0000
0001
0000
0000
0000
0000
0000
0000
0000
,
2000
0000
0000
3000
0000
0000
0000
0000
0100
0000
0000
0000
0000
0000
0000
0000
1000
0000
0000
0000
0000
0000
0000
0000
0010
0000
0000
0000
0000
0000
0000
0000
0100
0000
0000
0000
0000
0000
0000
0000
0001
0000
0000
0000
0000
0000
0000
0000
,
4000
0004
0400
0040
0000
0000
0000
0000
,
0000
0000
0000
0000
0000
3000
0003
0300
,
2030
3000
0010
0000
1000
0000
0100
0000
0010
0000
0100
0000
0010
0000
0001
0000
,
2000
3000
0010
0000
1000
0000
0100
0000
0010
0000
0100
0000
0010
0000
0001
0000
,
4000
0004
0400
0040
0000
0000
0000
0000
,
0000
0000
0000
0000
0000
3000
0003
0300
,
2030
3000
0000
0000
0010
0000
0000
0000
1000
0000
0000
0000
0100
0000
0000
0000
,
0020
0030
0000
0000
0001
0000
0000
0000
0100
0000
0000
0000
0001
0000
0000
0000
,
4000
0004
0400
0040
0000
0000
0000
0000
,
0000
0000
0000
0000
0000
3000
0003
0300
,
2030
0000
0000
3000
0000
0000
0000
0000
0100
0000
0000
0000
0000
0000
0000
0000
0010
0000
0000
0000
0000
0000
0000
0000
0001
0000
0000
0000
0000
0000
0000
0000
1000
0000
0000
0000
0000
0000
0000
0000
0100
0000
0000
0000
0000
0000
0000
0000
,
0020
0000
0000
0030
0000
0000
0000
0000
0001
0000
0000
0000
0000
0000
0000
0000
1000
0000
0000
0000
0000
0000
0000
0000
0100
0000
0000
0000
0000
0000
0000
0000
0010
0000
0000
0000
0000
0000
0000
0000
0001
0000
0000
0000
0000
0000
0000
0000
,
4000
0004
0000
3000
0040
0000
0000
0000
,
0003
0400
0000
0030
4000
0000
0000
3000
,
2300
0000
0000
3000
0000
0000
0000
0000
0100
0000
0000
0000
0000
0000
0000
0000
0010
0000
0000
0000
0000
0000
0000
0000
0001
0000
0000
0000
0000
0000
0000
0000
1000
0000
0000
0000
0000
0000
0000
0000
0100
0000
0000
0000
0000
0000
0000
0000
,
0020
0000
0000
0030
0000
0000
0000
0000
0001
0000
0000
0000
0000
0000
0000
0000
1000
0000
0000
0000
0000
0000
0000
0000
0100
0000
0000
0000
0000
0000
0000
0000
0010
0000
0000
0000
0000
0000
0000
0000
0001
0000
0000
0000
0000
0000
0000
0000
,
4000
0004
0000
3000
0040
0000
0000
0000
,
0003
0400
0000
0030
4000
0000
0000
3000
,
2300
3000
0001
0000
1000
0000
0010
0000
0100
0000
0010
0000
1000
0000
0100
0000
,
2000
3000
0001
0000
1000
0000
0010
0000
0100
0000
0010
0000
1000
0000
0100
0000
,
4000
0004
0000
3000
0400
0000
0000
0000
,
0003
0040
0000
0300
4000
0000
0000
3000
,
2030
3000
0000
0000
0100
0000
0000
0000
1000
0000
0000
0000
0010
0000
0000
0000
,
0200
0300
0000
0000
0001
0000
0000
0000
0010
0000
0000
0000
0001
0000
0000
0000
,
4000
0004
0000
3000
0400
0000
0000
0000
,
0003
0040
0000
0300
4000
0000
0000
3000
,
1030
0100
1000
0100
,
0010
0001
0010
0001
,
1000
0010
1000
0010
,
0100
0001
0100
0001
,
1000
0100
1000
0100
0010
0100
0010
0001
,
1000
0100
1000
0100
0010
0100
0010
0001
,
1000
0100
1000
0100
0010
0100
0010
0001
,
1000
0100
1000
0100
0010
0100
0010
0001
,
1000
0010
1000
0010
,
0100
0001
0100
0001
,
1000
0100
1000
0100
,
0010
0001
0010
0001
,
2000
3200
1300
0020
,
0230
0301
0020
0032
,
2003
3100
1000
0100
,
0020
0031
0010
0001
,
2000
3200
1300
0020
,
0230
0301
0020
0032
,
2003
3100
1000
0100
,
0020
0031
0010
0001
,
2000
3020
1030
0200
,
0320
0031
0200
0302
,
2003
3010
1000
0010
,
0200
0301
0100
0001
,
2000
3200
1300
0020
,
0230
0301
0020
0032
,
2003
3010
1000
0010
,
0200
0301
0100
0001
,
2000
3200
1300
0020
,
0230
0301
0020
0032
,
2003
3010
1000
0010
,
0200
0301
0100
0004
,
0000
0000
0000
0000
,
0000
0000
0000
0000
,
0000
0000
0000
0000
,
0000
0000
0000
0000
,
0000
0000
0000
0000
,
0000
0000
0000
0000
,
0000
0000
0000
0000
,
0000
0000
0000
0000
,
0003
0000
0000
0000
;

//--------------- dance-single - ----------------
#NOTES:
     dance-single:
     :
     Easy:
     55:
     0,0,0,0,0:
0000
0000
0000
0000
,
0000
0000
0000
0000
,
0000
0000
0000
0000
,
0000
0000
0000
0000
,
1000
0000
0100
0000
0010
0000
0001
0000
0010
0000
0100
0000
,
1000
0000
0100
0000
0010
0000
0001
0000
0010
0000
0100
0000
,
1000
0000
0100
0000
0010
0000
0001
0000
0010
0000
0100
0000
,
1000
0000
0100
0000
0010
0000
0001
0000
0010
0000
0100
0000
,
1000
0000
0100
0000
0010
0000
0001
0000
0010
0000
0100
0000
,
1000
0000
0100
0000
0010
0000
0001
0000
0010
0000
0100
0000
,
1000
0000
0100
0000
0010
0000
0001
0000
0010
0000
0100
0000
,
1000
0000
0100
0000
0010
0000
0001
0000
0010
0000
0100
0000
,
1000
0100
0010
0001
1000
0100
0010
0001
,
1000
0100
0010
0001
1000
0100
0010
0001
,
1000
0100
0010
0001
1000
0100
0010
0001
,
1000
0100
0010
0001
1000
0100
0010
0001
,
1000
0100
0010
0001
1000
0100
0010
0001
,
1000
0100
0010
0001
1000
0100
0010
0001
,
1000
0100
0010
0001
1000
0100
0010
0001
,
1000
0100
0010
0001
1000
0100
0010
0001
,
4000
3000
0000
0000
0100
0000
0000
0000
1000
0000
0000
0000
0040
0030
0000
0000
,
0100
0000
0000
0000
0001
0000
0000
0000
0040
0030
0000
0000
0001
0000
0000
0000
,
0200
0300
0010
0000
1000
0000
0100
0000
,
2000
3000
0010
0000
0100
0000
0001
0000
,
4000
3000
0000
0000
0010
0000
0000
0000
1000
0000
0000
0000
0400
0300
0000
0000
,
0010
0000
0000
0000
0001
0000
0000
0000
0400
0300
0000
0000
0001
0000
0000
0000
,
0020
0030
0100
0000
1000
0000
0010
0000
,
2000
3000
0100
0000
0010
0000
0001
0000
,
4000
3000
0000
0000
0100
0000
0000
0000
0010
0000
0000
0000
0400
0300
0000
0000
,
1000
0000
0000
0000
0010
0000
0000
0000
0400
0300
0000
0000
0001
0000
0000
0000
,
0020
0030
0100
0000
0010
0000
0100
0000
,
2000
3000
0010
0000
0100
0000
0001
0000
,
4000
3000
0000
0000
0010
0000
0000
0000
0100
0000
0000
0000
0040
0030
0000
0000
,
1000
0000
0000
0000
0100
0000
0000
0000
0040
0030
0000
0000
0001
0000
0000
0000
,
0200
0300
0010
0000
0100
0000
0010
0000
,
2000
3000
0100
0000
0010
0000
0001
0000
,
2000
0000
0000
3000
0000
0000
0000
0000
0100
0000
0000
0000
0000
0000
0000
0000
0010
0000
0000
0000
0000
0000
0000
0000
0100
0000
0000
0000
0000
0000
0000
0000
0010
0000
0000
0000
0000
0000
0000
0000
0001
0000
0000
0000
0000
0000
0000
0000
,
2000
0000
0000
3000
0000
0000
0000
0000
0100
0000
0000
0000
0000
0000
0000
0000
0010
0000
0000
0000
0000
0000
0000
0000
0100
0000
0000
0000
0000
0000
0000
0000
0010
0000
0000
0000
0000
0000
0000
0000
0001
0000
0000
0000
0000
0000
0000
0000
,
2000
3000
0001
0000
0010
0000
0100
0000
1000
0000
0001
0000
0010
0000
0100
0000
,
2000
3000
0001
0000
0010
0000
0100
0000
1000
0000
0001
0000
0010
0000
0100
0000
,
2000
0000
0000
3000
0000
0000
0000
0000
0100
0000
0000
0000
0000
0000
0000
0000
0010
0000
0000
0000
0000
0000
0000
0000
0100
0000
0000
0000
0000
0000
0000
0000
0010
0000
0000
0000
0000
0000
0000
0000
0001
0000
0000
0000
0000
0000
0000
0000
,
2000
0000
0000
3000
0000
0000
0000
0000
0100
0000
0000
0000
0000
0000
0000
0000
0010
0000
0000
0000
0000
0000
0000
0000
0100
0000
0000
0000
0000
0000
0000
0000
0010
0000
0000
0000
0000
0000
0000
0000
0001
0000
0000
0000
0000
0000
0000
0000
,
2000
3000
0001
0000
0010
0000
0100
0000
1000
0000
0001
0000
0010
0000
0100
0000
,
2000
3000
0001
0000
0010
0000
0100
0000
1000
0000
0001
0000
0010
0000
0100
0000
,
2000
3000
0100
0000
1000
0000
0010
0000
0100
0000
0010
0000
0100
0000
0001
0000
,
2000
3000
0010
0000
1000
0000
0100
0000
0010
0000
0100
0000
0010
0000
0001
0000
,
2000
3000
0001
0000
0010
0000
0100
0000
1000
0000
0001
0000
0010
0000
0100
0000
,
2000
3000
0001
0000
0010
0000
0100
0000
1000
0000
0001
0000
0010
0000
0100
0000
,
2000
3000
0000
0000
0010
0000
0000
0000
0100
0000
0000
0000
0001
0000
0000
0000
,
2000
3000
0000
0000
0100
0000
0000
0000
0010
0000
0000
0000
0001
0000
0000
0000
,
2000
3000
0001
0000
0010
0000
0001
0000
0100
0000
0010
0000
0100
0000
0010
0000
,
2000
3000
0001
0000
0010
0000
0001
0000
0100
0000
0010
0000
0100
0000
0010
0000
,
4000
0400
0000
3000
0040
0000
0000
0000
,
0300
0004
0000
0030
4000
0000
0000
0000
,
0003
0040
0000
3000
0400
0000
0000
0000
,
0030
0004
0000
0300
4000
0000
0000
3000
,
2003
3000
0100
0000
1000
0000
0010
0000
0100
0000
0010
0000
0100
0000
0001
0000
,
2000
3000
0100
0000
1000
0000
0010
0000
0100
0000
0010
0000
0100
0000
0001
0000
,
2000
3000
0100
0000
1000
0000
0010
0000
0100
0000
0010
0000
0100
0000
0001
0000
,
2000
3000
0100
0000
1000
0000
0010
0000
0100
0000
0010
0000
0100
0000
0001
0000
,
4000
0400
0000
3000
0040
0000
0000
0000
,
0300
0004
0000
0030
0400
0000
0000
0000
,
0003
0040
0000
0000
0000
0000
0000
0300
,
4000
0000
0000
0000
0000
0000
0000
3000
,
2030
3000
0000
0000
0100
0000
0000
0000
1000
0000
0000
0000
0010
0000
0000
0000
,
0200
0300
0000
0000
0010
0000
0000
0000
0100
0000
0000
0000
0001
0000
0000
0000
,
0020
0030
0000
0000
0001
0000
0000
0000
1000
0000
0000
0000
0010
0000
0000
0000
,
2000
3000
0000
0000
0100
0000
0000
0000
0010
0000
0000
0000
0001
0000
0000
0000
,
4000
0040
0000
3000
0400
0000
0000
0000
,
0030
0004
0000
0300
4000
0000
0000
0000
,
0003
0400
0000
3000
0040
0000
0000
0000
,
0300
0004
0000
0030
4000
0000
0000
3000
,
2003
3000
0100
0000
1000
0000
0010
0000
0100
0000
0001
0000
0010
0000
0001
0000
,
2000
3000
0100
0000
1000
0000
0010
0000
0100
0000
0001
0000
0010
0000
0001
0000
,
2000
3000
0100
0000
1000
0000
0010
0000
0100
0000
0001
0000
0010
0000
0001
0000
,
2000
3000
0100
0000
1000
0000
0010
0000
0100
0000
0001
0000
0010
0000
0001
0000
,
4000
0040
0000
3000
0400
0000
0000
0000
,
0030
0004
0000
0300
0040
0000
0000
0000
,
0003
0400
0000
0000
0000
0000
0000
0030
,
4000
0000
0000
0000
0000
0000
0000
3000
,
2300
3000
0000
0000
0010
0000
0000
0000
1000
0000
0000
0000
0100
0000
0000
0000
,
0020
0030
0000
0000
0100
0000
0000
0000
0010
0000
0000
0000
0001
0000
0000
0000
,
0200
0300
0000
0000
0001
0000
0000
0000
1000
0000
0000
0000
0100
0000
0000
0000
,
2000
3000
0000
0000
0010
0000
0000
0000
0100
0000
0000
0000
0001
0000
0000
0000
,
2000
0000
0000
0000
,
3000
1000
1000
1000
,
0020
0000
0000
0000
,
0030
0010
0010
0010
,
0200
0000
0000
0000
,
0300
0100
0100
0100
,
0002
0000
0000
0000
,
0003
0001
0001
0001
,
0020
0000
0000
0000
,
0030
0010
0010
0010
,
0200
0000
0000
0000
,
0300
0100
0100
0100
,
2000
0000
0000
0000
,
3000
1000
1000
1000
,
0002
0000
0000
0000
,
0003
0001
0001
0001
,
2000
0000
0000
0000
,
3000
1000
1000
1000
,
0200
0000
0000
0000
,
0300
0100
0100
0100
,
0020
0000
0000
0000
,
0030
0010
0010
0010
,
0002
0000
0000
0000
,
0003
0001
0001
0001
,
0200
0000
0000
0000
,
0300
0100
0100
0100
,
0020
0000
0000
0000
,
0030
0010
0010
0010
,
2000
0000
0000
0000
,
3000
1000
1000
1000
,
0002
0000
0000
0000
,
0003
0001
0001
0001
,
1000
0100
1000
0100
,
1000
0100
1000
0100
,
1000
0010
1000
0010
,
1000
0010
1000
0010
,
0100
0010
0100
0010
,
0100
0010
0100
0010
,
0100
0001
0100
0001
,
0100
0001
0100
0001
,
0010
0001
0010
0001
,
0010
0001
0010
0001
,
0010
0100
0010
0100
,
0010
0100
0010
0100
,
1000
0100
1000
0100
,
1000
0100
1000
0100
,
1000
0001
1000
0001
,
1000
0001
1000
0001
,
1000
0010
1000
0010
,
1000
0010
1000
0010
,
1000
0100
1000
0100
,
1000
0100
1000
0100
,
0010
0100
0010
0100
,
0010
0100
0010
0100
,
0010
0001
0010
0001
,
0010
0001
0010
0001
,
0100
0001
0100
0001
,
0100
0001
0100
0001
,
0100
0010
0100
0010
,
0100
0010
0100
0010
,
1000
0010
1000
0010
,
1000
0010
1000
0010
,
1000
0001
1000
0001
,
1000
0001
1000
0001
,
2000
0000
0000
0000
,
3000
1000
1000
1000
,
0020
0000
0000
0000
,
0030
0010
0010
0010
,
0200
0000
0000
0000
,
0300
0100
0100
0100
,
0002
0000
0000
0000
,
0003
0001
0001
0001
,
0020
0000
0000
0000
,
0030
0010
0010
0010
,
0200
0000
0000
0000
,
0300
0100
0100
0100
,
2000
0000
0000
0000
,
3000
1000
1000
1000
,
0002
0000
0000
0000
,
0003
0001
0001
0001
,
2000
0000
0000
0000
,
3000
1000
1000
1000
,
0200
0000
0000
0000
,
0300
0100
0100
0100
,
0020
0000
0000
0000
,
0030
0010
0010
0010
,
0002
0000
0000
0000
,
0003
0001
0001
0001
,
0200
0000
0000
0000
,
0300
0100
0100
0100
,
0020
0000
0000
0000
,
0030
0010
0010
0010
,
2000
0000
0000
0000
,
3000
1000
1000
1000
,
0002
0000
0000
0000
,
0003
0001
0001
0001
,
4000
3000
0000
0000
0100
0000
0000
0000
0010
0000
0000
0000
4000
3000
0000
0000
,
0010
0000
0000
0000
0001
0000
0000
0000
0400
0300
0000
0000
0010
0000
0000
0000
,
0200
0300
0010
0000
1000
0000
0100
0000
,
0020
0030
0001
0000
0100
0000
0010
0000
,
4000
3000
0000
0000
0100
0000
0000
0000
0010
0000
0000
0000
4000
3000
0000
0000
,
0010
0000
0000
0000
0001
0000
0000
0000
0400
0300
0000
0000
0010
0000
0000
0000
,
0200
0300
0010
0000
1000
0000
0100
0000
,
0020
0030
0001
0000
0100
0000
0010
0000
,
4000
3000
0000
0000
0010
0000
0000
0000
0100
0000
0000
0000
4000
3000
0000
0000
,
0100
0000
0000
0000
0001
0000
0000
0000
0040
0030
0000
0000
0100
0000
0000
0000
,
0020
0030
0100
0000
1000
0000
0010
0000
,
0200
0300
0001
0000
0010
0000
0100
0000
,
4000
3000
0000
0000
0010
0000
0000
0000
0100
0000
0000
0000
4000
3000
0000
0000
,
0100
0000
0000
0000
0001
0000
0000
0000
0040
0030
0000
0000
0100
0000
0000
0000
,
0020
0030
0100
0000
1000
0000
0010
0000
,
0200
0300
0001
0000
0010
0000
0100
0000
,
2000
0000
0000
0000
,
3000
0010
0010
0010
,
0020
0000
0000
0000
,
0030
0100
0100
0100
,
0200
0000
0000
0000
,
0300
0001
0001
0001
,
0002
0000
0000
0000
,
0003
0010
0010
0010
,
0020
0000
0000
0000
,
0030
0100
0100
0100
,
0200
0000
0000
0000
,
0300
1000
1000
1000
,
2000
0000
0000
0000
,
3000
0001
0001
0001
,
0002
0000
0000
0000
,
0003
1000
1000
1000
,
2000
0000
0000
3000
0000
0000
0000
0000
0100
0000
0000
0000
0000
0000
0000
0000
1000
0000
0000
0000
0000
0000
0000
0000
0010
0000
0000
0000
0000
0000
0000
0000
0100
0000
0000
0000
0000
0000
0000
0000
0001
0000
0000
0000
0000
0000
0000
0000
,
2000
0000
0000
3000
0000
0000
0000
0000
0100
0000
0000
0000
0000
0000
0000
0000
1000
0000
0000
0000
0000
0000
0000
0000
0010
0000
0000
0000
0000
0000
0000
0000
0100
0000
0000
0000
0000
0000
0000
0000
0001
0000
0000
0000
0000
0000
0000
0000
,
2000
3000
0001
0000
0010
0000
0100
0000
0010
0000
0001
0000
0010
0000
0100
0000
,
2000
3000
0001
0000
0010
0000
0100
0000
0010
0000
0001
0000
0010
0000
0100
0000
,
2000
0000
0000
3000
0000
0000
0000
0000
0100
0000
0000
0000
0000
0000
0000
0000
1000
0000
0000
0000
0000
0000
0000
0000
0010
0000
0000
0000
0000
0000
0000
0000
0100
0000
0000
0000
0000
0000
0000
0000
0001
0000
0000
0000
0000
0000
0000
0000
,
2000
0000
0000
3000
0000
0000
0000
0000
0100
0000
0000
0000
0000
0000
0000
0000
1000
0000
0000
0000
0000
0000
0000
0000
0010
0000
0000
0000
0000
0000
0000
0000
0100
0000
0000
0000
0000
0000
0000
0000
0001
0000
0000
0000
0000
0000
0000
0000
,
2000
3000
0001
0000
0010
0000
0100
0000
0010
0000
0001
0000
0010
0000
0100
0000
,
2000
3000
0001
0000
0010
0000
0100
0000
0010
0000
0001
0000
0010
0000
0100
0000
,
2000
3000
0010
0000
1000
0000
0100
0000
0010
0000
0100
0000
0010
0000
0001
0000
,
2000
3000
0010
0000
1000
0000
0100
0000
0010
0000
0100
0000
0010
0000
0001
0000
,
2000
3000
0001
0000
0010
0000
0100
0000
0010
0000
0001
0000
0010
0000
0100
0000
,
2000
3000
0001
0000
0010
0000
0100
0000
0010
0000
0001
0000
0010
0000
0100
0000
,
2000
3000
0000
0000
0010
0000
0000
0000
1000
0000
0000
0000
0100
0000
0000
0000
,
0020
0030
0000
0000
0001
0000
0000
0000
0100
0000
0000
0000
0001
0000
0000
0000
,
2000
3000
0001
0000
0010
0000
0100
0000
1000
0000
0001
0000
0010
0000
0100
0000
,
2000
3000
0001
0000
0010
0000
0100
0000
1000
0000
0001
0000
0010
0000
0100
0000
,
2000
0000
0000
3000
0000
0000
0000
0000
0100
0000
0000
0000
0000
0000
0000
0000
0010
0000
0000
0000
0000
0000
0000
0000
0001
0000
0000
0000
0000
0000
0000
0000
1000
0000
0000
0000
0000
0000
0000
0000
0100
0000
0000
0000
0000
0000
0000
0000
,
0020
0000
0000
0030
0000
0000
0000
0000
0001
0000
0000
0000
0000
0000
0000
0000
1000
0000
0000
0000
0000
0000
0000
0000
0100
0000
0000
0000
0000
0000
0000
0000
0010
0000
0000
0000
0000
0000
0000
0000
0001
0000
0000
0000
0000
0000
0000
0000
,
2000
3000
0001
0000
0010
0000
0001
0000
0010
0000
0100
0000
1000
0000
0100
0000
,
2000
3000
0001
0000
0010
0000
0001
0000
0010
0000
0100
0000
1000
0000
0100
0000
,
2000
0000
0000
3000
0000
0000
0000
0000
0100
0000
0000
0000
0000
0000
0000
0000
0010
0000
0000
0000
0000
0000
0000
0000
0001
0000
0000
0000
0000
0000
0000
0000
1000
0000
0000
0000
0000
0000
0000
0000
0100
0000
0000
0000
0000
0000
0000
0000
,
0020
0000
0000
0030
0000
0000
0000
0000
0001
0000
0000
0000
0000
0000
0000
0000
1000
0000
0000
0000
0000
0000
0000
0000
0100
0000
0000
0000
0000
0000
0000
0000
0010
0000
0000
0000
0000
0000
0000
0000
0001
0000
0000
0000
0000
0000
0000
0000
,
2000
3000
0001
0000
0010
0000
0001
0000
0010
0000
0100
0000
1000
0000
0100
0000
,
2000
3000
0001
0000
0010
0000
0001
0000
0010
0000
0100
0000
1000
0000
0100
0000
,
2000
3000
0001
0000
1000
0000
0010
0000
0100
0000
0010
0000
1000
0000
0100
0000
,
2000
3000
0001
0000
1000
0000
0010
0000
0100
0000
0010
0000
1000
0000
0100
0000
,
2000
3000
0001
0000
0010
0000
0100
0000
1000
0000
0100
0000
0010
0000
0100
0000
,
2000
3000
0001
0000
0010
0000
0100
0000
1000
0000
0100
0000
0010
0000
0100
0000
,
2000
3000
0000
0000
0100
0000
0000
0000
1000
0000
0000
0000
0010
0000
0000
0000
,
0200
0300
0000
0000
0001
0000
0000
0000
0010
0000
0000
0000
0001
0000
0000
0000
,
2000
3000
0001
0000
0010
0000
0100
0000
1000
0000
0100
0000
0010
0000
0100
0000
,
2000
3000
0001
0000
0010
0000
0100
0000
1000
0000
0100
0000
0010
0000
0100
0000
,
1000
0100
1000
0100
,
0010
0001
0010
0001
,
1000
0010
1000
0010
,
0100
0001
0100
0001
,
1000
0100
1000
0100
0010
0100
0010
0001
,
1000
0100
1000
0100
0010
0100
0010
0001
,
1000
0100
1000
0100
0010
0100
0010
0001
,
1000
0100
1000
0100
0010
0100
0010
0001
,
1000
0010
1000
0010
,
0100
0001
0100
0001
,
1000
0100
1000
0100
,
0010
0001
0010
0001
,
2000
3200
1300
0020
,
0230
0301
0020
0032
,
2003
3100
1000
0100
,
0020
0031
0010
0001
,
2000
3200
1300
0020
,
0230
0301
0020
0032
,
2003
3100
1000
0100
,
0020
0031
0010
0001
,
2000
3020
1030
0200
,
0320
0031
0200
0302
,
2003
3010
1000
0010
,
0200
0301
0100
0001
,
2000
3200
1300
0020
,
0230
0301
0020
0032
,
2003
3010
1000
0010
,
0200
0301
0100
0001
,
2000
3200
1300
0020
,
0230
0301
0020
0032
,
2003
3010
1000
0010
,
0200
0301
0100
0004
,
0000
0000
0000
0000
,
0000
0000
0000
0000
,
0000
0000
0000
0000
,
0000
0000
0000
0000
,
0000
0000
0000
0000
,
0000
0000
0000
0000
,
0000
0000
0000
0000
,
0000
0000
0000
0000
,
0003
0000
0000
0000
;

//--------------- dance-single - ----------------
#NOTES:
     dance-single:
     :
     Medium:
     555:
     0,0,0,0,0:
0000
0000
0000
0000
,
0000
0000
0000
0000
,
0000
0000
0000
0000
,
0000
0000
0000
0000
,
1000
0000
0100
0000
0010
0000
0001
0000
0010
0000
0100
0000
,
1000
0000
0100
0000
0010
0000
0001
0000
0010
0000
0100
0000
,
1000
0000
0100
0000
0010
0000
0001
0000
0010
0000
0100
0000
,
1000
0000
0100
0000
0010
0000
0001
0000
0010
0000
0100
0000
,
1000
0000
0100
0000
0010
0000
0001
0000
0010
0000
0100
0000
,
1000
0000
0100
0000
0010
0000
0001
0000
0010
0000
0100
0000
,
1000
0000
0100
0000
0010
0000
0001
0000
0010
0000
0100
0000
,
1000
0000
0100
0000
0010
0000
0001
0000
0010
0000
0100
0000
,
1000
0100
0010
0001
0010
0100
1000
0100
,
0010
0001
0010
0100
1000
0100
0010
0001
,
0010
0100
1000
0100
0010
0001
0010
0100
,
1000
0100
0010
0001
0010
0100
1000
0100
,
0010
0001
0010
0100
1000
0100
0010
0001
,
0010
0100
1000
0100
0010
0001
0010
0100
,
1000
0100
0010
0001
0010
0100
1000
0100
,
0010
0001
0010
0100
1000
0100
0010
0001
,
4000
3000
0000
0000
0100
0000
0000
0000
1000
0000
0000
0000
0040
0030
0000
0000
,
0100
0000
0000
0000
0001
0000
0000
0000
0040
0030
0000
0000
0001
0000
0000
0000
,
2200
3300
0010
0000
1000
0000
0100
0000
,
2002
3003
0010
0000
0100
0000
0001
0000
,
4000
3000
0000
0000
0010
0000
0000
0000
1000
0000
0000
0000
0400
0300
0000
0000
,
0010
0000
0000
0000
0001
0000
0000
0000
0400
0300
0000
0000
0001
0000
0000
0000
,
0220
0330
0100
0000
1000
0000
0010
0000
,
2002
3003
0100
0000
0010
0000
0001
0000
,
4000
3000
0000
0000
0100
0000
0000
0000
0010
0000
0000
0000
0400
0300
0000
0000
,
1000
0000
0000
0000
0010
0000
0000
0000
0400
0300
0000
0000
0001
0000
0000
0000
,
2020
3030
0100
0000
0010
0000
0100
0000
,
2200
3300
0010
0000
0100
0000
0001
0000
,
4000
3000
0000
0000
0010
0000
0000
0000
0100
0000
0000
0000
0040
0030
0000
0000
,
1000
0000
0000
0000
0100
0000
0000
0000
0040
0030
0000
0000
0001
0000
0000
0000
,
0202
0303
0010
0000
0100
0000
0010
0000
,
2002
3003
0100
0000
0010
0000
0001
0000
,
2000
0000
0000
3000
0000
0000
0000
0000
0100
0000
0000
0000
0000
0000
0000
0000
0010
0000
0000
0000
0000
0000
0000
0000
0100
0000
0000
0000
0000
0000
0000
0000
0010
0000
0000
0000
0000
0000
0000
0000
0001
0000
0000
0000
0000
0000
0000
0000
,
2000
0000
0000
3000
0000
0000
0000
0000
0100
0000
0000
0000
0000
0000
0000
0000
0010
0000
0000
0000
0000
0000
0000
0000
0100
0000
0000
0000
0000
0000
0000
0000
0010
0000
0000
0000
0000
0000
0000
0000
0001
0000
0000
0000
0000
0000
0000
0000
,
2000
3000
0001
0000
0010
0000
0100
0000
1000
0000
0001
0000
0010
0000
0100
0000
,
2000
3000
0001
0000
0010
0000
0100
0000
1000
0000
0001
0000
0010
0000
0100
0000
,
2000
0000
0000
3000
0000
0000
0000
0000
0100
0000
0000
0000
0000
0000
0000
0000
0010
0000
0000
0000
0000
0000
0000
0000
0100
0000
0000
0000
0000
0000
0000
0000
0010
0000
0000
0000
0000
0000
0000
0000
0001
0000
0000
0000
0000
0000
0000
0000
,
2000
0000
0000
3000
0000
0000
0000
0000
0100
0000
0000
0000
0000
0000
0000
0000
0010
0000
0000
0000
0000
0000
0000
0000
0100
0000
0000
0000
0000
0000
0000
0000
0010
0000
0000
0000
0000
0000
0000
0000
0001
0000
0000
0000
0000
0000
0000
0000
,
2000
3000
0001
0000
0010
0000
0100
0000
1000
0000
0001
0000
0010
0000
0100
0000
,
2000
3000
0001
0000
0010
0000
0100
0000
1000
0000
0001
0000
0010
0000
0100
0000
,
2000
3000
0100
0000
1000
0000
0010
0000
0100
0000
0010
0000
0100
0000
0001
0000
,
2000
3000
0010
0000
1000
0000
0100
0000
0010
0000
0100
0000
0010
0000
0001
0000
,
2000
3000
0001
0000
0010
0000
0100
0000
1000
0000
0001
0000
0010
0000
0100
0000
,
2000
3000
0001
0000
0010
0000
0100
0000
1000
0000
0001
0000
0010
0000
0100
0000
,
2000
3000
0000
0000
0010
0000
0000
0000
0100
0000
0000
0000
0001
0000
0000
0000
,
2000
3000
0000
0000
0100
0000
0000
0000
0010
0000
0000
0000
0001
0000
0000
0000
,
2000
3000
0001
0000
0010
0000
0001
0000
0100
0000
0010
0000
0100
0000
0010
0000
,
2000
3000
0001
0000
0010
0000
0001
0000
0100
0000
0010
0000
0100
0000
0010
0000
,
1000
0100
1000
0100
0010
0100
0010
0100
,
0010
0001
0010
0001
1000
0001
1000
0001
,
1000
0010
1000
0010
0100
0010
0100
0010
,
0100
0001
0100
0001
1000
0001
1000
0001
,
2000
3000
0100
0000
1000
0000
0010
0000
0100
0000
0010
0000
0100
0000
0001
0000
,
2000
3000
0100
0000
1000
0000
0010
0000
0100
0000
0010
0000
0100
0000
0001
0000
,
2000
3000
0100
0000
1000
0000
0010
0000
0100
0000
0010
0000
0100
0000
0001
0000
,
2000
3000
0100
0000
1000
0000
0010
0000
0100
0000
0010
0000
0100
0000
0001
0000
,
1000
0100
1000
0100
0010
0100
0010
0100
,
0010
0001
0010
0001
0100
0001
0100
0001
,
0100
0010
0100
0010
0100
0010
0100
0010
,
1000
0010
1000
0010
1000
0010
1000
0010
,
2000
3000
0000
0000
0100
0000
0000
0000
1000
0000
0000
0000
0010
0000
0000
0000
,
0200
0300
0000
0000
0010
0000
0000
0000
0100
0000
0000
0000
0001
0000
0000
0000
,
0020
0030
0000
0000
0001
0000
0000
0000
1000
0000
0000
0000
0010
0000
0000
0000
,
2000
3000
0000
0000
0100
0000
0000
0000
0010
0000
0000
0000
0001
0000
0000
0000
,
1000
0010
1000
0010
0100
0010
0100
0010
,
0100
0001
0100
0001
1000
0001
1000
0001
,
1000
0100
1000
0100
0010
0100
0010
0100
,
0010
0001
0010
0001
1000
0001
1000
0001
,
2000
3000
0100
0000
1000
0000
0010
0000
0100
0000
0001
0000
0010
0000
0001
0000
,
2000
3000
0100
0000
1000
0000
0010
0000
0100
0000
0001
0000
0010
0000
0001
0000
,
2000
3000
0100
0000
1000
0000
0010
0000
0100
0000
0001
0000
0010
0000
0001
0000
,
2000
3000
0100
0000
1000
0000
0010
0000
0100
0000
0001
0000
0010
0000
0001
0000
,
1000
0010
1000
0010
0100
0010
0100
0010
,
0100
0001
0100
0001
0010
0001
0010
0001
,
0010
0100
0010
0100
0010
0100
0010
0100
,
1000
0100
1000
0100
1000
0100
1000
0100
,
2000
3000
0000
0000
0010
0000
0000
0000
1000
0000
0000
0000
0100
0000
0000
0000
,
0020
0030
0000
0000
0100
0000
0000
0000
0010
0000
0000
0000
0001
0000
0000
0000
,
0200
0300
0000
0000
0001
0000
0000
0000
1000
0000
0000
0000
0100
0000
0000
0000
,
2000
3000
0000
0000
0010
0000
0000
0000
0100
0000
0000
0000
0001
0000
0000
0000
,
2200
0000
0000
0000
,
3300
1000
1000
1000
,
2020
0000
0000
0000
,
3030
0010
0010
0010
,
0220
0000
0000
0000
,
0330
0100
0100
0100
,
0202
0000
0000
0000
,
0303
0001
0001
0001
,
0022
0000
0000
0000
,
0033
0010
0010
0010
,
0220
0000
0000
0000
,
0330
0100
0100
0100
,
2200
0000
0000
0000
,
3300
1000
1000
1000
,
2002
0000
0000
0000
,
3003
0001
0001
0001
,
2020
0000
0000
0000
,
3030
1000
1000
1000
,
2200
0000
0000
0000
,
3300
0100
0100
0100
,
0220
0000
0000
0000
,
0330
0010
0010
0010
,
0022
0000
0000
0000
,
0033
0001
0001
0001
,
0202
0000
0000
0000
,
0303
0100
0100
0100
,
0220
0000
0000
0000
,
0330
0010
0010
0010
,
2020
0000
0000
0000
,
3030
1000
1000
1000
,
2002
0000
0000
0000
,
3003
0001
0001
0001
,
1000
0100
1000
0100
,
1000
0100
1000
0100
,
1000
0010
1000
0010
,
1000
0010
1000
0010
,
0100
0010
0100
0010
,
0100
0010
0100
0010
,
0100
0001
0100
0001
,
0100
0001
0100
0001
,
0010
0001
0010
0001
,
0010
0001
0010
0001
,
0010
0100
0010
0100
,
0010
0100
0010
0100
,
1000
0100
1000
0100
,
1000
0100
1000
0100
,
1000
0001
1000
0001
,
1000
0001
1000
0001
,
1000
0010
1000
0010
,
1000
0010
1000
0010
,
1000
0100
1000
0100
,
1000
0100
1000
0100
,
0010
0100
0010
0100
,
0010
0100
0010
0100
,
0010
0001
0010
0001
,
0010
0001
0010
0001
,
0100
0001
0100
0001
,
0100
0001
0100
0001
,
0100
0010
0100
0010
,
0100
0010
0100
0010
,
1000
0010
1000
0010
,
1000
0010
1000
0010
,
1000
0001
1000
0001
,
1000
0001
1000
0001
,
2200
0000
0000
0000
,
3300
1000
1000
1000
,
2020
0000
0000
0000
,
3030
0010
0010
0010
,
0220
0000
0000
0000
,
0330
0100
0100
0100
,
0202
0000
0000
0000
,
0303
0001
0001
0001
,
0022
0000
0000
0000
,
0033
0010
0010
0010
,
0220
0000
0000
0000
,
0330
0100
0100
0100
,
2200
0000
0000
0000
,
3300
1000
1000
1000
,
2002
0000
0000
0000
,
3003
0001
0001
0001
,
2020
0000
0000
0000
,
3030
1000
1000
1000
,
2200
0000
0000
0000
,
3300
0100
0100
0100
,
0220
0000
0000
0000
,
0330
0010
0010
0010
,
0022
0000
0000
0000
,
0033
0001
0001
0001
,
0202
0000
0000
0000
,
0303
0100
0100
0100
,
0220
0000
0000
0000
,
0330
0010
0010
0010
,
2020
0000
0000
0000
,
3030
1000
1000
1000
,
2002
0000
0000
0000
,
3003
0001
0001
0001
,
4000
3000
0000
0000
0100
0000
0000
0000
0010
0000
0000
0000
4000
3000
0000
0000
,
0010
0000
0000
0000
0001
0000
0000
0000
0400
0300
0000
0000
0010
0000
0000
0000
,
0202
0303
0010
0000
1000
0000
0100
0000
,
2020
3030
0001
0000
0100
0000
0010
0000
,
4000
3000
0000
0000
0100
0000
0000
0000
0010
0000
0000
0000
4000
3000
0000
0000
,
0010
0000
0000
0000
0001
0000
0000
0000
0400
0300
0000
0000
0010
0000
0000
0000
,
2200
3300
0010
0000
1000
0000
0100
0000
,
0022
0033
0001
0000
0100
0000
0010
0000
,
4000
3000
0000
0000
0010
0000
0000
0000
0100
0000
0000
0000
4000
3000
0000
0000
,
0100
0000
0000
0000
0001
0000
0000
0000
0040
0030
0000
0000
0100
0000
0000
0000
,
0022
0033
0100
0000
1000
0000
0010
0000
,
0202
0303
0001
0000
0010
0000
0100
0000
,
4000
3000
0000
0000
0010
0000
0000
0000
0100
0000
0000
0000
4000
3000
0000
0000
,
0100
0000
0000
0000
0001
0000
0000
0000
0040
0030
0000
0000
0100
0000
0000
0000
,
0220
0330
0100
0000
1000
0000
0010
0000
,
2200
3300
0001
0000
0010
0000
0100
0000
,
2200
0000
0000
0000
,
3300
1000
1000
1000
,
2020
0000
0000
0000
,
3030
0010
0010
0010
,
0220
0000
0000
0000
,
0330
0100
0100
0100
,
0202
0000
0000
0000
,
0303
0001
0001
0001
,
0022
0000
0000
0000
,
0033
0010
0010
0010
,
0220
0000
0000
0000
,
0330
0100
0100
0100
,
2200
0000
0000
0000
,
3300
1000
1000
1000
,
2002
0000
0000
0000
,
3003
0001
0001
0001
,
2000
0000
0000
3000
0000
0000
0000
0000
0100
0000
0000
0000
0000
0000
0000
0000
1000
0000
0000
0000
0000
0000
0000
0000
0010
0000
0000
0000
0000
0000
0000
0000
0100
0000
0000
0000
0000
0000
0000
0000
0001
0000
0000
0000
0000
0000
0000
0000
,
2000
0000
0000
3000
0000
0000
0000
0000
0100
0000
0000
0000
0000
0000
0000
0000
1000
0000
0000
0000
0000
0000
0000
0000
0010
0000
0000
0000
0000
0000
0000
0000
0100
0000
0000
0000
0000
0000
0000
0000
0001
0000
0000
0000
0000
0000
0000
0000
,
2000
3000
0001
0000
0010
0000
0100
0000
0010
0000
0001
0000
0010
0000
0100
0000
,
2000
3000
0001
0000
0010
0000
0100
0000
0010
0000
0001
0000
0010
0000
0100
0000
,
2000
0000
0000
3000
0000
0000
0000
0000
0100
0000
0000
0000
0000
0000
0000
0000
1000
0000
0000
0000
0000
0000
0000
0000
0010
0000
0000
0000
0000
0000
0000
0000
0100
0000
0000
0000
0000
0000
0000
0000
0001
0000
0000
0000
0000
0000
0000
0000
,
2000
0000
0000
3000
0000
0000
0000
0000
0100
0000
0000
0000
0000
0000
0000
0000
1000
0000
0000
0000
0000
0000
0000
0000
0010
0000
0000
0000
0000
0000
0000
0000
0100
0000
0000
0000
0000
0000
0000
0000
0001
0000
0000
0000
0000
0000
0000
0000
,
2000
3000
0001
0000
0010
0000
0100
0000
0010
0000
0001
0000
0010
0000
0100
0000
,
2000
3000
0001
0000
0010
0000
0100
0000
0010
0000
0001
0000
0010
0000
0100
0000
,
2000
3000
0010
0000
1000
0000
0100
0000
0010
0000
0100
0000
0010
0000
0001
0000
,
2000
3000
0010
0000
1000
0000
0100
0000
0010
0000
0100
0000
0010
0000
0001
0000
,
2000
3000
0001
0000
0010
0000
0100
0000
0010
0000
0001
0000
0010
0000
0100
0000
,
2000
3000
0001
0000
0010
0000
0100
0000
0010
0000
0001
0000
0010
0000
0100
0000
,
2000
3000
0000
0000
0010
0000
0000
0000
1000
0000
0000
0000
0100
0000
0000
0000
,
0020
0030
0000
0000
0001
0000
0000
0000
0100
0000
0000
0000
0001
0000
0000
0000
,
2000
3000
0001
0000
0010
0000
0100
0000
1000
0000
0001
0000
0010
0000
0100
0000
,
2000
3000
0001
0000
0010
0000
0100
0000
1000
0000
0001
0000
0010
0000
0100
0000
,
2000
0000
0000
3000
0000
0000
0000
0000
0100
0000
0000
0000
0000
0000
0000
0000
0010
0000
0000
0000
0000
0000
0000
0000
0001
0000
0000
0000
0000
0000
0000
0000
1000
0000
0000
0000
0000
0000
0000
0000
0100
0000
0000
0000
0000
0000
0000
0000
,
0020
0000
0000
0030
0000
0000
0000
0000
0001
0000
0000
0000
0000
0000
0000
0000
1000
0000
0000
0000
0000
0000
0000
0000
0100
0000
0000
0000
0000
0000
0000
0000
0010
0000
0000
0000
0000
0000
0000
0000
0001
0000
0000
0000
0000
0000
0000
0000
,
2000
3000
0001
0000
0010
0000
0001
0000
0010
0000
0100
0000
1000
0000
0100
0000
,
2000
3000
0001
0000
0010
0000
0001
0000
0010
0000
0100
0000
1000
0000
0100
0000
,
2000
0000
0000
3000
0000
0000
0000
0000
0100
0000
0000
0000
0000
0000
0000
0000
0010
0000
0000
0000
0000
0000
0000
0000
0001
0000
0000
0000
0000
0000
0000
0000
1000
0000
0000
0000
0000
0000
0000
0000
0100
0000
0000
0000
0000
0000
0000
0000
,
0020
0000
0000
0030
0000
0000
0000
0000
0001
0000
0000
0000
0000
0000
0000
0000
1000
0000
0000
0000
0000
0000
0000
0000
0100
0000
0000
0000
0000
0000
0000
0000
0010
0000
0000
0000
0000
0000
0000
0000
0001
0000
0000
0000
0000
0000
0000
0000
,
2000
3000
0001
0000
0010
0000
0001
0000
0010
0000
0100
0000
1000
0000
0100
0000
,
2000
3000
0001
0000
0010
0000
0001
0000
0010
0000
0100
0000
1000
0000
0100
0000
,
2000
3000
0001
0000
1000
0000
0010
0000
0100
0000
0010
0000
1000
0000
0100
0000
,
2000
3000
0001
0000
1000
0000
0010
0000
0100
0000
0010
0000
1000
0000
0100
0000
,
2000
3000
0001
0000
0010
0000
0100
0000
1000
0000
0100
0000
0010
0000
0100
0000
,
2000
3000
0001
0000
0010
0000
0100
0000
1000
0000
0100
0000
0010
0000
0100
0000
,
2000
3000
0000
0000
0100
0000
0000
0000
1000
0000
0000
0000
0010
0000
0000
0000
,
0200
0300
0000
0000
0001
0000
0000
0000
0010
0000
0000
0000
0001
0000
0000
0000
,
2000
3000
0001
0000
0010
0000
0100
0000
1000
0000
0100
0000
0010
0000
0100
0000
,
2000
3000
0001
0000
0010
0000
0100
0000
1000
0000
0100
0000
0010
0000
0100
0000
,
1000
0100
1000
0100
,
0010
0001
0010
0001
,
1000
0010
1000
0010
,
0100
0001
0100
0001
,
1000
0100
1000
0100
0010
0100
0010
0001
,
1000
0100
1000
0100
0010
0100
0010
0001
,
1000
0100
1000
0100
0010
0100
0010
0001
,
1000
0100
1000
0100
0010
0100
0010
0001
,
1000
0010
1000
0010
,
0100
0001
0100
0001
,
1000
0100
1000
0100
,
0010
0001
0010
0001
,
2000
3200
1300
0020
,
0230
0301
0020
0032
,
2003
3100
1000
0100
,
0020
0031
0010
0001
,
2000
3200
1300
0020
,
0230
0301
0020
0032
,
2003
3100
1000
0100
,
0020
0031
0010
0001
,
2000
3020
1030
0200
,
0320
0031
0200
0302
,
2003
3010
1000
0010
,
0200
0301
0100
0001
,
2000
3200
1300
0020
,
0230
0301
0020
0032
,
2003
3010
1000
0010
,
0200
0301
0100
0001
,
2000
3200
1300
0020
,
0230
0301
0020
0032
,
2003
3010
1000
0010
,
0200
0301
0100
0004
,
0000
0000
0000
0000
,
0000
0000
0000
0000
,
0000
0000
0000
0000
,
0000
0000
0000
0000
,
0000
0000
0000
0000
,
0000
0000
0000
0000
,
0000
0000
0000
0000
,
0000
0000
0000
0000
,
0003
0000
0000
0000
;

//--------------- dance-single - ----------------
#NOTES:
     dance-single:
     :
     Hard:
     5555:
     0,0,0,0,0:
0000
0000
0000
0000
,
0000
0000
0000
0000
,
0000
0000
0000
0000
,
0000
0000
0000
0000
,
1000
0000
0100
0000
0010
0000
0001
0000
0010
0000
0100
0000
,
1000
0000
0100
0000
0010
0000
0001
0000
0010
0000
0100
0000
,
1000
0000
0100
0000
0010
0000
0001
0000
0010
0000
0100
0000
,
1000
0000
0100
0000
0010
0000
0001
0000
0010
0000
0100
0000
,
1000
0000
0100
0000
0010
0000
0001
0000
0010
0000
0100
0000
,
1000
0000
0100
0000
0010
0000
0001
0000
0010
0000
0100
0000
,
1000
0000
0100
0000
0010
0000
0001
0000
0010
0000
0100
0000
,
1000
0000
0100
0000
0010
0000
0001
0000
0010
0000
0100
0000
,
1000
0100
0010
0001
0010
0100
1000
0100
,
0010
0001
0010
0100
1000
0100
0010
0001
,
0010
0100
1000
0100
0010
0001
0010
0100
,
1000
0100
0010
0001
0010
0100
1000
0100
,
0010
0001
0010
0100
1000
0100
0010
0001
,
0010
0100
1000
0100
0010
0001
0010
0100
,
1000
0100
0010
0001
0010
0100
1000
0100
,
0010
0001
0010
0100
1000
0100
0010
0001
,
4000
3000
0000
0000
0100
0000
0000
0000
1000
0000
0000
0000
0040
0030
0000
0000
,
0100
0000
0000
0000
0001
0000
0000
0000
0040
0030
0000
0000
0001
0000
0000
0000
,
2220
3330
0010
0000
1000
0000
0100
0000
,
2022
3033
0010
0000
0100
0000
0001
0000
,
4000
3000
0000
0000
0010
0000
0000
0000
1000
0000
0000
0000
0400
0300
0000
0000
,
0010
0000
0000
0000
0001
0000
0000
0000
0400
0300
0000
0000
0001
0000
0000
0000
,
0222
0333
0100
0000
1000
0000
0010
0000
,
2202
3303
0100
0000
0010
0000
0001
0000
,
4000
3000
0000
0000
0100
0000
0000
0000
0010
0000
0000
0000
0400
0300
0000
0000
,
1000
0000
0000
0000
0010
0000
0000
0000
0400
0300
0000
0000
0001
0000
0000
0000
,
2022
3033
0100
0000
0010
0000
0100
0000
,
2220
3330
0010
0000
0100
0000
0001
0000
,
4000
3000
0000
0000
0010
0000
0000
0000
0100
0000
0000
0000
0040
0030
0000
0000
,
1000
0000
0000
0000
0100
0000
0000
0000
0040
0030
0000
0000
0001
0000
0000
0000
,
2202
3303
0010
0000
0100
0000
0010
0000
,
2222
3333
0100
0000
0010
0000
0001
0000
,
2000
0000
0000
3000
0000
0000
0000
0000
0100
0000
0000
0000
0000
0000
0000
0000
0010
0000
0000
0000
0000
0000
0000
0000
0100
0000
0000
0000
0000
0000
0000
0000
0010
0000
0000
0000
0000
0000
0000
0000
0001
0000
0000
0000
0000
0000
0000
0000
,
2000
0000
0000
3000
0000
0000
0000
0000
0100
0000
0000
0000
0000
0000
0000
0000
0010
0000
0000
0000
0000
0000
0000
0000
0100
0000
0000
0000
0000
0000
0000
0000
0010
0000
0000
0000
0000
0000
0000
0000
0001
0000
0000
0000
0000
0000
0000
0000
,
2000
3000
0001
0000
0010
0000
0100
0000
1000
0000
0001
0000
0010
0000
0100
0000
,
2000
3000
0001
0000
0010
0000
0100
0000
1000
0000
0001
0000
0010
0000
0100
0000
,
2000
0000
0000
3000
0000
0000
0000
0000
0100
0000
0000
0000
0000
0000
0000
0000
0010
0000
0000
0000
0000
0000
0000
0000
0100
0000
0000
0000
0000
0000
0000
0000
0010
0000
0000
0000
0000
0000
0000
0000
0001
0000
0000
0000
0000
0000
0000
0000
,
2000
0000
0000
3000
0000
0000
0000
0000
0100
0000
0000
0000
0000
0000
0000
0000
0010
0000
0000
0000
0000
0000
0000
0000
0100
0000
0000
0000
0000
0000
0000
0000
0010
0000
0000
0000
0000
0000
0000
0000
0001
0000
0000
0000
0000
0000
0000
0000
,
2000
3000
0001
0000
0010
0000
0100
0000
1000
0000
0001
0000
0010
0000
0100
0000
,
2000
3000
0001
0000
0010
0000
0100
0000
1000
0000
0001
0000
0010
0000
0100
0000
,
2000
3000
0100
0000
1000
0000
0010
0000
0100
0000
0010
0000
0100
0000
0001
0000
,
2000
3000
0010
0000
1000
0000
0100
0000
0010
0000
0100
0000
0010
0000
0001
0000
,
2000
3000
0001
0000
0010
0000
0100
0000
1000
0000
0001
0000
0010
0000
0100
0000
,
2000
3000
0001
0000
0010
0000
0100
0000
1000
0000
0001
0000
0010
0000
0100
0000
,
2000
3000
0000
0000
0010
0000
0000
0000
0100
0000
0000
0000
0001
0000
0000
0000
,
2000
3000
0000
0000
0100
0000
0000
0000
0010
0000
0000
0000
0001
0000
0000
0000
,
2000
3000
0001
0000
0010
0000
0001
0000
0100
0000
0010
0000
0100
0000
0010
0000
,
2000
3000
0001
0000
0010
0000
0001
0000
0100
0000
0010
0000
0100
0000
0010
0000
,
1000
0100
1000
0100
0010
0100
0010
0100
,
0010
0001
0010
0001
1000
0001
1000
0001
,
1000
0010
1000
0010
0100
0010
0100
0010
,
0100
0001
0100
0001
1000
0001
1000
0001
,
2000
3000
0100
0000
1000
0000
0010
0000
0100
0000
0010
0000
0100
0000
0001
0000
,
2000
3000
0100
0000
1000
0000
0010
0000
0100
0000
0010
0000
0100
0000
0001
0000
,
2000
3000
0100
0000
1000
0000
0010
0000
0100
0000
0010
0000
0100
0000
0001
0000
,
2000
3000
0100
0000
1000
0000
0010
0000
0100
0000
0010
0000
0100
0000
0001
0000
,
1000
0100
1000
0100
0010
0100
0010
0100
,
0010
0001
0010
0001
0100
0001
0100
0001
,
0100
0010
0100
0010
0100
0010
0100
0010
,
1000
0010
1000
0010
1000
0010
1000
0010
,
2000
3000
0000
0000
0100
0000
0000
0000
1000
0000
0000
0000
0010
0000
0000
0000
,
0200
0300
0000
0000
0010
0000
0000
0000
0100
0000
0000
0000
0001
0000
0000
0000
,
0020
0030
0000
0000
0001
0000
0000
0000
1000
0000
0000
0000
0010
0000
0000
0000
,
2000
3000
0000
0000
0100
0000
0000
0000
0010
0000
0000
0000
0001
0000
0000
0000
,
1000
0010
1000
0010
0100
0010
0100
0010
,
0100
0001
0100
0001
1000
0001
1000
0001
,
1000
0100
1000
0100
0010
0100
0010
0100
,
0010
0001
0010
0001
1000
0001
1000
0001
,
2000
3000
0100
0000
1000
0000
0010
0000
0100
0000
0001
0000
0010
0000
0001
0000
,
2000
3000
0100
0000
1000
0000
0010
0000
0100
0000
0001
0000
0010
0000
0001
0000
,
2000
3000
0100
0000
1000
0000
0010
0000
0100
0000
0001
0000
0010
0000
0001
0000
,
2000
3000
0100
0000
1000
0000
0010
0000
0100
0000
0001
0000
0010
0000
0001
0000
,
1000
0010
1000
0010
0100
0010
0100
0010
,
0100
0001
0100
0001
0010
0001
0010
0001
,
0010
0100
0010
0100
0010
0100
0010
0100
,
1000
0100
1000
0100
1000
0100
1000
0100
,
2000
3000
0000
0000
0010
0000
0000
0000
1000
0000
0000
0000
0100
0000
0000
0000
,
0020
0030
0000
0000
0100
0000
0000
0000
0010
0000
0000
0000
0001
0000
0000
0000
,
0200
0300
0000
0000
0001
0000
0000
0000
1000
0000
0000
0000
0100
0000
0000
0000
,
2000
3000
0000
0000
0010
0000
0000
0000
0100
0000
0000
0000
0001
0000
0000
0000
,
2200
0000
0000
0000
,
3300
1100
1100
1100
,
2020
0000
0000
0000
,
3030
1010
1010
1010
,
0220
0000
0000
0000
,
0330
0110
0110
0110
,
0202
0000
0000
0000
,
0303
0101
0101
0101
,
0022
0000
0000
0000
,
0033
0011
0011
0011
,
0220
0000
0000
0000
,
0330
0110
0110
0110
,
2200
0000
0000
0000
,
3300
1100
1100
1100
,
2002
0000
0000
0000
,
3003
1001
1001
1001
,
2020
0000
0000
0000
,
3030
1010
1010
1010
,
2200
0000
0000
0000
,
3300
1100
1100
1100
,
0220
0000
0000
0000
,
0330
0110
0110
0110
,
0022
0000
0000
0000
,
0033
0011
0011
0011
,
0202
0000
0000
0000
,
0303
0101
0101
0101
,
0220
0000
0000
0000
,
0330
0110
0110
0110
,
2020
0000
0000
0000
,
3030
1010
1010
1010
,
2002
0000
0000
0000
,
3003
1001
1001
1001
,
1100
1000
0100
1000
,
1100
0100
1000
0100
,
1010
0010
1000
0010
,
1010
1000
0010
1000
,
0110
0100
0010
0100
,
0110
0010
0100
0010
,
0101
0001
0100
0001
,
0101
0100
0001
0100
,
0011
0010
0001
0010
,
0011
0001
0010
0001
,
0110
0100
0010
0100
,
0110
0010
0100
0010
,
1100
1000
0100
1000
,
1100
0100
1000
0100
,
1001
0001
1000
0001
,
1001
1000
0001
1000
,
1010
0010
1000
0010
,
1010
1000
0010
1000
,
1100
1000
0100
1000
,
1100
0100
1000
0100
,
0110
0100
0010
0100
,
0110
0010
0100
0010
,
0011
0010
0001
0010
,
0011
0001
0010
0001
,
0101
0001
0100
0001
,
0101
0100
0001
0100
,
0110
0100
0010
0100
,
0110
0010
0100
0010
,
1010
0010
1000
0010
,
1010
1000
0010
1000
,
1001
1000
0001
1000
,
1001
0001
1000
0001
,
2200
0000
0000
0000
,
3300
1100
1100
1100
,
2020
0000
0000
0000
,
3030
1010
1010
1010
,
0220
0000
0000
0000
,
0330
0110
0110
0110
,
0202
0000
0000
0000
,
0303
0101
0101
0101
,
0022
0000
0000
0000
,
0033
0011
0011
0011
,
0220
0000
0000
0000
,
0330
0110
0110
0110
,
2200
0000
0000
0000
,
3300
1100
1100
1100
,
2002
0000
0000
0000
,
3003
1001
1001
1001
,
2020
0000
0000
0000
,
3030
1010
1010
1010
,
2200
0000
0000
0000
,
3300
1100
1100
1100
,
0220
0000
0000
0000
,
0330
0110
0110
0110
,
0022
0000
0000
0000
,
0033
0011
0011
0011
,
0202
0000
0000
0000
,
0303
0101
0101
0101
,
0220
0000
0000
0000
,
0330
0110
0110
0110
,
2020
0000
0000
0000
,
3030
1010
1010
1010
,
2002
0000
0000
0000
,
3003
1001
1001
1001
,
4000
3000
0000
0000
0100
0000
0000
0000
0010
0000
0000
0000
4000
3000
0000
0000
,
0010
0000
0000
0000
0001
0000
0000
0000
0400
0300
0000
0000
0010
0000
0000
0000
,
0222
0333
0010
0000
1000
0000
0100
0000
,
2220
3330
0001
0000
0100
0000
0010
0000
,
4000
3000
0000
0000
0100
0000
0000
0000
0010
0000
0000
0000
4000
3000
0000
0000
,
0010
0000
0000
0000
0001
0000
0000
0000
0400
0300
0000
0000
0010
0000
0000
0000
,
2202
3303
0010
0000
1000
0000
0100
0000
,
2022
3033
0001
0000
0100
0000
0010
0000
,
4000
3000
0000
0000
0010
0000
0000
0000
0100
0000
0000
0000
4000
3000
0000
0000
,
0100
0000
0000
0000
0001
0000
0000
0000
0040
0030
0000
0000
0100
0000
0000
0000
,
2022
3033
0100
0000
1000
0000
0010
0000
,
2202
3303
0001
0000
0010
0000
0100
0000
,
4000
3000
0000
0000
0010
0000
0000
0000
0100
0000
0000
0000
4000
3000
0000
0000
,
0100
0000
0000
0000
0001
0000
0000
0000
0040
0030
0000
0000
0100
0000
0000
0000
,
0222
0333
0100
0000
1000
0000
0010
0000
,
2220
3330
0001
0000
0010
0000
0100
0000
,
2200
0000
0000
0000
,
3300
1010
1010
1010
,
2020
0000
0000
0000
,
3030
0110
0110
0110
,
0220
0000
0000
0000
,
0330
0101
0101
0101
,
0202
0000
0000
0000
,
0303
0011
0011
0011
,
0022
0000
0000
0000
,
0033
0110
0110
0110
,
0220
0000
0000
0000
,
0330
1100
1100
1100
,
2200
0000
0000
0000
,
3300
1001
1001
1001
,
2002
0000
0000
0000
,
3003
1100
1100
1100
,
2000
0000
0000
3000
0000
0000
0000
0000
0100
0000
0000
0000
0000
0000
0000
0000
1000
0000
0000
0000
0000
0000
0000
0000
0010
0000
0000
0000
0000
0000
0000
0000
0100
0000
0000
0000
0000
0000
0000
0000
0001
0000
0000
0000
0000
0000
0000
0000
,
2000
0000
0000
3000
0000
0000
0000
0000
0100
0000
0000
0000
0000
0000
0000
0000
1000
0000
0000
0000
0000
0000
0000
0000
0010
0000
0000
0000
0000
0000
0000
0000
0100
0000
0000
0000
0000
0000
0000
0000
0001
0000
0000
0000
0000
0000
0000
0000
,
2000
3000
0001
0000
0010
0000
0100
0000
0010
0000
0001
0000
0010
0000
0100
0000
,
2000
3000
0001
0000
0010
0000
0100
0000
0010
0000
0001
0000
0010
0000
0100
0000
,
2000
0000
0000
3000
0000
0000
0000
0000
0100
0000
0000
0000
0000
0000
0000
0000
1000
0000
0000
0000
0000
0000
0000
0000
0010
0000
0000
0000
0000
0000
0000
0000
0100
0000
0000
0000
0000
0000
0000
0000
0001
0000
0000
0000
0000
0000
0000
0000
,
2000
0000
0000
3000
0000
0000
0000
0000
0100
0000
0000
0000
0000
0000
0000
0000
1000
0000
0000
0000
0000
0000
0000
0000
0010
0000
0000
0000
0000
0000
0000
0000
0100
0000
0000
0000
0000
0000
0000
0000
0001
0000
0000
0000
0000
0000
0000
0000
,
2000
3000
0001
0000
0010
0000
0100
0000
0010
0000
0001
0000
0010
0000
0100
0000
,
2000
3000
0001
0000
0010
0000
0100
0000
0010
0000
0001
0000
0010
0000
0100
0000
,
2000
3000
0010
0000
1000
0000
0100
0000
0010
0000
0100
0000
0010
0000
0001
0000
,
2000
3000
0010
0000
1000
0000
0100
0000
0010
0000
0100
0000
0010
0000
0001
0000
,
2000
3000
0001
0000
0010
0000
0100
0000
0010
0000
0001
0000
0010
0000
0100
0000
,
2000
3000
0001
0000
0010
0000
0100
0000
0010
0000
0001
0000
0010
0000
0100
0000
,
2000
3000
0000
0000
0010
0000
0000
0000
1000
0000
0000
0000
0100
0000
0000
0000
,
0020
0030
0000
0000
0001
0000
0000
0000
0100
0000
0000
0000
0001
0000
0000
0000
,
2000
3000
0001
0000
0010
0000
0100
0000
1000
0000
0001
0000
0010
0000
0100
0000
,
2000
3000
0001
0000
0010
0000
0100
0000
1000
0000
0001
0000
0010
0000
0100
0000
,
2000
0000
0000
3000
0000
0000
0000
0000
0100
0000
0000
0000
0000
0000
0000
0000
0010
0000
0000
0000
0000
0000
0000
0000
0001
0000
0000
0000
0000
0000
0000
0000
1000
0000
0000
0000
0000
0000
0000
0000
0100
0000
0000
0000
0000
0000
0000
0000
,
0020
0000
0000
0030
0000
0000
0000
0000
0001
0000
0000
0000
0000
0000
0000
0000
1000
0000
0000
0000
0000
0000
0000
0000
0100
0000
0000
0000
0000
0000
0000
0000
0010
0000
0000
0000
0000
0000
0000
0000
0001
0000
0000
0000
0000
0000
0000
0000
,
2000
3000
0001
0000
0010
0000
0001
0000
0010
0000
0100
0000
1000
0000
0100
0000
,
2000
3000
0001
0000
0010
0000
0001
0000
0010
0000
0100
0000
1000
0000
0100
0000
,
2000
0000
0000
3000
0000
0000
0000
0000
0100
0000
0000
0000
0000
0000
0000
0000
0010
0000
0000
0000
0000
0000
0000
0000
0001
0000
0000
0000
0000
0000
0000
0000
1000
0000
0000
0000
0000
0000
0000
0000
0100
0000
0000
0000
0000
0000
0000
0000
,
0020
0000
0000
0030
0000
0000
0000
0000
0001
0000
0000
0000
0000
0000
0000
0000
1000
0000
0000
0000
0000
0000
0000
0000
0100
0000
0000
0000
0000
0000
0000
0000
0010
0000
0000
0000
0000
0000
0000
0000
0001
0000
0000
0000
0000
0000
0000
0000
,
2000
3000
0001
0000
0010
0000
0001
0000
0010
0000
0100
0000
1000
0000
0100
0000
,
2000
3000
0001
0000
0010
0000
0001
0000
0010
0000
0100
0000
1000
0000
0100
0000
,
2000
3000
0001
0000
1000
0000
0010
0000
0100
0000
0010
0000
1000
0000
0100
0000
,
2000
3000
0001
0000
1000
0000
0010
0000
0100
0000
0010
0000
1000
0000
0100
0000
,
2000
3000
0001
0000
0010
0000
0100
0000
1000
0000
0100
0000
0010
0000
0100
0000
,
2000
3000
0001
0000
0010
0000
0100
0000
1000
0000
0100
0000
0010
0000
0100
0000
,
2000
3000
0000
0000
0100
0000
0000
0000
1000
0000
0000
0000
0010
0000
0000
0000
,
0200
0300
0000
0000
0001
0000
0000
0000
0010
0000
0000
0000
0001
0000
0000
0000
,
2000
3000
0001
0000
0010
0000
0100
0000
1000
0000
0100
0000
0010
0000
0100
0000
,
2000
3000
0001
0000
0010
0000
0100
0000
1000
0000
0100
0000
0010
0000
0100
0000
,
1000
0100
1000
0100
,
0010
0001
0010
0001
,
1000
0010
1000
0010
,
0100
0001
0100
0001
,
1000
0100
1000
0100
0010
0100
0010
0001
,
1000
0100
1000
0100
0010
0100
0010
0001
,
1000
0100
1000
0100
0010
0100
0010
0001
,
1000
0100
1000
0100
0010
0100
0010
0001
,
1000
0010
1000
0010
,
0100
0001
0100
0001
,
1000
0100
1000
0100
,
0010
0001
0010
0001
,
2000
3200
1300
0020
,
0230
0301
0020
0032
,
2003
3100
1000
0100
,
0020
0031
0010
0001
,
2000
3200
1300
0020
,
0230
0301
0020
0032
,
2003
3100
1000
0100
,
0020
0031
0010
0001
,
2000
3020
1030
0200
,
0320
0031
0200
0302
,
2003
3010
1000
0010
,
0200
0301
0100
0001
,
2000
3200
1300
0020
,
0230
0301
0020
0032
,
2003
3010
1000
0010
,
0200
0301
0100
0001
,
2000
3200
1300
0020
,
0230
0301
0020
0032
,
2003
3010
1000
0010
,
0200
0301
0100
0004
,
0000
0000
0000
0000
,
0000
0000
0000
0000
,
0000
0000
0000
0000
,
0000
0000
0000
0000
,
0000
0000
0000
0000
,
0000
0000
0000
0000
,
0000
0000
0000
0000
,
0000
0000
0000
0000
,
0003
0000
0000
0000
;

//--------------- dance-single - ----------------
#NOTES:
     dance-single:
     :
     Challenge:
     55555:
     0,0,0,0,0:
0000
0000
0000
0000
,
0000
0000
0000
0000
,
0000
0000
0000
0000
,
0000
0000
0000
0000
,
1000
0000
0100
0000
0010
0000
0001
0000
0010
0000
0100
0000
,
1000
0000
0100
0000
0010
0000
0001
0000
0010
0000
0100
0000
,
1000
0000
0100
0000
0010
0000
0001
0000
0010
0000
0100
0000
,
1000
0000
0100
0000
0010
0000
0001
0000
0010
0000
0100
0000
,
1000
0000
0100
0000
0010
0000
0001
0000
0010
0000
0100
0000
,
1000
0000
0100
0000
0010
0000
0001
0000
0010
0000
0100
0000
,
1000
0000
0100
0000
0010
0000
0001
0000
0010
0000
0100
0000
,
1000
0000
0100
0000
0010
0000
0001
0000
0010
0000
0100
0000
,
1000
0100
0010
0001
0010
0100
1000
0100
,
0010
0001
0010
0100
1000
0100
0010
0001
,
0010
0100
1000
0100
0010
0001
0010
0100
,
1000
0100
0010
0001
0010
0100
1000
0100
,
0010
0001
0010
0100
1000
0100
0010
0001
,
0010
0100
1000
0100
0010
0001
0010
0100
,
1000
0100
0010
0001
0010
0100
1000
0100
,
0010
0001
0010
0100
1000
0100
0010
0001
,
4000
3000
0000
0000
0100
0000
0000
0000
1000
0000
0000
0000
0040
0030
0000
0000
,
0100
0000
0000
0000
0001
0000
0000
0000
0040
0030
0000
0000
0001
0000
0000
0000
,
2220
3330
0010
0000
1000
0000
0100
0000
,
2022
3033
0010
0000
0100
0000
0001
0000
,
4000
3000
0000
0000
0010
0000
0000
0000
1000
0000
0000
0000
0400
0300
0000
0000
,
0010
0000
0000
0000
0001
0000
0000
0000
0400
0300
0000
0000
0001
0000
0000
0000
,
0222
0333
0100
0000
1000
0000
0010
0000
,
2202
3303
0100
0000
0010
0000
0001
0000
,
4000
3000
0000
0000
0100
0000
0000
0000
0010
0000
0000
0000
0400
0300
0000
0000
,
1000
0000
0000
0000
0010
0000
0000
0000
0400
0300
0000
0000
0001
0000
0000
0000
,
2022
3033
0100
0000
0010
0000
0100
0000
,
2220
3330
0010
0000
0100
0000
0001
0000
,
4000
3000
0000
0000
0010
0000
0000
0000
0100
0000
0000
0000
0040
0030
0000
0000
,
1000
0000
0000
0000
0100
0000
0000
0000
0040
0030
0000
0000
0001
0000
0000
0000
,
2202
3303
0010
0000
0100
0000
0010
0000
,
2222
3333
0100
0000
0010
0000
0001
0000
,
1002
0000
0000
0003
0000
0000
0000
0000
0100
0000
0000
0000
0000
0000
0000
0000
0010
0000
0000
0000
0000
0000
0000
0000
0100
0000
0000
0000
0000
0000
0000
0000
0010
0000
0000
0000
0000
0000
0000
0000
0001
0000
0000
0000
0000
0000
0000
0000
,
1002
0000
0000
0003
0000
0000
0000
0000
0100
0000
0000
0000
0000
0000
0000
0000
0010
0000
0000
0000
0000
0000
0000
0000
0100
0000
0000
0000
0000
0000
0000
0000
0010
0000
0000
0000
0000
0000
0000
0000
0001
0000
0000
0000
0000
0000
0000
0000
,
1002
0003
0001
0000
0010
0000
0100
0000
1000
0000
0001
0000
0010
0000
0100
0000
,
1002
0003
0001
0000
0010
0000
0100
0000
1000
0000
0001
0000
0010
0000
0100
0000
,
1002
0000
0000
0003
0000
0000
0000
0000
0100
0000
0000
0000
0000
0000
0000
0000
0010
0000
0000
0000
0000
0000
0000
0000
0100
0000
0000
0000
0000
0000
0000
0000
0010
0000
0000
0000
0000
0000
0000
0000
0001
0000
0000
0000
0000
0000
0000
0000
,
1002
0000
0000
0003
0000
0000
0000
0000
0100
0000
0000
0000
0000
0000
0000
0000
0010
0000
0000
0000
0000
0000
0000
0000
0100
0000
0000
0000
0000
0000
0000
0000
0010
0000
0000
0000
0000
0000
0000
0000
0001
0000
0000
0000
0000
0000
0000
0000
,
1002
0003
0001
0000
0010
0000
0100
0000
1000
0000
0001
0000
0010
0000
0100
0000
,
1002
0003
0001
0000
0010
0000
0100
0000
1000
0000
0001
0000
0010
0000
0100
0000
,
1002
0003
0100
0000
1000
0000
0010
0000
0100
0000
0010
0000
0100
0000
0001
0000
,
1002
0003
0010
0000
1000
0000
0100
0000
0010
0000
0100
0000
0010
0000
0001
0000
,
1002
0003
0001
0000
0010
0000
0100
0000
1000
0000
0001
0000
0010
0000
0100
0000
,
1002
0003
0001
0000
0010
0000
0100
0000
1000
0000
0001
0000
0010
0000
0100
0000
,
1002
0003
0000
0000
0010
0000
0000
0000
0100
0000
0000
0000
0001
0000
0000
0000
,
1002
0003
0000
0000
0100
0000
0000
0000
0010
0000
0000
0000
0001
0000
0000
0000
,
1002
0003
0001
0000
0010
0000
0001
0000
0100
0000
0010
0000
0100
0000
0010
0000
,
1002
0003
0001
0000
0010
0000
0001
0000
0100
0000
0010
0000
0100
0000
0010
0000
,
1000
1000
1000
1000
0100
0100
0100
0100
,
0010
0010
0010
0010
0001
0001
0001
0001
,
1000
1000
1000
1000
0010
0010
0010
0010
,
0100
0100
0100
0100
0001
0001
0001
0001
,
1002
0003
0100
0000
1000
0000
0010
0000
0100
0000
0010
0000
0100
0000
0001
0000
,
1002
0003
0100
0000
1000
0000
0010
0000
0100
0000
0010
0000
0100
0000
0001
0000
,
1002
0003
0100
0000
1000
0000
0010
0000
0100
0000
0010
0000
0100
0000
0001
0000
,
1002
0003
0100
0000
1000
0000
0010
0000
0100
0000
0010
0000
0100
0000
0001
0000
,
1000
1000
1000
1000
0100
0100
0100
0100
,
0010
0010
0010
0010
0001
0001
0001
0001
,
0100
0100
0100
0100
0100
0100
0100
0100
,
0010
0010
0010
0010
0010
0010
0010
0010
,
1002
0003
0000
0000
0100
0000
0000
0000
1000
0000
0000
0000
0010
0000
0000
0000
,
0102
0003
0000
0000
0010
0000
0000
0000
0100
0000
0000
0000
0001
0000
0000
0000
,
0012
0003
0000
0000
0001
0000
0000
0000
1000
0000
0000
0000
0010
0000
0000
0000
,
1002
0003
0000
0000
0100
0000
0000
0000
0010
0000
0000
0000
0001
0000
0000
0000
,
1000
1000
1000
1000
0010
0010
0010
0010
,
0100
0100
0100
0100
0001
0001
0001
0001
,
1000
1000
1000
1000
0100
0100
0100
0100
,
0010
0010
0010
0010
0001
0001
0001
0001
,
1002
0003
0100
0000
1000
0000
0010
0000
0100
0000
0001
0000
0010
0000
0001
0000
,
1002
0003
0100
0000
1000
0000
0010
0000
0100
0000
0001
0000
0010
0000
0001
0000
,
1002
0003
0100
0000
1000
0000
0010
0000
0100
0000
0001
0000
0010
0000
0001
0000
,
1002
0003
0100
0000
1000
0000
0010
0000
0100
0000
0001
0000
0010
0000
0001
0000
,
1000
1000
1000
1000
0010
0010
0010
0010
,
0100
0100
0100
0100
0001
0001
0001
0001
,
0010
0010
0010
0010
0010
0010
0010
0010
,
0100
0100
0100
0100
0100
0100
0100
0100
,
1002
0003
0000
0000
0010
0000
0000
0000
1000
0000
0000
0000
0100
0000
0000
0000
,
0012
0003
0000
0000
0100
0000
0000
0000
0010
0000
0000
0000
0001
0000
0000
0000
,
0102
0003
0000
0000
0001
0000
0000
0000
1000
0000
0000
0000
0100
0000
0000
0000
,
1002
0003
0000
0000
0010
0000
0000
0000
0100
0000
0000
0000
0001
0000
0000
0000
,
2200
0000
0000
0000
,
3300
1100
1100
1100
,
2020
0000
0000
0000
,
3030
1010
1010
1010
,
0220
0000
0000
0000
,
0330
0110
0110
0110
,
0202
0000
0000
0000
,
0303
0101
0101
0101
,
0022
0000
0000
0000
,
0033
0011
0011
0011
,
0220
0000
0000
0000
,
0330
0110
0110
0110
,
2200
0000
0000
0000
,
3300
1100
1100
1100
,
2002
0000
0000
0000
,
3003
1001
1001
1001
,
2020
0000
0000
0000
,
3030
1010
1010
1010
,
2200
0000
0000
0000
,
3300
1100
1100
1100
,
0220
0000
0000
0000
,
0330
0110
0110
0110
,
0022
0000
0000
0000
,
0033
0011
0011
0011
,
0202
0000
0000
0000
,
0303
0101
0101
0101
,
0220
0000
0000
0000
,
0330
0110
0110
0110
,
2020
0000
0000
0000
,
3030
1010
1010
1010
,
2002
0000
0000
0000
,
3003
1001
1001
1001
,
1100
1000
1000
1000
,
1100
1000
1000
1000
,
1010
0010
0010
0010
,
1010
0010
0010
0010
,
0110
0100
0100
0100
,
0110
0100
0100
0100
,
0101
0001
0001
0001
,
0101
0001
0001
0001
,
0011
0010
0010
0010
,
0011
0010
0010
0010
,
0110
0100
0100
0100
,
0110
0100
0100
0100
,
1100
1000
1000
1000
,
1100
1000
1000
1000
,
1001
0001
0001
0001
,
1001
0001
0001
0001
,
1010
1000
1000
1000
,
1010
1000
1000
1000
,
1100
0100
0100
0100
,
1100
0100
0100
0100
,
0110
0010
0010
0010
,
0110
0010
0010
0010
,
0011
0001
0001
0001
,
0011
0001
0001
0001
,
0101
0100
0100
0100
,
0101
0100
0100
0100
,
0110
0010
0010
0010
,
0110
0010
0010
0010
,
1010
1000
1000
1000
,
1010
1000
1000
1000
,
1001
0001
0001
0001
,
1001
0001
0001
0001
,
2200
0000
0000
0000
,
3300
1100
1100
1100
,
2020
0000
0000
0000
,
3030
1010
1010
1010
,
0220
0000
0000
0000
,
0330
0110
0110
0110
,
0202
0000
0000
0000
,
0303
0101
0101
0101
,
0022
0000
0000
0000
,
0033
0011
0011
0011
,
0220
0000
0000
0000
,
0330
0110
0110
0110
,
2200
0000
0000
0000
,
3300
1100
1100
1100
,
2002
0000
0000
0000
,
3003
1001
1001
1001
,
2020
0000
0000
0000
,
3030
1010
1010
1010
,
2200
0000
0000
0000
,
3300
1100
1100
1100
,
0220
0000
0000
0000
,
0330
0110
0110
0110
,
0022
0000
0000
0000
,
0033
0011
0011
0011
,
0202
0000
0000
0000
,
0303
0101
0101
0101
,
0220
0000
0000
0000
,
0330
0110
0110
0110
,
2020
0000
0000
0000
,
3030
1010
1010
1010
,
2002
0000
0000
0000
,
3003
1001
1001
1001
,
4000
3000
0000
0000
0100
0000
0000
0000
0010
0000
0000
0000
4000
3000
0000
0000
,
0010
0000
0000
0000
0001
0000
0000
0000
0400
0300
0000
0000
0010
0000
0000
0000
,
0222
0333
0010
0000
1000
0000
0100
0000
,
2220
3330
0001
0000
0100
0000
0010
0000
,
4000
3000
0000
0000
0100
0000
0000
0000
0010
0000
0000
0000
4000
3000
0000
0000
,
0010
0000
0000
0000
0001
0000
0000
0000
0400
0300
0000
0000
0010
0000
0000
0000
,
2202
3303
0010
0000
1000
0000
0100
0000
,
2022
3033
0001
0000
0100
0000
0010
0000
,
4000
3000
0000
0000
0010
0000
0000
0000
0100
0000
0000
0000
4000
3000
0000
0000
,
0100
0000
0000
0000
0001
0000
0000
0000
0040
0030
0000
0000
0100
0000
0000
0000
,
2022
3033
0100
0000
1000
0000
0010
0000
,
2202
3303
0001
0000
0010
0000
0100
0000
,
4000
3000
0000
0000
0010
0000
0000
0000
0100
0000
0000
0000
4000
3000
0000
0000
,
0100
0000
0000
0000
0001
0000
0000
0000
0040
0030
0000
0000
0100
0000
0000
0000
,
0222
0333
0100
0000
1000
0000
0010
0000
,
2220
3330
0001
0000
0010
0000
0100
0000
,
2200
0000
0000
0000
,
3300
1010
1010
1010
,
2020
0000
0000
0000
,
3030
0110
0110
0110
,
0220
0000
0000
0000
,
0330
0101
0101
0101
,
0202
0000
0000
0000
,
0303
0011
0011
0011
,
0022
0000
0000
0000
,
0033
0110
0110
0110
,
0220
0000
0000
0000
,
0330
1100
1100
1100
,
2200
0000
0000
0000
,
3300
1001
1001
1001
,
2002
0000
0000
0000
,
3003
1100
1100
1100
,
1002
0000
0000
0003
0000
0000
0000
0000
0100
0000
0000
0000
0000
0000
0000
0000
1000
0000
0000
0000
0000
0000
0000
0000
0010
0000
0000
0000
0000
0000
0000
0000
0100
0000
0000
0000
0000
0000
0000
0000
0001
0000
0000
0000
0000
0000
0000
0000
,
1002
0000
0000
0003
0000
0000
0000
0000
0100
0000
0000
0000
0000
0000
0000
0000
1000
0000
0000
0000
0000
0000
0000
0000
0010
0000
0000
0000
0000
0000
0000
0000
0100
0000
0000
0000
0000
0000
0000
0000
0001
0000
0000
0000
0000
0000
0000
0000
,
1002
0003
0001
0000
0010
0000
0100
0000
0010
0000
0001
0000
0010
0000
0100
0000
,
1002
0003
0001
0000
0010
0000
0100
0000
0010
0000
0001
0000
0010
0000
0100
0000
,
1002
0000
0000
0003
0000
0000
0000
0000
0100
0000
0000
0000
0000
0000
0000
0000
1000
0000
0000
0000
0000
0000
0000
0000
0010
0000
0000
0000
0000
0000
0000
0000
0100
0000
0000
0000
0000
0000
0000
0000
0001
0000
0000
0000
0000
0000
0000
0000
,
1002
0000
0000
0003
0000
0000
0000
0000
0100
0000
0000
0000
0000
0000
0000
0000
1000
0000
0000
0000
0000
0000
0000
0000
0010
0000
0000
0000
0000
0000
0000
0000
0100
0000
0000
0000
0000
0000
0000
0000
0001
0000
0000
0000
0000
0000
0000
0000
,
1002
0003
0001
0000
0010
0000
0100
0000
0010
0000
0001
0000
0010
0000
0100
0000
,
1002
0003
0001
0000
0010
0000
0100
0000
0010
0000
0001
0000
0010
0000
0100
0000
,
1002
0003
0010
0000
1000
0000
0100
0000
0010
0000
0100
0000
0010
0000
0001
0000
,
1002
0003
0010
0000
1000
0000
0100
0000
0010
0000
0100
0000
0010
0000
0001
0000
,
1002
0003
0001
0000
0010
0000
0100
0000
0010
0000
0001
0000
0010
0000
0100
0000
,
1002
0003
0001
0000
0010
0000
0100
0000
0010
0000
0001
0000
0010
0000
0100
0000
,
1002
0003
0000
0000
0010
0000
0000
0000
1000
0000
0000
0000
0100
0000
0000
0000
,
0012
0003
0000
0000
0001
0000
0000
0000
0100
0000
0000
0000
0001
0000
0000
0000
,
1002
0003
0001
0000
0010
0000
0100
0000
1000
0000
0001
0000
0010
0000
0100
0000
,
1002
0003
0001
0000
0010
0000
0100
0000
1000
0000
0001
0000
0010
0000
0100
0000
,
1002
0000
0000
0003
0000
0000
0000
0000
0100
0000
0000
0000
0000
0000
0000
0000
0010
0000
0000
0000
0000
0000
0000
0000
0001
0000
0000
0000
0000
0000
0000
0000
1000
0000
0000
0000
0000
0000
0000
0000
0100
0000
0000
0000
0000
0000
0000
0000
,
0012
0000
0000
0003
0000
0000
0000
0000
0001
0000
0000
0000
0000
0000
0000
0000
1000
0000
0000
0000
0000
0000
0000
0000
0100
0000
0000
0000
0000
0000
0000
0000
0010
0000
0000
0000
0000
0000
0000
0000
0001
0000
0000
0000
0000
0000
0000
0000
,
1002
0003
0001
0000
0010
0000
0001
0000
0010
0000
0100
0000
1000
0000
0100
0000
,
1002
0003
0001
0000
0010
0000
0001
0000
0010
0000
0100
0000
1000
0000
0100
0000
,
1002
0000
0000
0003
0000
0000
0000
0000
0100
0000
0000
0000
0000
0000
0000
0000
0010
0000
0000
0000
0000
0000
0000
0000
0001
0000
0000
0000
0000
0000
0000
0000
1000
0000
0000
0000
0000
0000
0000
0000
0100
0000
0000
0000
0000
0000
0000
0000
,
0012
0000
0000
0003
0000
0000
0000
0000
0001
0000
0000
0000
0000
0000
0000
0000
1000
0000
0000
0000
0000
0000
0000
0000
0100
0000
0000
0000
0000
0000
0000
0000
0010
0000
0000
0000
0000
0000
0000
0000
0001
0000
0000
0000
0000
0000
0000
0000
,
1002
0003
0001
0000
0010
0000
0001
0000
0010
0000
0100
0000
1000
0000
0100
0000
,
1002
0003
0001
0000
0010
0000
0001
0000
0010
0000
0100
0000
1000
0000
0100
0000
,
1002
0003
0001
0000
1000
0000
0010
0000
0100
0000
0010
0000
1000
0000
0100
0000
,
1002
0003
0001
0000
1000
0000
0010
0000
0100
0000
0010
0000
1000
0000
0100
0000
,
1002
0003
0001
0000
0010
0000
0100
0000
1000
0000
0100
0000
0010
0000
0100
0000
,
1002
0003
0001
0000
0010
0000
0100
0000
1000
0000
0100
0000
0010
0000
0100
0000
,
1002
0003
0000
0000
0100
0000
0000
0000
1000
0000
0000
0000
0010
0000
0000
0000
,
0102
0003
0000
0000
0001
0000
0000
0000
0010
0000
0000
0000
0001
0000
0000
0000
,
1002
0003
0001
0000
0010
0000
0100
0000
1000
0000
0100
0000
0010
0000
0100
0000
,
1002
0003
0001
0000
0010
0000
0100
0000
1000
0000
0100
0000
0010
0000
0100
0000
,
1000
0100
1000
0100
,
0010
0001
0010
0001
,
1000
0010
1000
0010
,
0100
0001
0100
0001
,
1000
0100
1000
0100
0010
0100
0010
0001
,
1000
0100
1000
0100
0010
0100
0010
0001
,
1000
0100
1000
0100
0010
0100
0010
0001
,
1000
0100
1000
0100
0010
0100
0010
0001
,
1000
0010
1000
0010
,
0100
0001
0100
0001
,
1000
0100
1000
0100
,
0010
0001
0010
0001
,
2000
3200
1300
0020
,
0230
0301
0020
0032
,
2003
3100
1000
0100
,
0020
0031
0010
0001
,
2000
3200
1300
0020
,
0230
0301
0020
0032
,
2003
3100
1000
0100
,
0020
0031
0010
0001
,
2000
3020
1030
0200
,
0320
0031
0200
0302
,
2003
3010
1000
0010
,
0200
0301
0100
0001
,
2000
3200
1300
0020
,
0230
0301
0020
0032
,
2003
3010
1000
0010
,
0200
0301
0100
0001
,
2000
3200
1300
0020
,
0230
0301
0020
0032
,
0203
0310
1000
0200
,
1300
0001
0400
0000
,
0000
0000
0000
0000
,
0000
0000
0000
0000
,
0000
0000
0000
0000
,
0000
0000
0000
0000
,
0000
0000
0000
0000
,
0000
0000
0000
0000
,
0000
0000
0000
0000
,
0000
0000
0000
0000
,
0300
0000
0000
0000
;

//--------------- dance-single - ----------------
#NOTES:
     dance-single:
     :
     Edit:
     555555:
     0,0,0,0,0:
0000
0000
0000
0000
,
0000
0000
0000
0000
,
0000
0000
0000
0000
,
0000
0000
0000
0000
,
1000
0100
0010
0001
0010
0100
1000
0100
,
0010
0001
0010
0100
1000
0100
0010
0001
,
0010
0100
1000
0100
0010
0001
0010
0100
,
1000
0100
0010
0001
0010
0100
1000
0100
,
0010
0001
0010
0100
1000
0100
0010
0001
,
0010
0100
1000
0100
0010
0001
0010
0100
,
1000
0100
0010
0001
0010
0100
1000
0100
,
0010
0001
0010
0100
1000
0100
0010
0001
,
0010
0100
1000
0100
0010
0001
0010
0100
,
1000
0100
0010
0001
0010
0100
1000
0100
,
0010
0001
0010
0100
1000
0100
0010
0001
,
0010
0100
1000
0100
0010
0001
0010
0100
,
1000
0100
0010
0001
0010
0100
1000
0100
,
0010
0001
0010
0100
1000
0100
0010
0001
,
0010
0100
1000
0100
0010
0001
0010
0100
,
1000
0100
0010
0001
0010
0100
1000
0001
,
4000
3000
0000
0000
0100
0000
0000
0000
1000
0000
0000
0000
0040
0030
0000
0000
,
0100
0000
0000
0000
0001
0000
0000
0000
0040
0030
0000
0000
0001
0000
0000
0000
,
2222
3333
0010
0000
1000
0000
0100
0000
,
2222
3333
0010
0000
0100
0000
0001
0000
,
4000
3000
0000
0000
0010
0000
0000
0000
1000
0000
0000
0000
0400
0300
0000
0000
,
0010
0000
0000
0000
0001
0000
0000
0000
0400
0300
0000
0000
0001
0000
0000
0000
,
2222
3333
0100
0000
1000
0000
0010
0000
,
2222
3333
0100
0000
0010
0000
0001
0000
,
4000
3000
0000
0000
0100
0000
0000
0000
0010
0000
0000
0000
0400
0300
0000
0000
,
1000
0000
0000
0000
0010
0000
0000
0000
0400
0300
0000
0000
0001
0000
0000
0000
,
2222
3333
0100
0000
0010
0000
0100
0000
,
2222
3333
0010
0000
0100
0000
0001
0000
,
4000
3000
0000
0000
0010
0000
0000
0000
0100
0000
0000
0000
0040
0030
0000
0000
,
1000
0000
0000
0000
0100
0000
0000
0000
0040
0030
0000
0000
0001
0000
0000
0000
,
2222
3333
0010
0000
0100
0000
0010
0000
,
2222
3333
0100
0000
0010
0000
0001
0000
,
1002
0003
0100
0000
0010
0000
0100
0000
0010
0000
0100
0000
0010
0000
0001
0000
,
1002
0003
0100
0000
0010
0000
0100
0000
0010
0000
0100
0000
0010
0000
0001
0000
,
1002
0003
0001
0000
0010
0000
0100
0000
1000
0000
0001
0000
0010
0000
0100
0000
,
1002
0003
0001
0000
0010
0000
0100
0000
1000
0000
0001
0000
0010
0000
0100
0000
,
1002
0003
0100
0000
0010
0000
0100
0000
0010
0000
0001
0000
0010
0000
0001
0000
,
1002
0003
0100
0000
0010
0000
0100
0000
0010
0000
0001
0000
0010
0000
0001
0000
,
1002
0003
0001
0000
0010
0000
0100
0000
1000
0000
0001
0000
0010
0000
0100
0000
,
1002
0003
0001
0000
0010
0000
0100
0000
1000
0000
0001
0000
0010
0000
0100
0000
,
1002
0003
0100
0000
1000
0000
0010
0000
0100
0000
0010
0000
0100
0000
0001
0000
,
1002
0003
0010
0000
1000
0000
0100
0000
0010
0000
0100
0000
0010
0000
0001
0000
,
1002
0003
0001
0000
0010
0000
0100
0000
1000
0000
0001
0000
0010
0000
0100
0000
,
1002
0003
0001
0000
0010
0000
0100
0000
1000
0000
0001
0000
0010
0000
0100
0000
,
1002
0003
0000
0000
0010
0000
0000
0000
0100
0000
0000
0000
0001
0000
0000
0000
,
1002
0003
0000
0000
0100
0000
0000
0000
0010
0000
0000
0000
0001
0000
0000
0000
,
1002
0003
0001
0000
0010
0000
0001
0000
0100
0000
0010
0000
0100
0000
0010
0000
,
1002
0003
0001
0000
0010
0000
0001
0000
0100
0000
0010
0000
0100
0000
0010
0000
,
1100
1000
1000
1000
0110
0100
0100
0100
,
0011
0010
0010
0010
1001
0001
0001
0001
,
1010
1000
1000
1000
0110
0010
0010
0010
,
0101
0100
0100
0100
1001
0001
0001
0001
,
1002
0003
0100
0000
1000
0000
0010
0000
0100
0000
0010
0000
0100
0000
0001
0000
,
1002
0003
0100
0000
1000
0000
0010
0000
0100
0000
0010
0000
0100
0000
0001
0000
,
1002
0003
0100
0000
1000
0000
0010
0000
0100
0000
0010
0000
0100
0000
0001
0000
,
1002
0003
0100
0000
1000
0000
0010
0000
0100
0000
0010
0000
0100
0000
0001
0000
,
1100
1000
1000
1000
0110
0100
0100
0100
,
0011
0010
0010
0010
0101
0001
0001
0001
,
0110
0100
0100
0100
0100
0100
0100
0100
,
1010
0010
0010
0010
0010
0010
0010
0010
,
1002
0003
0000
0000
0100
0000
0000
0000
1000
0000
0000
0000
0010
0000
0000
0000
,
0102
0003
0000
0000
0010
0000
0000
0000
0100
0000
0000
0000
0001
0000
0000
0000
,
0012
0003
0000
0000
0001
0000
0000
0000
1000
0000
0000
0000
0010
0000
0000
0000
,
1002
0003
0000
0000
0100
0000
0000
0000
0010
0000
0000
0000
0001
0000
0000
0000
,
1010
1000
1000
1000
0110
0010
0010
0010
,
0101
0100
0100
0100
1001
0001
0001
0001
,
1100
1000
1000
1000
0110
0100
0100
0100
,
0011
0010
0010
0010
1001
0001
0001
0001
,
1002
0003
0100
0000
1000
0000
0010
0000
0100
0000
0001
0000
0010
0000
0001
0000
,
1002
0003
0100
0000
1000
0000
0010
0000
0100
0000
0001
0000
0010
0000
0001
0000
,
1002
0003
0100
0000
1000
0000
0010
0000
0100
0000
0001
0000
0010
0000
0001
0000
,
1002
0003
0100
0000
1000
0000
0010
0000
0100
0000
0001
0000
0010
0000
0001
0000
,
1010
1000
1000
1000
0110
0010
0010
0010
,
0101
0100
0100
0100
0011
0001
0001
0001
,
0110
0010
0010
0010
0010
0010
0010
0010
,
1100
0100
0100
0100
0100
0100
0100
0100
,
1002
0003
0000
0000
0010
0000
0000
0000
1000
0000
0000
0000
0100
0000
0000
0000
,
0012
0003
0000
0000
0100
0000
0000
0000
0010
0000
0000
0000
0001
0000
0000
0000
,
0102
0003
0000
0000
0001
0000
0000
0000
1000
0000
0000
0000
0100
0000
0000
0000
,
1002
0003
0000
0000
0010
0000
0000
0000
0100
0000
0000
0000
0001
0000
0000
0000
,
2200
0000
0000
0000
,
3300
1100
1100
1100
,
2020
0000
0000
0000
,
3030
1010
1010
1010
,
0220
0000
0000
0000
,
0330
0110
0110
0110
,
0202
0000
0000
0000
,
0303
0101
0101
0101
,
0022
0000
0000
0000
,
0033
0011
0011
0011
,
0220
0000
0000
0000
,
0330
0110
0110
0110
,
2200
0000
0000
0000
,
3300
1100
1100
1100
,
2002
0000
0000
0000
,
3003
1001
1001
1001
,
2020
0000
0000
0000
,
3030
1010
1010
1010
,
2200
0000
0000
0000
,
3300
1100
1100
1100
,
0220
0000
0000
0000
,
0330
0110
0110
0110
,
0022
0000
0000
0000
,
0033
0011
0011
0011
,
0202
0000
0000
0000
,
0303
0101
0101
0101
,
0220
0000
0000
0000
,
0330
0110
0110
0110
,
2020
0000
0000
0000
,
3030
1010
1010
1010
,
2002
0000
0000
0000
,
3003
1001
1001
1001
,
1100
1100
1100
1100
,
1100
1100
1100
1100
,
1010
1010
1010
1010
,
1010
1010
1010
1010
,
0110
0110
0110
0110
,
0110
0110
0110
0110
,
0101
0101
0101
0101
,
0101
0101
0101
0101
,
0011
0011
0011
0011
,
0011
0011
0011
0011
,
0110
0110
0110
0110
,
0110
0110
0110
0110
,
1100
1100
1100
1100
,
1100
1100
1100
1100
,
1001
1001
1001
1001
,
1001
1001
1001
1001
,
1010
1010
1010
1010
,
1010
1010
1010
1010
,
1100
1100
1100
1100
,
1100
1100
1100
1100
,
0110
0110
0110
0110
,
0110
0110
0110
0110
,
0011
0011
0011
0011
,
0011
0011
0011
0011
,
0101
0101
0101
0101
,
0101
0101
0101
0101
,
0110
0110
0110
0110
,
0110
0110
0110
0110
,
1010
1010
1010
1010
,
1010
1010
1010
1010
,
1001
1001
1001
1001
,
1001
1001
1001
1001
,
2200
0000
0000
0000
,
3300
1100
1100
1100
,
2020
0000
0000
0000
,
3030
1010
1010
1010
,
0220
0000
0000
0000
,
0330
0110
0110
0110
,
0202
0000
0000
0000
,
0303
0101
0101
0101
,
0022
0000
0000
0000
,
0033
0011
0011
0011
,
0220
0000
0000
0000
,
0330
0110
0110
0110
,
2200
0000
0000
0000
,
3300
1100
1100
1100
,
2002
0000
0000
0000
,
3003
1001
1001
1001
,
2020
0000
0000
0000
,
3030
1010
1010
1010
,
2200
0000
0000
0000
,
3300
1100
1100
1100
,
0220
0000
0000
0000
,
0330
0110
0110
0110
,
0022
0000
0000
0000
,
0033
0011
0011
0011
,
0202
0000
0000
0000
,
0303
0101
0101
0101
,
0220
0000
0000
0000
,
0330
0110
0110
0110
,
2020
0000
0000
0000
,
3030
1010
1010
1010
,
2002
0000
0000
0000
,
3003
1001
1001
1001
,
4000
3000
0000
0000
0100
0000
0000
0000
0010
0000
0000
0000
4000
3000
0000
0000
,
0010
0000
0000
0000
0001
0000
0000
0000
0400
0300
0000
0000
0010
0000
0000
0000
,
2222
3333
0010
0000
1000
0000
0100
0000
,
2222
3333
0001
0000
0100
0000
0010
0000
,
4000
3000
0000
0000
0100
0000
0000
0000
0010
0000
0000
0000
4000
3000
0000
0000
,
0010
0000
0000
0000
0001
0000
0000
0000
0400
0300
0000
0000
0010
0000
0000
0000
,
2222
3333
0010
0000
1000
0000
0100
0000
,
2222
3333
0001
0000
0100
0000
0010
0000
,
4000
3000
0000
0000
0010
0000
0000
0000
0100
0000
0000
0000
4000
3000
0000
0000
,
0100
0000
0000
0000
0001
0000
0000
0000
0040
0030
0000
0000
0100
0000
0000
0000
,
2222
3333
0100
0000
1000
0000
0010
0000
,
2222
3333
0001
0000
0010
0000
0100
0000
,
4000
3000
0000
0000
0010
0000
0000
0000
0100
0000
0000
0000
4000
3000
0000
0000
,
0100
0000
0000
0000
0001
0000
0000
0000
0040
0030
0000
0000
0100
0000
0000
0000
,
2222
3333
0100
0000
1000
0000
0010
0000
,
2222
3333
0001
0000
0010
0000
0100
0000
,
2200
0000
0000
0000
,
3300
1010
1010
1010
,
2020
0000
0000
0000
,
3030
0110
0110
0110
,
0220
0000
0000
0000
,
0330
0101
0101
0101
,
0202
0000
0000
0000
,
0303
0011
0011
0011
,
0022
0000
0000
0000
,
0033
0110
0110
0110
,
0220
0000
0000
0000
,
0330
1100
1100
1100
,
2200
0000
0000
0000
,
3300
1001
1001
1001
,
2002
0000
0000
0000
,
3003
1100
1100
1100
,
1002
0003
0100
0000
1000
0000
0010
0000
0100
0000
0001
0000
0010
0000
0001
0000
,
1002
0003
0100
0000
1000
0000
0010
0000
0100
0000
0001
0000
0010
0000
0001
0000
,
1002
0003
0001
0000
0010
0000
0100
0000
0010
0000
0001
0000
0010
0000
0100
0000
,
1002
0003
0001
0000
0010
0000
0100
0000
0010
0000
0001
0000
0010
0000
0100
0000
,
1002
0003
0100
0000
1000
0000
0100
0000
1000
0000
0010
0000
0100
0000
0001
0000
,
1002
0003
0100
0000
1000
0000
0100
0000
1000
0000
0010
0000
0100
0000
0001
0000
,
1002
0003
0001
0000
0010
0000
0100
0000
0010
0000
0001
0000
0010
0000
0100
0000
,
1002
0003
0001
0000
0010
0000
0100
0000
0010
0000
0001
0000
0010
0000
0100
0000
,
1002
0003
0010
0000
1000
0000
0100
0000
0010
0000
0100
0000
0010
0000
0001
0000
,
1002
0003
0010
0000
1000
0000
0100
0000
0010
0000
0100
0000
0010
0000
0001
0000
,
1002
0003
0001
0000
0010
0000
0100
0000
0010
0000
0001
0000
0010
0000
0100
0000
,
1002
0003
0001
0000
0010
0000
0100
0000
0010
0000
0001
0000
0010
0000
0100
0000
,
1002
0003
0000
0000
0010
0000
0000
0000
1000
0000
0000
0000
0100
0000
0000
0000
,
0012
0003
0000
0000
0001
0000
0000
0000
0100
0000
0000
0000
0001
0000
0000
0000
,
1002
0003
0001
0000
0010
0000
0100
0000
1000
0000
0001
0000
0010
0000
0100
0000
,
1002
0003
0001
0000
0010
0000
0100
0000
1000
0000
0001
0000
0010
0000
0100
0000
,
1002
0003
0100
0000
0010
0000
0001
0000
1000
0000
0100
0000
0010
0000
0001
0000
,
1002
0003
0100
0000
0010
0000
0001
0000
1000
0000
0100
0000
0010
0000
0001
0000
,
1002
0003
0001
0000
0010
0000
0001
0000
0010
0000
0100
0000
1000
0000
0100
0000
,
1002
0003
0001
0000
0010
0000
0001
0000
0010
0000
0100
0000
1000
0000
0100
0000
,
1002
0003
0100
0000
0010
0000
0001
0000
1000
0000
0100
0000
0010
0000
0001
0000
,
1002
0003
0100
0000
0010
0000
0001
0000
1000
0000
0100
0000
0010
0000
0001
0000
,
1002
0003
0001
0000
0010
0000
0001
0000
0010
0000
0100
0000
1000
0000
0100
0000
,
1002
0003
0001
0000
0010
0000
0001
0000
0010
0000
0100
0000
1000
0000
0100
0000
,
1002
0003
0001
0000
1000
0000
0010
0000
0100
0000
0010
0000
1000
0000
0100
0000
,
1002
0003
0001
0000
1000
0000
0010
0000
0100
0000
0010
0000
1000
0000
0100
0000
,
1002
0003
0001
0000
0010
0000
0100
0000
1000
0000
0100
0000
0010
0000
0100
0000
,
1002
0003
0001
0000
0010
0000
0100
0000
1000
0000
0100
0000
0010
0000
0100
0000
,
1002
0003
0000
0000
0100
0000
0000
0000
1000
0000
0000
0000
0010
0000
0000
0000
,
0102
0003
0000
0000
0001
0000
0000
0000
0010
0000
0000
0000
0001
0000
0000
0000
,
1002
0003
0001
0000
0010
0000
0100
0000
1000
0000
0100
0000
0010
0000
0100
0000
,
1002
0003
0001
0000
0010
0000
0100
0000
1000
0000
0100
0000
0010
0000
0100
0000
,
1000
0100
1000
0100
,
0010
0001
0010
0001
,
1000
0010
1000
0010
,
0100
0001
0100
0001
,
1000
0100
1000
0100
0010
0100
0010
0001
,
1000
0100
1000
0100
0010
0100
0010
0001
,
1000
0100
1000
0100
0010
0100
0010
0001
,
1000
0100
1000
0100
0010
0100
0010
0001
,
1000
0010
1000
0010
,
0100
0001
0100
0001
,
1000
0100
1000
0100
,
0010
0001
0010
0001
,
2000
3200
1300
0020
,
0230
0301
0020
0032
,
2003
3100
1000
0100
,
0020
0031
0010
0001
,
2000
3200
1300
0020
,
0230
0301
0020
0032
,
2003
3100
1000
0100
,
0020
0031
0010
0001
,
2000
3020
1030
0200
,
0320
0031
0200
0302
,
2003
3010
1000
0010
,
0200
0301
0100
0001
,
2000
3200
1300
0020
,
0230
0301
0020
0032
,
2003
3010
1000
0010
,
0200
0301
0100
0001
,
2000
3200
1300
0020
,
0230
0301
0020
0032
,
0203
0310
1000
0200
,
1300
0002
0403
0020
,
0000
0000
0000
0000
,
0000
0000
0000
0000
,
0000
0000
0000
0000
,
0000
0000
0000
0000
,
0000
0000
0000
0000
,
0000
0000
0000
0000
,
0000
0000
0000
0000
,
0000
0000
0000
0000
,
0330
0000
0000
0000
;

//--------------- dance-single - ----------------
#NOTES:
     dance-single:
     :
     Edit:
     5555555:
     0,0,0,0,0:
0000
0000
0000
0000
,
0000
0000
0000
0000
,
0000
0000
0000
0000
,
0000
0000
0000
0000
,
1000
0100
0010
0001
0010
0100
1000
0100
,
0010
0001
0010
0100
1000
0100
0010
0001
,
0010
0100
1000
0100
0010
0001
0010
0100
,
1000
0100
0010
0001
0010
0100
1000
0100
,
0010
0001
0010
0100
1000
0100
0010
0001
,
0010
0100
1000
0100
0010
0001
0010
0100
,
1000
0100
0010
0001
0010
0100
1000
0100
,
0010
0001
0010
0100
1000
0100
0010
0001
,
0010
0100
1000
0100
0010
0001
0010
0100
,
1000
0100
0010
0001
0010
0100
1000
0100
,
0010
0001
0010
0100
1000
0100
0010
0001
,
0010
0100
1000
0100
0010
0001
0010
0100
,
1000
0100
0010
0001
0010
0100
1000
0100
,
0010
0001
0010
0100
1000
0100
0010
0001
,
0010
0100
1000
0100
0010
0001
0010
0100
,
1000
0100
0010
0001
0010
0100
1000
0001
,
4000
3000
0000
0000
0100
0000
0000
0000
1000
0000
0000
0000
0040
0030
0000
0000
,
0100
0000
0000
0000
0001
0000
0000
0000
0040
0030
0000
0000
0001
0000
0000
0000
,
2222
3333
0010
0000
1000
0000
0100
0000
,
2222
3333
0010
0000
0100
0000
0001
0000
,
4000
3000
0000
0000
0010
0000
0000
0000
1000
0000
0000
0000
0400
0300
0000
0000
,
0010
0000
0000
0000
0001
0000
0000
0000
0400
0300
0000
0000
0001
0000
0000
0000
,
2222
3333
0100
0000
1000
0000
0010
0000
,
2222
3333
0100
0000
0010
0000
0001
0000
,
4000
3000
0000
0000
0100
0000
0000
0000
0010
0000
0000
0000
0400
0300
0000
0000
,
1000
0000
0000
0000
0010
0000
0000
0000
0400
0300
0000
0000
0001
0000
0000
0000
,
2222
3333
0100
0000
0010
0000
0100
0000
,
2222
3333
0010
0000
0100
0000
0001
0000
,
4000
3000
0000
0000
0010
0000
0000
0000
0100
0000
0000
0000
0040
0030
0000
0000
,
1000
0000
0000
0000
0100
0000
0000
0000
0040
0030
0000
0000
0001
0000
0000
0000
,
2222
3333
0010
0000
0100
0000
0010
0000
,
2222
3333
0100
0000
0010
0000
0001
0000
,
1002
0003
0100
0000
0010
0000
0100
0000
0010
0000
0100
0000
0010
0000
0001
0000
,
1002
0003
0100
0000
0010
0000
0100
0000
0010
0000
0100
0000
0010
0000
0001
0000
,
1002
0003
0001
0000
0010
0000
0100
0000
1000
0000
0001
0000
0010
0000
0100
0000
,
1002
0003
0001
0000
0010
0000
0100
0000
1000
0000
0001
0000
0010
0000
0100
0000
,
1002
0003
0100
0000
0010
0000
0100
0000
0010
0000
0001
0000
0010
0000
0001
0000
,
1002
0003
0100
0000
0010
0000
0100
0000
0010
0000
0001
0000
0010
0000
0001
0000
,
1002
0003
0001
0000
0010
0000
0100
0000
1000
0000
0001
0000
0010
0000
0100
0000
,
1002
0003
0001
0000
0010
0000
0100
0000
1000
0000
0001
0000
0010
0000
0100
0000
,
1002
0003
0100
0000
1000
0000
0010
0000
0100
0000
0010
0000
0100
0000
0001
0000
,
1002
0003
0010
0000
1000
0000
0100
0000
0010
0000
0100
0000
0010
0000
0001
0000
,
1002
0003
0001
0000
0010
0000
0100
0000
1000
0000
0001
0000
0010
0000
0100
0000
,
1002
0003
0001
0000
0010
0000
0100
0000
1000
0000
0001
0000
0010
0000
0100
0000
,
1002
0003
0000
0000
0010
0000
0000
0000
0100
0000
0000
0000
0001
0000
0000
0000
,
1002
0003
0000
0000
0100
0000
0000
0000
0010
0000
0000
0000
0001
0000
0000
0000
,
1002
0003
0001
0000
0010
0000
0001
0000
0100
0000
0010
0000
0100
0000
0010
0000
,
1002
0003
0001
0000
0010
0000
0001
0000
0100
0000
0010
0000
0100
0000
0010
0000
,
1100
1100
1100
1100
0110
0110
0110
0110
,
0011
0011
0011
0011
1001
1001
1001
1001
,
1010
1010
1010
1010
0110
0110
0110
0110
,
0101
0101
0101
0101
1001
1001
1001
1001
,
1002
0003
0100
0000
1000
0000
0010
0000
0100
0000
0010
0000
0100
0000
0001
0000
,
1002
0003
0100
0000
1000
0000
0010
0000
0100
0000
0010
0000
0100
0000
0001
0000
,
1002
0003
0100
0000
1000
0000
0010
0000
0100
0000
0010
0000
0100
0000
0001
0000
,
1002
0003
0100
0000
1000
0000
0010
0000
0100
0000
0010
0000
0100
0000
0001
0000
,
1100
1100
1100
1100
0110
0110
0110
0110
,
0011
0011
0011
0011
0101
0101
0101
0101
,
0110
0110
0110
0110
0110
0110
0110
0110
,
1010
1010
1010
1010
1010
1010
1010
1010
,
1002
0003
0000
0000
0100
0000
0000
0000
1000
0000
0000
0000
0010
0000
0000
0000
,
0102
0003
0000
0000
0010
0000
0000
0000
0100
0000
0000
0000
0001
0000
0000
0000
,
0012
0003
0000
0000
0001
0000
0000
0000
1000
0000
0000
0000
0010
0000
0000
0000
,
1002
0003
0000
0000
0100
0000
0000
0000
0010
0000
0000
0000
0001
0000
0000
0000
,
1010
1010
1010
1010
0110
0110
0110
0110
,
0101
0101
0101
0101
1001
1001
1001
1001
,
1100
1100
1100
1100
0110
0110
0110
0110
,
0011
0011
0011
0011
1001
1001
1001
1001
,
1002
0003
0100
0000
1000
0000
0010
0000
0100
0000
0001
0000
0010
0000
0001
0000
,
1002
0003
0100
0000
1000
0000
0010
0000
0100
0000
0001
0000
0010
0000
0001
0000
,
1002
0003
0100
0000
1000
0000
0010
0000
0100
0000
0001
0000
0010
0000
0001
0000
,
1002
0003
0100
0000
1000
0000
0010
0000
0100
0000
0001
0000
0010
0000
0001
0000
,
1010
1010
1010
1010
0110
0110
0110
0110
,
0101
0101
0101
0101
0011
0011
0011
0011
,
0110
0110
0110
0110
0110
0110
0110
0110
,
1100
1100
1100
1100
1100
1100
1100
1100
,
1002
0003
0000
0000
0010
0000
0000
0000
1000
0000
0000
0000
0100
0000
0000
0000
,
0012
0003
0000
0000
0100
0000
0000
0000
0010
0000
0000
0000
0001
0000
0000
0000
,
0102
0003
0000
0000
0001
0000
0000
0000
1000
0000
0000
0000
0100
0000
0000
0000
,
1002
0003
0000
0000
0010
0000
0000
0000
0100
0000
0000
0000
0001
0000
0000
0000
,
2200
0000
0000
0000
,
3300
1100
1100
1100
,
2020
0000
0000
0000
,
3030
1010
1010
1010
,
0220
0000
0000
0000
,
0330
0110
0110
0110
,
0202
0000
0000
0000
,
0303
0101
0101
0101
,
0022
0000
0000
0000
,
0033
0011
0011
0011
,
0220
0000
0000
0000
,
0330
0110
0110
0110
,
2200
0000
0000
0000
,
3300
1100
1100
1100
,
2002
0000
0000
0000
,
3003
1001
1001
1001
,
2021
0000
0000
0000
,
3031
1010
1010
1010
,
2201
0000
0000
0000
,
3302
1103
1100
1100
,
1220
0000
0000
0000
,
1330
0110
0110
0110
,
1022
0000
0000
0000
,
0133
0011
0111
0111
,
1202
0000
0000
0000
,
1303
0101
0101
0101
,
1220
0000
0000
0000
,
2330
3110
0110
0110
,
2120
0000
0000
0000
,
3130
1010
1010
1010
,
2102
0000
0000
0000
,
3103
1001
1001
1001
,
1102
1103
1100
1100
,
1102
1103
1100
1100
,
1012
1013
1010
1010
,
1012
1013
1010
1010
,
2110
3110
0110
0110
,
2110
3110
0110
0110
,
2101
3101
0101
0101
,
2101
3101
0101
0101
,
2011
3011
0011
0011
,
2011
3011
0011
0011
,
2110
3110
0110
0110
,
2110
3110
0110
0110
,
1120
1130
1100
1100
,
1120
1130
1100
1100
,
1021
1031
1001
1001
,
1021
1031
1001
1001
,
1012
1013
1010
1010
,
1012
1013
1010
1010
,
1102
1103
1100
1100
,
1102
1103
1100
1100
,
2110
3110
0110
0110
,
2110
3110
0110
0110
,
2011
3011
0011
0011
,
2011
3011
0011
0011
,
2101
3101
0101
0101
,
2101
3101
0101
0101
,
2110
3110
0110
0110
,
2110
3110
0110
0110
,
1210
1310
1010
1010
,
1210
1310
1010
1010
,
1201
1301
1001
1001
,
1201
1301
1001
1001
,
2201
0000
0000
0000
,
3301
1100
1100
1100
,
2021
0000
0000
0000
,
3032
1013
1010
1010
,
1220
0000
0000
0000
,
1330
0110
0110
0110
,
1202
0000
0000
0000
,
0313
0101
0111
0111
,
1022
0000
0000
0000
,
1033
0011
0011
0011
,
1220
0000
0000
0000
,
2330
3110
0110
0110
,
2210
0000
0000
0000
,
3310
1100
1100
1100
,
2012
0000
0000
0000
,
3013
1001
1001
1001
,
2020
0000
0000
0000
,
3030
1010
1010
1010
,
2200
0000
0000
0000
,
3300
1100
1100
1100
,
0220
0000
0000
0000
,
0330
0110
0110
0110
,
0022
0000
0000
0000
,
0033
0011
0011
0011
,
0202
0000
0000
0000
,
0303
0101
0101
0101
,
0220
0000
0000
0000
,
0330
0110
0110
0110
,
2020
0000
0000
0000
,
3030
1010
1010
1010
,
2002
0000
0000
0000
,
3003
1001
1001
1001
,
4000
3000
0000
0000
0100
0000
0000
0000
0010
0000
0000
0000
4000
3000
0000
0000
,
0010
0000
0000
0000
0001
0000
0000
0000
0400
0300
0000
0000
0010
0000
0000
0000
,
2222
3333
0010
0000
1000
0000
0100
0000
,
2222
3333
0001
0000
0100
0000
0010
0000
,
4000
3000
0000
0000
0100
0000
0000
0000
0010
0000
0000
0000
4000
3000
0000
0000
,
0010
0000
0000
0000
0001
0000
0000
0000
0400
0300
0000
0000
0010
0000
0000
0000
,
2222
3333
0010
0000
1000
0000
0100
0000
,
2222
3333
0001
0000
0100
0000
0010
0000
,
4000
3000
0000
0000
0010
0000
0000
0000
0100
0000
0000
0000
4000
3000
0000
0000
,
0100
0000
0000
0000
0001
0000
0000
0000
0040
0030
0000
0000
0100
0000
0000
0000
,
2222
3333
0100
0000
1000
0000
0010
0000
,
2222
3333
0001
0000
0010
0000
0100
0000
,
4000
3000
0000
0000
0010
0000
0000
0000
0100
0000
0000
0000
4000
3000
0000
0000
,
0100
0000
0000
0000
0001
0000
0000
0000
0040
0030
0000
0000
0100
0000
0000
0000
,
2222
3333
0100
0000
1000
0000
0010
0000
,
2222
3333
0001
0000
0010
0000
0100
0000
,
2201
0000
0000
0000
,
3301
1010
1010
1010
,
2021
0000
0000
0000
,
3032
0113
0110
0110
,
1220
0000
0000
0000
,
1330
0101
0101
0101
,
1202
0000
0000
0000
,
0313
0011
0111
0111
,
1022
0000
0000
0000
,
1033
0110
0110
0110
,
1220
0000
0000
0000
,
2330
3000
1100
0000
1100
0000
1100
0000
,
2210
0000
0000
0000
,
3310
1001
1001
1001
,
2012
0000
0000
0000
,
3013
1100
1100
1100
,
1002
0003
0100
0000
1000
0000
0010
0000
0100
0000
0001
0000
0010
0000
0001
0000
,
1002
0003
0100
0000
1000
0000
0010
0000
0100
0000
0001
0000
0010
0000
0001
0000
,
1002
0003
0001
0000
0010
0000
0100
0000
0010
0000
0001
0000
0010
0000
0100
0000
,
1002
0003
0001
0000
0010
0000
0100
0000
0010
0000
0001
0000
0010
0000
0100
0000
,
1002
0003
0100
0000
1000
0000
0100
0000
1000
0000
0010
0000
0100
0000
0001
0000
,
1002
0003
0100
0000
1000
0000
0100
0000
1000
0000
0010
0000
0100
0000
0001
0000
,
1002
0003
0001
0000
0010
0000
0100
0000
0010
0000
0001
0000
0010
0000
0100
0000
,
1002
0003
0001
0000
0010
0000
0100
0000
0010
0000
0001
0000
0010
0000
0100
0000
,
1002
0003
0010
0000
1000
0000
0100
0000
0010
0000
0100
0000
0010
0000
0001
0000
,
1002
0003
0010
0000
1000
0000
0100
0000
0010
0000
0100
0000
0010
0000
0001
0000
,
1002
0003
0001
0000
0010
0000
0100
0000
0010
0000
0001
0000
0010
0000
0100
0000
,
1002
0003
0001
0000
0010
0000
0100
0000
0010
0000
0001
0000
0010
0000
0100
0000
,
1002
0003
0000
0000
0010
0000
0000
0000
1000
0000
0000
0000
0100
0000
0000
0000
,
0012
0003
0000
0000
0001
0000
0000
0000
0100
0000
0000
0000
0001
0000
0000
0000
,
1002
0003
0001
0000
0010
0000
0100
0000
1000
0000
0001
0000
0010
0000
0100
0000
,
1002
0003
0001
0000
0010
0000
0100
0000
1000
0000
0001
0000
0010
0000
0100
0000
,
1002
0003
0100
0000
0010
0000
0001
0000
1000
0000
0100
0000
0010
0000
0001
0000
,
1002
0003
0100
0000
0010
0000
0001
0000
1000
0000
0100
0000
0010
0000
0001
0000
,
1002
0003
0001
0000
0010
0000
0001
0000
0010
0000
0100
0000
1000
0000
0100
0000
,
1002
0003
0001
0000
0010
0000
0001
0000
0010
0000
0100
0000
1000
0000
0100
0000
,
1002
0003
0100
0000
0010
0000
0001
0000
1000
0000
0100
0000
0010
0000
0001
0000
,
1002
0003
0100
0000
0010
0000
0001
0000
1000
0000
0100
0000
0010
0000
0001
0000
,
1002
0003
0001
0000
0010
0000
0001
0000
0010
0000
0100
0000
1000
0000
0100
0000
,
1002
0003
0001
0000
0010
0000
0001
0000
0010
0000
0100
0000
1000
0000
0100
0000
,
1002
0003
0001
0000
1000
0000
0010
0000
0100
0000
0010
0000
1000
0000
0100
0000
,
1002
0003
0001
0000
1000
0000
0010
0000
0100
0000
0010
0000
1000
0000
0100
0000
,
1002
0003
0001
0000
0010
0000
0100
0000
1000
0000
0100
0000
0010
0000
0100
0000
,
1002
0003
0001
0000
0010
0000
0100
0000
1000
0000
0100
0000
0010
0000
0100
0000
,
1002
0003
0000
0000
0100
0000
0000
0000
1000
0000
0000
0000
0010
0000
0000
0000
,
0102
0003
0000
0000
0001
0000
0000
0000
0010
0000
0000
0000
0001
0000
0000
0000
,
1002
0003
0001
0000
0010
0000
0100
0000
1000
0000
0100
0000
0010
0000
0100
0000
,
1002
0003
0001
0000
0010
0000
0100
0000
1000
0000
0100
0000
0010
0000
0100
0000
,
1000
0100
1000
0100
,
0010
0001
0010
0001
,
1000
0010
1000
0010
,
0100
0001
0100
0001
,
1000
0100
1000
0100
0010
0100
0010
0001
,
1000
0100
1000
0100
0010
0100
0010
0001
,
1000
0100
1000
0100
0010
0100
0010
0001
,
1000
0100
1000
0100
0010
0100
0010
0001
,
1000
0010
1000
0010
,
0100
0001
0100
0001
,
1000
0100
1000
0100
,
0010
0001
0010
0001
,
2000
3200
1300
0020
,
0230
0301
0020
0032
,
2003
3100
1000
0100
,
0020
0031
0010
0001
,
2000
3200
1300
0020
,
0230
0301
0020
0032
,
2003
3100
1000
0100
,
0020
0031
0010
0001
,
2000
3020
1030
0200
,
0320
0031
0200
0302
,
2003
3010
1000
0010
,
0200
0301
0100
0001
,
2000
3200
1300
0020
,
0230
0301
0020
0032
,
2003
3010
1000
0010
,
0200
0301
0100
0001
,
2000
3200
1300
0020
,
0230
0301
0020
0032
,
0203
0310
1000
0200
,
1300
0000
0000
0001
0000
0000
0400
0002
2000
0020
0000
0000
,
0000
0000
0000
0000
,
0000
0000
0000
0000
,
0000
0000
0000
0000
,
0000
0000
0000
0000
,
0000
0000
0000
0000
,
0000
0000
0000
0000
,
0000
0000
0000
0000
,
0000
0000
0000
0000
,
3333
0000
0000
0000
;
