#TITLE:V;
#SUBTITLE:;
#ARTIST:TAKA;
#TITLETRANSLIT:;
#SUBTITLETRANSLIT:;
#ARTISTTRANSLIT:;
#GENRE:;
#CREDIT:;
#MUSIC:V.ogg;
#BANNER:V-bn.png;
#BACKGROUND:V-bg.png;
#CDTITLE:;
#SAMPLESTART:98.286;
#SAMPLELENGTH:12.800;
#SELECTABLE:YES;
#OFFSET:-0.286;
#BPMS:0.000=150.000;
#STOPS:;
#BGCHANGES:;
#FGCHANGES:;

//--------------- dance-single - ----------------
#NOTES:
     dance-single:
     :
     Beginner:
     3:
     0,0,0,0,0:
0000
0000
0000
0000
,
0000
0000
0000
0000
,
0000
0000
0000
0000
,
0000
0000
0000
0000
,
0000
0000
0000
0000
,
0000
0000
0000
0000
,
0000
0000
0000
0000
,
0000
0000
0000
0000
,
0000
0000
0000
0000
,
0000
0000
0000
0000
,
0000
0000
0000
0000
,
0000
0000
0000
0000
,
0000
0000
0000
0000
,
0000
0000
0000
0000
,
0000
0000
0000
0000
,
0000
0000
0000
0000
,
0000
0000
0000
0000
,
0000
1000
0000
0000
,
0000
0100
0000
0000
,
0000
0010
0000
0001
,
0000
1000
0000
0100
,
0000
1000
0000
0100
,
0000
1000
0000
0000
,
0000
0010
0000
0000
,
0000
0100
0000
0001
,
0000
1000
0000
0010
,
0000
1000
0000
0010
,
0000
1000
0000
0000
,
0000
0100
0000
0000
,
0000
0010
0000
0001
,
0000
0100
0000
0000
,
0000
0010
0000
0000
,
0000
1000
0000
0001
,
0000
1000
0000
0100
,
0000
0010
0000
0100
,
0000
1000
0000
0010
,
0000
0100
0000
0010
,
0000
1000
0000
0001
,
0000
1001
0010
0100
,
0010
1000
0000
0001
,
0000
1001
0010
0100
,
0010
1000
0000
0100
,
0000
1001
0010
0100
,
0010
1000
0000
0010
,
0000
1001
0010
0100
,
0010
0100
0000
0001
,
0000
1000
0100
0010
,
0100
1000
0100
0010
,
0001
0010
0100
0010
,
0100
1000
0100
0010
,
0001
1000
0100
1000
,
0100
1000
0001
0010
,
0100
0010
0001
0010
,
0100
1000
0001
0010
,
0100
1000
0001
1000
,
0100
0010
0001
1000
,
0100
0010
0001
1000
,
0010
0100
0001
0100
,
0001
0100
0001
0100
,
0001
0100
0001
0100
,
0001
0100
0010
0100
,
0010
1001
0010
0100
,
0010
1000
0000
0001
,
0000
1001
0100
0010
,
0100
0001
0000
1000
,
0000
1001
0100
0010
,
0100
0001
0000
0010
,
0000
1001
0010
0100
,
0010
1000
0100
0010
,
0001
1001
1000
0100
,
1000
1001
1000
0010
,
1000
1001
0100
0010
,
0100
0110
0100
0001
,
0100
0110
0010
0001
,
0010
0001
0010
0100
,
1000
0000
0000
0000
0000
0000
0000
0000
0000
0000
0000
0000
0000
0000
0000
0000
0000
0002
0000
0000
0000
0000
0000
0000
0000
0000
0000
0000
0000
0000
0000
0000
0000
0000
0000
0000
0000
0000
0000
0000
0000
0000
0000
0000
0000
0000
0000
0000
0000
0000
0000
0000
0000
0000
0000
0000
0000
0000
0000
0000
0000
0000
0000
0000
,
0000
0000
0000
0000
,
0000
0003
0000
0000
;

//--------------- dance-single - ----------------
#NOTES:
     dance-single:
     :
     Easy:
     7:
     0,0,0,0,0:
0000
0000
0000
0000
,
0000
0000
0000
0000
,
0000
0000
0000
0000
,
0000
0000
0000
0000
,
0000
0000
0000
0000
,
0000
0000
0000
0000
,
0000
0000
0000
0000
,
0000
0000
0000
0000
,
0000
0000
0000
0000
,
0000
1000
0100
0010
,
0001
1000
0100
0010
,
0001
1000
0010
0100
,
0001
1000
0010
0100
,
0001
1000
0100
0010
,
0001
1000
0010
0100
,
0001
1000
0100
1000
,
0010
0000
1000
0100
0010
0001
1000
0010
,
0100
0001
1000
0000
0000
0000
0100
0000
,
0000
0010
0000
0001
,
0000
1000
0100
0010
,
0001
1000
0010
0100
,
0010
1000
0100
0010
,
0001
1000
0000
0010
,
0000
0100
0000
0001
,
0000
1000
0010
0100
,
0001
1000
0100
0010
,
0100
1000
0010
0100
,
0001
1000
0000
0100
,
0000
0010
0000
0001
,
0000
1000
0010
0100
,
0010
1000
1000
1000
,
1000
0001
0001
0001
,
0001
1000
0100
0010
,
0001
0100
0010
0100
,
0010
1000
0001
1000
,
0001
1000
0100
1000
,
0100
0010
0001
0010
,
0001
0100
0010
0100
,
0010
0000
1001
0100
0010
0100
0010
0000
,
0010
1000
0100
0010
,
0001
0000
1001
0100
0010
0100
0010
0000
,
0010
1000
0010
0100
,
0001
0000
1001
0010
0100
0010
0100
0000
,
0100
0001
0010
0100
,
1000
0000
1001
0010
0100
0010
0100
0000
,
0100
0001
0100
0010
,
1000
0000
0001
0010
0100
0010
0001
0010
,
0100
1000
0100
0010
0100
0010
0001
0010
,
0100
1000
0001
0000
1000
0001
1000
0100
,
0010
0001
1000
0100
0010
0001
1000
0100
,
0010
0001
1000
0100
0010
0100
1000
0100
,
0010
0100
1000
0000
0001
0000
1000
0010
,
0100
0001
1000
0010
0100
0001
1000
0010
,
0100
0001
1000
0010
0100
0010
1000
0010
,
0100
0010
1000
0000
0001
0000
1000
0100
,
0010
0001
1000
0100
0010
0001
1000
0100
,
0010
0001
1000
0100
0010
0001
1000
0100
,
0010
0001
1000
0000
0000
0000
1100
0000
,
0000
0100
0000
0110
,
0000
0010
0000
0011
,
0000
0000
1000
0001
1000
0001
0100
0010
,
0100
0010
1001
0100
0010
0100
0010
0000
,
0010
1000
0100
0010
,
0001
0000
1001
0010
0100
0010
0100
0000
,
0100
0001
0010
0100
,
1000
0000
1001
0100
0010
0100
0010
0000
,
0010
1000
0010
0100
,
0001
0000
1001
0010
0100
0010
0100
0000
,
0100
0000
1000
0100
0010
0001
1000
0100
,
0010
0001
1001
0100
1000
0100
1000
0000
,
1000
0000
1001
0010
1000
0010
1000
0000
,
1000
0000
1001
0010
0100
0010
0100
0000
,
0100
0000
0110
0001
0100
0001
0100
0000
,
0100
0000
0110
0001
0010
0001
0010
0000
,
0010
0000
0001
0010
0100
0010
0001
0010
,
0100
0000
0000
0000
0000
0000
0000
0000
1000
0000
0000
0000
0000
0000
0000
0000
0000
0002
0000
0000
0000
0000
0000
0000
0000
0000
0000
0000
0000
0000
0000
0000
0000
0000
0000
0000
0000
0000
0000
0000
0000
0000
0000
0000
0000
0000
0000
0000
0000
0000
0000
0000
0000
0000
0000
0000
0000
0000
0000
0000
0000
0000
0000
0000
,
0000
0000
0000
0000
,
0000
0003
0000
0000
;

//--------------- dance-single - ----------------
#NOTES:
     dance-single:
     :
     Medium:
     9:
     0,0,0,0,0:
0000
0000
0000
0000
,
0000
0000
0000
0000
,
0000
0000
0000
0000
,
0000
0010
0010
0010
,
0010
0010
0010
0010
,
0010
0100
0100
0100
,
0100
1000
1000
1000
,
1000
0100
0010
0000
0010
0000
0010
0000
,
0010
0010
0010
0010
,
0010
0001
0001
0001
,
0001
0001
0001
0001
,
0001
0100
0100
0100
,
0100
0100
0100
0100
,
0100
0010
0010
0010
,
0010
1000
1000
1000
,
1000
0001
0001
1000
,
1000
1000
0010
0100
,
0001
1000
0000
0100
,
0000
0010
0000
0001
,
0000
0000
1000
0100
0010
0001
1000
0100
,
0010
0001
1000
0000
0100
0000
0010
0000
,
0100
1000
0010
0100
,
0001
1000
0000
0010
,
0000
0100
0000
0001
,
0000
0000
1000
0010
0100
0001
1000
0010
,
0100
0001
1000
0000
0010
0000
0100
0000
,
0010
1000
0100
0010
,
0001
1000
0000
0100
,
0000
0010
0000
0001
,
0000
0000
1000
0100
0010
0001
1000
0100
,
0010
0001
0100
0010
0100
0010
0100
0010
,
0100
0100
0100
0100
,
0100
0000
1000
0100
0010
0001
1000
0010
,
0100
0001
1000
0000
0100
0000
0010
0000
,
0001
0100
0010
0100
,
0010
1000
0100
0010
,
0001
0010
0100
0010
,
0100
0000
1000
0001
1000
0001
1000
0001
,
1000
0000
0001
0000
1001
0000
0100
0010
0100
0010
0100
0010
0100
0000
0001
0000
,
0010
0100
1000
0000
0100
0000
0010
0000
,
0001
0000
0000
0000
1001
0000
0100
0010
0100
0010
0100
0010
0100
0000
0001
0000
,
0010
0100
1000
0000
0010
0000
0100
0000
,
0001
0000
0000
0000
1001
0000
0100
0010
0100
0010
0100
0010
0100
0000
0001
0000
,
0100
0010
1000
0000
0100
0000
0010
0000
,
0001
0000
0000
0000
1001
0000
0100
0010
0100
0010
0100
0010
0100
0000
0001
0000
,
0010
0100
1000
0000
0010
0000
0100
0000
,
0001
0000
1000
0100
0010
0000
0100
1000
,
0100
0000
0010
0001
0010
0000
0100
0010
,
0100
0000
1000
0000
0100
0010
0001
0100
,
0010
0100
0001
0010
0001
0010
0001
0010
,
0001
0010
0001
0100
0010
0000
1000
0100
,
0010
0000
0001
0000
1000
0000
0001
0010
,
0100
1000
0001
0010
0100
1000
0001
0010
,
0100
1000
0001
0010
0100
0000
0010
0100
,
1000
0000
0001
0000
0001
0000
1000
0100
,
0010
0001
1000
0100
0010
0001
1000
0100
,
0010
0001
1000
0100
0010
0001
1000
0100
,
0010
0001
1100
0000
0000
0000
1010
0000
,
0000
0110
0000
0101
,
0000
0011
0000
1001
,
0000
0000
1000
0100
0010
0001
0100
0010
,
0100
0000
0010
0000
1001
0000
0100
0010
0100
0010
0100
0010
0100
0000
0001
0000
,
0010
0100
1000
0000
0100
0000
1000
0000
,
0100
0000
0000
0000
1001
0000
0100
0010
0100
0010
0100
0010
0100
0000
0001
0000
,
0010
0100
1000
0000
0010
0000
1000
0000
,
0010
0000
0000
0000
1001
0000
0100
0010
0100
0010
0100
0010
0100
0000
0001
0000
,
0010
0100
1000
0000
0001
0000
1000
0000
,
0001
0000
0000
0000
1001
0000
0100
0010
0100
0010
0100
0010
0100
0000
0001
0000
,
0010
0100
1000
0100
0010
0001
1000
0100
,
0010
0000
0001
0000
1001
0000
1000
0100
1000
0100
1000
0100
1000
0000
0000
0000
,
0100
0000
0000
0000
1001
0000
1000
0010
1000
0010
1000
0010
1000
0000
0000
0000
,
0010
0000
0000
0000
1001
0000
0100
0010
0100
0010
0100
0010
0100
0000
0000
0000
,
0010
0000
0000
0000
1001
0000
0100
0001
0100
0001
0100
0001
0100
0000
0000
0000
,
0001
0000
0000
0000
1001
0000
0010
0001
0010
0001
0010
0001
0010
0000
0000
0000
,
0001
0000
0000
0000
0110
0000
0001
1000
0001
1000
0001
1000
0001
0000
1000
0000
,
0100
0000
0000
0000
0000
0000
0000
0000
0010
0000
0000
0000
0000
0000
0000
0000
0000
0002
0000
0000
0000
0000
0000
0000
0000
0000
0000
0000
0000
0000
0000
0000
0000
0000
0000
0000
0000
0000
0000
0000
0000
0000
0000
0000
0000
0000
0000
0000
0000
0000
0000
0000
0000
0000
0000
0000
0000
0000
0000
0000
0000
0000
0000
0000
,
0000
0000
0000
0000
,
0000
0003
0000
0000
;

//--------------- dance-single - ----------------
#NOTES:
     dance-single:
     :
     Hard:
     11:
     0,0,0,0,0:
0000
0000
0000
0000
,
0000
0000
1000
0100
0010
0001
1000
0100
,
0010
0001
1000
0100
0010
0001
1000
0100
,
0010
0001
1000
0010
0100
0001
1000
0010
,
0100
0001
1000
0010
0100
0001
1000
0010
,
0100
0001
1000
0100
0010
0001
0010
0100
,
1000
0001
1000
0010
0100
0001
0100
0010
,
1000
0001
1000
0100
0010
0001
0100
0010
,
1000
0100
0010
0001
0100
0010
1000
0100
,
0010
0001
1000
0010
0100
0001
0010
0100
,
1000
0010
0100
0001
0010
0100
1000
0010
,
0100
0001
1000
0100
0010
0100
0010
0001
,
1000
0100
0010
0100
0010
0001
0010
0100
,
0010
0100
1000
0100
0010
0100
1000
0100
,
0010
0001
0010
0100
0010
0100
1000
0100
,
0010
0001
1000
0010
0100
0010
1000
0010
,
0100
0001
0100
0010
0100
0010
1000
0010
,
0100
0001
1000
0000
0100
0000
0010
0000
,
0001
0000
1000
0100
0010
0001
1000
0100
,
0010
0000
0001
0000
1000
0100
0010
0001
1000
0100
0010
0001
1000
0100
0010
0001
,
1000
0100
0010
0001
1000
0000
0100
0000
0010
0000
0100
0000
1000
0000
0100
0000
,
0010
0001
0010
0100
0010
0100
1000
0100
,
0010
0001
1000
0000
0010
0000
0100
0000
,
0001
0000
1000
0010
0100
0001
1000
0010
,
0100
0000
0001
0000
1000
0010
0100
0001
1000
0010
0100
0001
1000
0010
0100
0001
,
1000
0010
0100
0001
1000
0000
0010
0000
0100
0000
0010
0000
1000
0000
0010
0000
,
0100
0001
0100
0010
0100
0010
1000
0010
,
0100
0001
1000
0000
0100
0000
0010
0000
,
0001
0000
1000
0010
0100
0001
1000
0010
,
0100
0000
0001
0000
1000
0100
0010
0001
1000
0100
0010
0001
1000
0100
0010
0001
,
1000
0100
0010
0001
0100
0000
0000
0000
0100
0000
0000
0000
0100
0000
0000
0000
,
0100
0100
0100
0100
,
0100
0000
1000
0100
0010
0001
0100
0010
,
1000
0100
0010
0001
1000
0000
0100
0000
1000
0000
0100
0000
1000
0000
0100
0000
,
1000
0100
0010
0001
0010
0001
0010
0001
,
0010
0001
1000
0010
1000
0010
1000
0010
,
1000
0010
0100
0001
0100
0001
0100
0001
,
0100
0001
0010
0010
0010
0010
0010
0010
,
0010
0000
0010
0000
1001
0000
0100
0010
0100
0010
0100
0010
0100
0000
0100
0000
,
0100
0100
1000
0100
0001
0100
1000
0100
,
0010
0000
0001
0000
1001
0000
0010
0100
0010
0100
0010
0100
0010
0000
0010
0000
,
0010
0010
0001
0010
1000
0010
0001
0010
,
0100
0000
1000
0000
1001
0000
0100
0010
0100
0010
0100
0010
0100
0000
0100
0000
,
0100
0100
0001
0100
1000
0100
0001
0100
,
0010
0000
1000
0000
1001
0000
0010
0100
0010
0100
0010
0100
0010
0000
0010
0000
,
0010
0010
1000
0010
0001
0010
1000
0010
,
0100
0001
1000
0100
0010
0100
1000
0100
,
0010
0001
0010
0100
0010
0100
1000
0100
,
0010
0001
1000
0001
0010
0100
1000
0100
,
0010
0100
0010
0001
0010
0100
1000
0100
,
0010
0100
1000
0010
0100
0010
1000
0010
,
0100
0001
0100
0010
0100
0010
1000
0010
,
0100
0001
1000
0001
0100
0010
1000
0010
,
0100
0010
0100
0001
0100
0010
1000
0010
,
0100
0010
1000
0100
0010
0100
1000
0010
,
0100
0001
0010
0100
0010
0100
1000
0010
,
0100
0001
1000
0001
0010
0100
1000
0010
,
0100
0010
0100
0001
0010
0100
1000
0010
,
0100
0010
1000
0100
0010
0001
0100
0010
,
0100
0000
0001
0000
1000
0100
0010
0000
0001
0010
0100
0000
1000
0010
0100
0000
,
0001
0100
0010
0000
1000
0100
1000
0100
1000
0100
1000
0100
0010
0001
0010
0001
,
0010
0001
0010
0001
1001
0000
0100
0010
0100
0010
0100
0010
0100
0000
0100
0000
,
0100
0100
1000
0100
0001
0100
1000
0100
,
0001
0000
0100
0000
1001
0000
0010
0100
0010
0100
0010
0100
0010
0000
0010
0000
,
0010
0010
0001
0010
1000
0010
0001
0010
,
1000
0000
0010
0000
1001
0000
0100
0010
0100
0010
0100
0010
0100
0000
0100
0000
,
0100
0100
0001
0100
1000
0100
0001
0100
,
1000
0000
0100
0000
1001
0000
0010
0100
0010
0100
0010
0100
0010
0000
0010
0000
,
0010
0000
0010
0000
1000
0100
0010
0001
1000
0100
0010
0001
1000
0100
0010
0001
,
1000
0100
0010
0001
1001
0000
0100
0010
0100
0010
0100
0010
0100
0000
0100
0000
,
0100
0000
0100
0000
1001
0000
0010
0100
0010
0100
0010
0100
0010
0000
0010
0000
,
0010
0000
0010
0000
1001
0000
1000
0010
1000
0010
1000
0010
1000
0000
1000
0000
,
1000
0000
1000
0000
1001
0000
1000
0100
1000
0100
1000
0100
1000
0000
1000
0000
,
1000
0000
1000
0000
1001
0000
0001
0100
0001
0100
0001
0100
0001
0000
0001
0000
,
0001
0000
0001
0000
1001
0000
0001
0010
0001
0010
0001
0010
0001
0000
0001
0000
,
0001
0000
0000
0000
0000
0000
0000
0000
0001
0000
0000
0000
0000
0000
0000
0000
0000
0002
0000
0000
0000
0000
0000
0000
0000
0000
0000
0000
0000
0000
0000
0000
0000
0000
0000
0000
0000
0000
0000
0000
0000
0000
0000
0000
0000
0000
0000
0000
0000
0000
0000
0000
0000
0000
0000
0000
0000
0000
0000
0000
0000
0000
0000
0000
,
0000
0000
0000
0000
,
0000
0003
0000
0000
;

//--------------- dance-single - ----------------
#NOTES:
     dance-single:
     :
     Challenge:
     12:
     0,0,0,0,0:
0000
0000
0000
0000
,
0000
0000
0000
0000
1000
0100
0010
0000
0100
0010
0001
0000
1000
0100
0010
0000
,
0100
0010
0001
0000
1000
0100
0010
0000
0100
0010
0001
0000
1000
0100
0010
0000
,
0100
0010
0001
0000
1000
0010
0100
0000
0010
0100
0001
0000
1000
0010
0100
0000
,
0010
0100
0001
0000
1000
0010
0100
0000
0010
0100
0001
0000
1000
0010
0100
0000
,
0010
0100
0001
0000
1000
0100
0010
0000
0001
0010
0100
0000
1000
0100
0010
0000
,
0001
0010
0100
0000
1000
0010
0100
0000
0001
0100
0010
0000
1000
0010
0100
0000
,
0001
0100
0010
0000
1000
0100
0010
0000
0001
0100
0010
0000
1000
0100
0010
0000
,
0001
0100
0010
0000
1000
0100
0010
0000
0001
0100
0010
0000
1000
0100
0010
0000
,
0001
0100
0010
0000
1000
0010
0100
0000
0001
0010
0100
0000
1000
0010
0100
0000
,
0001
0010
0100
0000
1000
0010
0100
0000
0001
0010
0100
0000
1000
0010
0100
0000
,
0001
0010
0100
0000
1000
0100
0010
0000
0100
0010
0001
0000
1000
0100
0010
0000
,
0100
0010
0001
0000
1000
0100
0010
0000
0100
0010
0001
0000
1000
0100
0010
0000
,
0100
0010
0001
0000
1000
0100
0010
0000
0100
1000
0100
0000
0010
0001
0010
0000
,
0100
0010
0100
0000
1000
0100
0010
0000
0100
0010
0001
0000
1000
0100
0010
0000
,
0100
0010
0001
0000
1000
0010
0100
0000
0010
1000
0010
0000
0100
0001
0100
0000
,
0010
0100
0010
0000
1000
0100
0010
0001
1000
0100
0010
0001
1000
0100
0010
0001
,
1000
0100
0010
0001
0010
0100
1000
0000
0000
0100
0000
0000
0010
0000
0000
0001
0000
0000
1000
0000
0000
0100
0000
0000
,
0010
0000
0001
0000
1000
0100
0010
0001
1000
0100
0010
0001
1000
0100
0010
0001
,
1000
0100
0010
0001
1000
0100
0010
0100
1000
0100
0010
0100
1000
0100
0010
0100
,
1000
0100
0010
0100
1000
0000
0010
0000
0100
0000
0001
0000
0010
0100
0010
0000
,
0001
0000
0100
0000
0010
0000
1000
0000
0100
0000
0010
0000
0100
1000
0010
0000
,
0100
0001
1000
0010
0100
0001
1000
0010
,
0100
0000
0001
0000
1000
0010
0100
0001
1000
0010
0100
0001
1000
0010
0100
0001
,
1000
0010
0100
0001
1000
0010
0100
0010
1000
0010
0100
0010
1000
0010
0100
0010
,
1000
0010
0100
0010
1000
0000
0100
0000
0010
0000
0001
0000
0100
0010
0100
0000
,
0001
0000
0010
0000
0100
0000
1000
0000
0010
0000
0100
0000
0010
1000
0100
0000
,
0010
0001
1000
0100
0010
0001
1000
0100
,
0010
0000
0001
0000
1000
0100
0010
0100
1000
0100
0010
0100
1000
0010
0100
0010
,
1000
0010
0100
0010
1000
0100
0010
0001
1000
0100
0010
0001
1000
0100
0010
0001
,
1000
0100
0010
0001
0100
0010
0100
0010
0100
0010
0100
0010
0100
0010
0100
0010
,
0100
0001
0001
0001
,
0001
0000
0000
0000
1000
0100
1000
0100
0010
0001
0010
0001
0100
0010
0100
0010
,
1000
0000
0100
0000
0010
0000
0001
0000
0010
0000
0100
0000
1000
0000
0000
0000
0000
0000
0010
0000
0000
0000
0000
0000
0100
0000
0000
0000
0000
0000
0001
0000
0000
0000
0000
0000
0010
0000
0000
0100
0000
0000
1000
0000
0000
0000
0000
0000
,
0010
0000
0100
0000
0001
0000
0100
0000
0010
0000
1000
0000
0100
0010
0001
0000
,
0100
0000
0010
0000
1000
0000
0100
0000
0010
0000
0100
0000
1000
0100
0010
0000
,
0001
0000
0010
0000
0100
0000
0010
0000
0100
0000
1000
0000
0100
0010
0001
0000
,
0100
0000
0010
0000
1000
0100
1000
0100
0010
0001
0010
0001
0100
0010
0100
0010
,
1000
0001
1000
0001
1001
0000
1000
0010
1000
0010
1000
0010
1000
0000
1000
0000
,
1000
1000
1100
0100
0110
0010
0011
0001
,
1001
0000
1000
0000
1001
0000
0001
0100
0001
0100
0001
0100
0001
0000
0001
0000
,
0001
0001
0011
0010
0110
0100
1100
1000
,
1001
0000
0001
0000
1001
0000
1000
0100
1000
0100
1000
0100
1000
0000
1000
0000
,
1000
1000
1010
0010
0110
0100
0101
0001
,
1001
0000
1000
0000
1001
0000
0001
0010
0001
0010
0001
0010
0001
0000
0001
0000
,
0001
0001
0101
0100
0110
0010
1010
1000
,
1001
0000
0001
0000
1000
0100
0010
0100
1000
0100
0010
0001
0010
0100
0010
0100
,
1000
0100
0010
0001
0010
0100
0010
0001
0010
0100
1000
0001
0010
0100
0010
0001
,
1000
0100
1000
0001
0020
0030
0001
0100
0010
1000
0100
1000
0001
0010
0100
1000
,
0001
0010
0100
1000
0001
0010
0100
1000
0001
0010
0100
1000
0001
0010
0100
1000
,
0001
0010
0100
1000
0001
0010
0100
0010
0001
0010
0100
1000
0001
0010
0100
0010
,
0001
0010
0100
1000
0002
0003
0100
0010
1000
0100
0010
0001
1000
0010
0100
0001
,
1000
0010
0100
0001
1000
0010
0100
0001
1000
0010
0100
0001
1000
0010
0100
0001
,
1000
0010
0100
0001
1000
0010
0100
0010
1000
0010
0100
0001
1000
0010
0100
0010
,
1000
0010
0100
0001
2000
3000
0100
0010
0001
0100
0010
1000
0001
0010
0100
1000
,
0001
0010
0100
1000
0001
0010
0100
1000
0001
0010
0100
1000
0001
0010
0100
1000
,
0001
0010
0100
1000
0001
0010
0100
0010
0001
0010
0100
1000
0100
0010
0100
0010
,
0001
0010
0100
1000
0001
0010
0001
0010
0001
0010
0001
0010
0001
0010
0001
0010
,
0001
0010
0001
0010
0100
1000
0100
1000
0100
1000
0100
1000
0100
1000
0100
1000
,
0100
1000
0100
1000
0001
0100
0010
0100
0001
0010
0100
1000
0010
0100
0010
0100
,
0001
0010
0100
1000
0010
0100
0010
0100
0010
0100
0010
0100
0001
1000
0001
1000
,
0001
1000
0001
1000
1001
0000
0100
0010
0100
0010
0100
0010
0100
0000
0100
0000
,
0100
0100
1100
1000
1010
0010
0011
0001
,
0101
0000
0100
0000
0110
0000
1000
0001
1000
0001
1000
0001
1000
0000
1000
0000
,
1000
1000
1010
0010
0011
0001
0101
0100
,
1100
0000
1000
0000
1001
0000
0010
0100
0010
0100
0010
0100
0010
0000
0010
0000
,
0010
0010
0011
0001
0101
0100
1100
1000
,
1010
0000
0010
0000
0110
0000
0001
1000
0001
1000
0001
1000
0001
0000
0001
0000
,
0001
0000
0001
0000
1000
0100
0010
0001
1000
0100
0010
0001
1000
0100
0010
0001
,
1000
0100
0010
0001
1001
0000
1000
0100
1000
0100
1000
0100
1000
0000
1000
0000
,
1000
0000
1000
0000
1001
0000
1000
0010
1000
0010
1000
0010
1000
0000
1000
0000
,
1000
0000
1000
0000
1001
0000
0100
0010
0100
0010
0100
0010
0100
0000
0100
0000
,
0100
0000
0100
0000
0110
0000
0100
0001
0100
0001
0100
0001
0100
0000
0100
0000
,
0100
0000
0100
0000
0110
0000
0010
0001
0010
0001
0010
0001
0010
0000
0010
0000
,
0010
0000
0010
0000
0001
0010
0100
0010
0001
0010
0100
0010
0100
1000
0100
0010
,
0001
0000
0000
0000
0010
0000
0000
0000
0100
0000
0000
0000
0010
0000
0000
0000
0000
0002
0000
0000
0000
0000
0000
0000
0000
0000
0000
0000
0000
0000
0000
0000
0000
0000
0000
0000
0000
0000
0000
0000
0000
0000
0000
0000
0000
0000
0000
0000
0000
0000
0000
0000
0000
0000
0000
0000
0000
0000
0000
0000
0000
0000
0000
0000
,
0000
0000
0000
0000
,
0000
0003
0000
0000
;

//--------------- dance-single - BLACK CHALLENGE ----------------
#NOTES:
     dance-single:
     BLACK CHALLENGE:
     Edit:
     13:
     0,0,0,0,0:
0000
0000
0000
0000
1000
0001
1000
0001
1000
0001
1000
0001
1000
0001
1000
0001
,
1000
0000
0001
0000
1000
0000
0001
0000
1000
0000
0001
0000
1000
0000
0000
0100
0000
0000
0010
0000
0000
0001
0000
0000
1000
0000
0000
0100
0000
0000
0010
0000
0000
0001
0000
0000
1000
0000
0000
0100
0000
0000
0010
0000
0000
0001
0000
0000
,
1000
0100
0010
0001
1000
0100
0010
0001
1000
0100
0010
0001
1000
0100
0010
0001
,
1000
0100
0010
0001
1000
0010
0100
0001
1000
0010
0100
0001
1000
0010
0100
0001
,
1000
0010
0100
0001
1000
0010
0100
0001
1000
0010
0100
0001
1000
0010
0100
0001
,
1000
0010
0100
0001
1000
0100
0010
0001
0010
0100
1000
0100
0010
0001
0010
0100
,
1000
0100
0010
0001
1000
0010
0100
0001
0100
0010
1000
0010
0100
0001
0100
0010
,
1000
0010
0100
0001
1000
0100
0010
0001
0100
0010
1000
0100
0010
0001
0100
0010
,
1000
0100
0010
0001
0100
0010
1000
0100
0010
0001
0100
0010
1000
0100
0010
0001
,
0100
0010
1000
0001
1000
0010
0100
0001
0010
0100
1000
0010
0100
0001
0010
0100
,
1000
0010
0100
0001
0010
0100
1000
0010
0100
0001
0010
0100
1000
0010
0100
0001
,
0010
0100
1000
0001
1000
0100
0010
0100
0010
0001
1000
0100
0010
0100
0010
0001
,
1000
0100
0010
0100
0010
0001
1000
0100
0010
0100
0010
0001
1000
0100
0010
0100
,
0010
0001
0010
0100
1000
0100
0010
0100
1000
0100
0010
0001
0010
0100
0010
0100
,
1000
0100
0010
0001
1000
0001
0010
0100
1000
0100
0010
0100
0010
0001
0010
0100
,
1000
0100
0010
0100
1000
0010
0100
0010
1000
0010
0100
0001
0100
0010
0100
0010
,
1000
0010
0100
0001
1000
0100
0010
0001
1000
0100
0010
0001
1000
0100
0010
0001
,
1000
0100
0010
0001
0010
0100
1000
0000
0000
0100
0000
0000
0010
0000
0000
0001
0000
0000
1000
0000
0000
0100
0000
0000
,
0010
0000
0001
0000
1000
0100
0010
0001
1000
0100
0010
0001
1000
0100
0010
0001
,
1000
0100
0010
0001
1000
0100
0010
0100
1000
0100
0010
0100
1000
0100
0010
0100
,
1000
0100
0010
0100
1000
0100
0010
0000
0100
1000
0100
0000
0010
0001
0010
0000
,
0100
0010
0100
0000
1000
0100
0010
0000
0001
1000
0001
0000
0010
0100
1000
0000
,
0100
0010
0001
0000
1000
0000
0010
0000
0100
0000
0001
0000
1000
0000
0010
0000
,
0100
0000
0001
0000
1000
0010
0100
0001
1000
0010
0100
0001
1000
0010
0100
0001
,
1000
0010
0100
0001
1000
0010
0100
0010
1000
0010
0100
0010
1000
0010
0100
0010
,
1000
0010
0100
0010
1000
0010
0100
0000
0010
1000
0010
0000
0100
0001
0100
0000
,
0010
0100
0010
0000
1000
0010
0100
0000
0001
1000
0001
0000
0100
0010
1000
0000
,
0010
0100
0001
0000
1000
0000
0100
0000
0010
0000
0001
0000
1000
0000
0100
0000
,
0010
0000
0001
0000
1000
0100
0010
0100
1000
0100
0010
0100
1000
0010
0100
0010
,
1000
0010
0100
0010
1000
0100
0010
0001
1000
0100
0010
0001
1000
0100
0010
0001
,
1000
0100
0010
0001
0100
0010
0100
0010
0100
0010
0100
0010
0100
0010
0100
0010
,
0100
1001
1001
1001
,
1001
0000
0000
0000
1000
0100
1000
0100
0010
0001
0010
0001
0100
0010
0100
0010
,
1000
0000
0100
0000
0010
0000
0001
0000
0010
0000
0100
0000
1000
0000
0000
0100
0000
0000
0010
0000
0000
0100
0000
0000
1000
0000
0000
0100
0000
0000
0010
0000
0000
0001
0000
0000
0010
0000
0000
0100
0000
0000
0010
0000
0000
0100
0000
0000
,
1000
0100
0010
0001
1000
0001
0010
0100
1000
0100
0010
0100
0010
0001
0010
0100
,
1000
0100
0010
0100
1000
0010
0100
0010
1000
0010
0100
0001
0100
0010
0100
0010
,
1000
0010
0100
0001
1000
0001
0100
0010
1000
0010
0100
0010
0100
0001
0100
0010
,
1000
0010
0100
0010
1000
0100
1000
0100
0010
0001
0010
0001
0100
0010
0100
0010
,
1000
0001
1000
0001
1001
0000
1000
0010
1000
0010
1000
0010
1000
0000
1000
0010
,
1000
1000
1100
0100
0110
0010
0011
0001
,
1001
0000
1000
0000
1001
0000
0001
0100
0001
0100
0001
0100
0001
0000
0001
0100
,
0001
0001
0011
0010
0110
0100
1100
1000
,
1001
0000
0001
0000
1001
0000
1000
0100
1000
0100
1000
0100
1000
0000
1000
0100
,
1000
1000
1010
0010
0110
0100
0101
0001
,
1001
0000
1000
0000
1001
0000
0001
0010
0001
0010
0001
0010
0001
0000
0001
0010
,
0001
0001
0101
0100
0110
0010
1010
1000
,
1000
0100
0010
0001
1000
0100
0010
0100
1000
0100
0010
0001
0010
0100
0010
0100
,
1000
0100
0010
0001
0010
0100
0010
0001
0010
0100
1000
0001
0010
0100
0010
0001
,
1000
0100
1000
0001
0010
0100
1000
0010
0100
0001
0010
0001
1000
0100
0010
0001
,
1000
0100
0010
0001
1000
0100
0010
0001
1000
0100
0010
0001
1000
0100
0010
0001
,
1000
0100
0010
0001
1000
0100
0010
0100
1000
0100
0010
0001
1000
0100
0010
0100
,
1000
0100
0010
0001
1000
0010
0100
0010
1000
0100
0010
0001
1000
0010
0100
0001
,
1000
0010
0100
0001
1000
0010
0100
0001
1000
0010
0100
0001
1000
0010
0100
0001
,
1000
0010
0100
0001
1000
0010
0100
0010
1000
0010
0100
0001
1000
0010
0100
0010
,
1000
0010
0100
0001
1000
0100
0010
0100
1000
0010
0100
0001
1000
0100
0010
0001
,
1000
0100
0010
0001
1000
0100
0010
0001
1000
0100
0010
0001
1000
0100
0010
0001
,
1000
0100
0010
0001
1000
0100
0010
0100
1000
0100
0010
0001
0010
0100
0010
0100
,
1000
0100
0010
0001
1000
0100
1000
0100
1000
0100
1000
0100
1000
0100
1000
0100
,
1000
0100
1000
0100
0010
0001
0010
0001
0010
0001
0010
0001
0010
0001
0010
0001
,
0010
0001
0010
0001
1000
0010
0100
0010
1000
0100
0010
0001
0100
0010
0100
0010
,
1000
0100
0010
0001
0100
0010
0100
0010
0100
0010
0100
0010
1000
0001
1000
0001
,
1000
0001
1000
0001
1001
0000
0100
0010
0100
0010
0100
0010
0100
0010
0100
0010
,
0100
0010
0100
0010
1100
0000
1000
0000
1010
0000
0010
0000
0011
0000
0001
0000
,
0101
0000
0100
0000
0110
0000
1000
0001
1000
0001
1000
0001
1000
0000
1000
0001
,
1000
1000
1010
0010
0011
0001
0101
0100
,
1100
0000
1000
0000
1001
0000
0010
0100
0010
0100
0010
0100
0010
0000
0010
0100
,
0010
0010
0011
0001
0101
0100
1100
1000
,
1010
0000
0010
0000
0110
0000
0001
1000
0001
1000
0001
1000
0001
1000
0001
1000
,
0001
0000
0001
0000
1000
0100
0010
0001
1000
0100
0010
0001
1000
0100
0010
0001
,
1000
0100
0010
0001
1001
0000
1000
0100
1000
0100
1000
0100
1000
0000
1000
0000
,
1000
0000
1000
0000
1001
0000
1000
0010
1000
0010
1000
0010
1000
0000
1000
0000
,
1000
0000
1000
0000
1001
0000
0100
0010
0100
0010
0100
0010
0100
0000
0100
0000
,
0100
0000
0100
0000
0110
0000
0100
0001
0100
0001
0100
0001
0100
0000
0100
0000
,
0100
0000
0100
0000
0110
0000
0010
0001
0010
0001
0010
0001
0010
0000
0010
0000
,
0010
0000
0010
0000
0001
0010
0100
0010
0001
0010
0100
0010
0100
1000
0100
0010
,
0001
0000
0000
0000
0010
0000
0000
0000
0100
0000
0000
0000
0010
0000
0000
0000
0000
0002
0000
0000
0000
0000
0000
0000
0000
0000
0000
0000
0000
0000
0000
0000
0000
0000
0000
0000
0000
0000
0000
0000
0000
0000
0000
0000
0000
0000
0000
0000
0000
0000
0000
0000
0000
0000
0000
0000
0000
0000
0000
0000
0000
0000
0000
0000
,
0000
0000
0000
0000
,
0000
0003
0000
0000
;

//--------------- dance-single - Keyboard Chart ----------------
#NOTES:
     dance-single:
     Keyboard Chart:
     Edit:
     15:
     0,0,0,0,0:
0000
0000
0000
0000
1000
0001
1000
0001
1000
0001
1000
0001
1000
0001
1000
0001
,
1000
0000
0001
0000
1000
0000
0001
0000
1000
0000
0001
0000
1001
0000
0000
0100
0000
0000
0010
0000
0000
0001
0000
0000
1000
0000
0000
0100
0000
0000
0010
0000
0000
0001
0000
0000
1000
0000
0000
0100
0000
0000
0010
0000
0000
0001
0000
0000
,
1000
0100
0010
0001
1000
0100
0010
0001
1000
0100
0010
0001
1000
0100
0010
0001
,
1000
0100
0010
0001
1001
0010
0100
0001
1000
0010
0100
0001
1000
0010
0100
0001
,
1000
0010
0100
0001
1000
0010
0100
0001
1000
0010
0100
0001
1000
0010
0100
0001
,
1000
0010
0100
0001
1001
0100
0010
0001
0010
0100
1000
0100
0010
0001
0010
0100
,
1000
0100
0010
0001
1000
0010
0100
0001
0100
0010
1000
0010
0100
0001
0100
0010
,
1000
0010
0100
0001
1001
0100
0010
0001
0100
0010
1000
0100
0010
0001
0100
0010
,
1000
0100
0010
0001
0100
0010
1000
0100
0010
0001
0100
0010
1000
0100
0010
0001
,
0100
0010
1000
0001
1001
0010
0100
0001
0010
0100
1000
0010
0100
0001
0010
0100
,
1000
0010
0100
0001
0010
0100
1000
0010
0100
0001
0010
0100
1000
0010
0100
0001
,
0010
0100
1000
0001
1001
0100
0010
0100
0010
0001
1000
0100
0010
0100
0010
0001
,
1000
0100
0010
0100
0010
0001
1000
0100
0010
0100
0010
0001
1000
0100
0010
0100
,
0010
0001
0010
0100
1001
0100
0010
0100
1000
0100
0010
0001
0010
0100
0010
0100
,
1000
0100
0010
0001
1001
0001
0010
0100
1000
0100
0010
0100
0010
0001
0010
0100
,
1000
0100
0010
0100
1001
0010
0100
0010
1000
0010
0100
0001
0101
0010
0100
0010
,
1000
0010
0100
0001
1001
0100
0010
0001
1001
0100
0010
0001
1001
0100
0010
0001
,
1001
0100
0010
0001
0010
0100
1001
0000
0000
0100
0000
0000
0010
0000
0000
0001
0000
0000
1000
0000
0000
0100
0000
0000
,
0010
0000
0001
0000
1000
0100
0010
0001
1000
0100
0010
0001
1000
0100
0010
0001
,
1000
0100
0010
0001
1000
0100
0010
0100
1000
0100
0010
0100
1000
0100
0010
0100
,
1000
0100
0010
0100
1001
0000
0010
0000
0100
0000
0001
0000
0010
0100
0010
0000
,
0001
0000
0100
0000
0010
0000
1000
0000
0100
0000
0010
0000
0100
1000
0010
0000
,
0100
0001
1001
0010
0100
0001
1000
0010
,
0100
0000
0001
0000
1000
0010
0100
0001
1000
0010
0100
0001
1000
0010
0100
0001
,
1000
0010
0100
0001
1000
0010
0100
0010
1000
0010
0100
0010
1000
0010
0100
0010
,
1000
0010
0100
0010
1001
0000
0100
0000
0010
0000
0001
0000
0100
0010
0100
0000
,
0001
0000
0010
0000
0100
0000
1000
0000
0010
0000
0100
0000
0010
1000
0100
0000
,
0010
0001
1001
0100
0010
0001
1000
0100
,
0010
0000
0001
0000
1000
0100
0010
0100
1000
0100
0010
0100
1000
0010
0100
0010
,
1000
0010
0100
0010
1000
0100
0010
0001
1000
0100
0010
0001
1000
0100
0010
0001
,
1000
0100
0010
0001
0100
0010
0100
0010
0100
0010
0100
0010
0100
0010
0100
0010
,
0100
1001
1001
1001
,
1001
0000
0000
0000
1000
0100
1000
0100
0010
0001
0010
0001
0100
0010
0100
0010
,
1000
0000
0100
0000
0010
0000
0001
0000
0010
0000
0100
0000
1100
0000
0000
0000
0000
0000
0010
0000
0000
0000
0000
0000
0100
0000
0000
0000
0000
0000
0001
0000
0000
0000
0000
0000
0010
0000
0000
0100
0000
0000
1000
0000
0000
0000
0000
0000
,
0010
0000
0100
0000
0001
0000
0100
0000
0010
0000
1000
0000
0100
0010
0001
0000
,
0100
0000
0010
0000
1000
0000
0100
0000
0010
0000
0100
0000
1000
0100
0010
0000
,
0001
0000
0010
0000
0100
0000
0010
0000
0100
0000
1000
0000
0100
0010
0001
0000
,
0100
0000
0010
0000
1000
0100
1000
0100
0010
0001
0010
0001
0100
0010
0100
0010
,
1000
0001
1000
0001
1001
0000
1001
0110
1001
0110
1001
0110
1001
0000
1001
0000
,
1010
1010
1100
1100
0110
0110
0011
0011
,
1001
0000
1001
0000
1001
0000
1001
0110
1001
0110
1001
0110
1001
0000
1001
0000
,
0101
0101
0011
0011
0110
0110
1100
1100
,
1001
0000
1001
0000
1001
0000
1001
0110
1001
0110
1001
0110
1001
0000
1001
0000
,
1100
1100
1010
1010
0110
0110
0101
0101
,
1001
0000
1001
0000
1001
0000
1001
0110
1001
0110
1001
0110
1001
0000
1001
0000
,
0011
0011
0101
0101
0110
0110
1010
1010
,
1001
0000
1001
0000
1001
0100
0010
0100
1000
0100
0010
0001
0010
0100
0010
0100
,
1000
0100
0010
0001
0010
0100
0010
0001
0010
0100
1000
0001
0010
0100
0010
0001
,
1000
0100
1000
0001
0010
0100
1000
0010
0100
0001
0010
0001
1000
0100
0010
0001
,
1000
0100
0010
0001
1000
0100
0010
0001
1000
0100
0010
0001
1000
0100
0010
0001
,
1000
0100
0010
0001
1000
0100
0010
0100
1000
0100
0010
0001
1000
0100
0010
0100
,
1000
0100
0010
0001
1000
0010
0100
0010
1000
0100
0010
0001
1000
0010
0100
0001
,
1000
0010
0100
0001
1000
0010
0100
0001
1000
0010
0100
0001
1000
0010
0100
0001
,
1000
0010
0100
0001
1000
0010
0100
0010
1000
0010
0100
0001
1000
0010
0100
0010
,
1000
0010
0100
0001
1000
0100
0010
0100
1000
0010
0100
0001
1000
0100
0010
0001
,
1000
0100
0010
0001
1000
0100
0010
0001
1000
0100
0010
0001
1000
0100
0010
0001
,
1000
0100
0010
0001
1000
0100
0010
0100
1000
0100
0010
0001
0010
0100
0010
0100
,
1000
0100
0010
0001
1100
0100
1000
0100
1000
0100
1000
0100
1000
0100
1000
0100
,
1000
0100
1000
0100
0011
0001
0010
0001
0010
0001
0010
0001
0010
0001
0010
0001
,
0010
0001
0010
0001
1001
0010
0100
0010
1000
0100
0010
0001
0100
0010
0100
0010
,
1000
0100
0010
0001
1100
0011
1100
0011
1100
0011
1100
0011
1010
0101
1010
0101
,
1010
0101
1010
0101
1001
0000
1100
0011
1100
0011
1100
0011
1100
0010
0100
0010
,
0100
0010
0100
0010
1100
0000
1100
0000
1010
0000
1010
0000
0011
0000
0011
0000
,
0101
0000
0101
0000
0110
0000
1010
0101
1010
0101
1010
0101
1010
0000
1010
0000
,
1001
1001
1010
1010
0011
0011
0101
0101
,
1100
0000
1100
0000
1001
0000
0011
1100
0011
1100
0011
1100
0011
0000
0011
0000
,
0110
0110
0011
0011
0101
0101
1100
1100
,
1010
0000
1010
0000
0110
0000
0101
1010
0101
1010
0101
1010
0101
0000
0101
0000
,
1001
0000
1001
0000
1001
0100
0010
0001
1001
0100
0010
0001
1001
0100
0010
0001
,
1001
0100
0010
0001
1001
0000
1001
0110
1001
0110
1001
0110
1001
0000
1100
0000
,
1100
0000
1100
0000
1001
0000
1001
0110
1001
0110
1001
0110
1001
0000
1010
0000
,
1010
0000
1010
0000
1001
0000
1100
0011
1100
0011
1100
0011
1100
0000
0110
0000
,
0110
0000
0110
0000
0110
0000
0110
1001
0110
1001
0110
1001
0110
0000
0101
0000
,
0101
0000
0101
0000
0110
0000
0110
1001
0110
1001
0110
1001
0110
0000
0011
0000
,
0011
0000
0011
0000
1001
0000
1001
0110
1001
0110
1001
0110
1001
0010
0100
1000
,
0100
0000
0000
0000
0010
0000
0000
0000
0001
0000
0000
0000
1000
0000
0000
0000
0000
0002
0000
0000
0000
0000
0000
0000
0000
0000
0000
0000
0000
0000
0000
0000
0000
0000
0000
0000
0000
0000
0000
0000
0000
0000
0000
0000
0000
0000
0000
0000
0000
0000
0000
0000
0000
0000
0000
0000
0000
0000
0000
0000
0000
0000
0000
0000
,
0000
0000
0000
0000
,
0000
0003
0000
0000
;
