#TITLE:UPSIDE DOWN;
#SUBTITLE:;
#ARTIST:COO COO;
#TITLETRANSLIT:;
#SUBTITLETRANSLIT:;
#ARTISTTRANSLIT:;
#GENRE:;
#CREDIT:;
#MUSIC:Upside Down.ogg;
#BANNER:Upside Down-bn.png;
#BACKGROUND:Upside Down-bg.png;
#CDTITLE:;
#SAMPLESTART:42.550;
#SAMPLELENGTH:15.359;
#SELECTABLE:YES;
#OFFSET:-0.223;
#BPMS:0.000=124.033;
#STOPS:;
#BGCHANGES:;
#FGCHANGES:;

//--------------- dance-single - ORDINARY ----------------
#NOTES:
     dance-single:
     ORDINARY:
     Easy:
     3:
     0,0,0,0,0:
0000
0000
0000
0000
,
0000
0000
0000
0000
,
1000
0100
0010
0000
,
0001
0010
0100
0000
,
1000
0001
1000
0000
,
1000
0100
0001
0010
,
1000
1000
1000
0000
,
0001
0001
0001
0000
,
0100
0100
0100
0000
,
0010
0010
0010
0000
,
1000
0100
0001
0000
,
0001
0100
1000
0000
,
0010
0010
0010
0000
,
0100
0100
0100
0000
,
1000
0100
0001
0000
,
0010
1000
0001
0000
,
0100
0001
0010
0000
,
0001
0010
1000
0000
,
1000
0100
0010
0000
,
0100
0001
1000
0000
,
0001
0010
1000
0000
,
0100
0010
0001
1000
,
0100
0010
0001
0000
,
0100
0010
1000
0000
,
0001
0010
1000
0100
,
0001
0000
0010
1000
,
0001
0100
1000
0000
,
1000
0010
0001
0000
,
1000
0100
0001
0010
,
1000
0000
0000
0000
,
0001
0010
0100
0001
,
0010
0010
0010
0000
,
1000
0000
0001
0000
,
1000
0000
0010
0010
,
1000
0100
0001
0000
,
0001
0010
1000
0000
,
1000
0100
0010
0000
,
0001
0010
0100
0000
,
1000
0100
0001
0010
,
1000
0010
0001
0100
,
1000
0100
0001
0010
,
1000
0010
0001
0001
;

//--------------- dance-single - PARAMOUNT ----------------
#NOTES:
     dance-single:
     PARAMOUNT:
     Medium:
     7:
     0,0,0,0,0:
0000
0000
0000
0000
,
0000
0000
0000
0000
,
1000
1000
0100
0100
0010
0000
0000
0000
,
0001
0001
0010
0010
0100
0000
0000
0000
,
1000
0010
0100
0001
0010
0000
0000
0000
,
0001
0100
0010
1000
0100
0000
0000
0000
,
1000
0100
0010
0001
,
0100
0100
0100
0100
0010
0000
0000
0000
,
1100
1000
0011
0001
1000
0000
0000
0000
,
0101
0001
1010
1000
0001
0000
0000
0000
,
1000
0100
0010
0001
0100
0100
0100
0000
,
0001
0010
0100
1000
0010
0010
0010
0000
,
1100
0100
0110
0010
0001
0000
0000
0000
,
0011
0010
0110
0100
1000
0100
0010
0001
,
1000
0010
0100
0100
0001
0010
0000
0100
,
0000
0010
0001
0100
0010
0010
0000
0000
,
1000
0100
0010
0001
0100
0010
0000
1000
,
0000
0000
0010
0000
,
1000
0100
0110
0010
0001
1000
0000
0000
,
0001
0010
0110
0100
1000
0001
0000
0000
,
1000
0100
0010
0001
0100
0010
0000
1000
,
0000
0000
0000
0000
0001
0000
0000
1000
,
1000
0100
0001
0010
0100
1000
0000
0001
,
0001
0010
1000
0100
0010
0001
0000
0000
,
1000
1000
0010
0001
0100
0100
0001
1000
,
0010
0010
1000
0100
0001
0001
0100
1000
,
1000
0010
0001
0100
0010
1000
0000
0001
,
0001
0100
1000
0010
0100
0001
0000
0000
,
1000
0100
0001
0100
1000
0010
0001
0010
,
1000
0001
0000
0000
1000
0100
0010
0001
,
1000
0100
0100
0100
0001
0001
0010
0010
,
1000
0100
0010
0001
0000
0000
0000
0000
,
1010
0000
0000
0011
0000
0000
0110
0000
,
1001
0000
0000
0000
1000
1000
0001
0001
,
0010
0010
0100
0100
0001
0000
0000
0000
,
0100
0100
0010
0010
1000
0000
0000
0000
,
0001
0001
1000
1000
0010
0000
0000
0000
,
0100
0001
0010
0100
1000
0010
0000
0000
,
0001
0001
1000
1000
0010
0000
0000
0000
,
1000
1000
0001
0001
0100
0000
0000
0000
,
1000
0100
0010
0001
0010
0000
0000
0000
,
1000
0010
0100
0001
1000
1000
0001
0001
;

//--------------- dance-single - CATASTROPHIC ----------------
#NOTES:
     dance-single:
     CATASTROPHIC:
     Hard:
     9:
     0,0,0,0,0:
0000
0000
0000
0000
,
0000
0000
0000
0000
,
1000
0000
0100
0000
0010
0000
0100
0000
0001
0000
0000
0010
0000
1000
0000
0100
,
0001
0000
0010
0000
0100
0000
0010
0000
1000
0000
0000
0100
0000
0001
0010
0100
,
1000
0000
0010
0000
0100
0000
0001
0000
0010
0000
0000
0100
0000
0001
0000
0010
,
1000
0100
0010
0000
0001
0000
0010
0000
0100
0000
0000
1000
0000
0000
0000
0000
,
1000
0000
0000
0000
0100
0000
0000
0010
0000
0000
0000
0000
0000
0000
0001
0010
,
0001
0000
0010
0000
0100
0000
1000
0100
0000
0000
0010
0000
0001
0000
0100
0000
,
0010
0000
0010
0000
1000
0000
0100
0000
0010
0000
0000
0001
0000
0000
0000
0000
,
0100
0000
0100
0000
0001
0000
0010
0000
0100
0000
0000
1000
0000
0000
0000
0000
,
1000
0000
0000
0000
0001
0000
0000
0010
0000
0000
0000
0000
0000
0010
0100
1000
,
0010
0000
0001
0000
0100
0000
0010
1000
0000
0000
0000
0000
0000
0000
0000
0000
,
0100
0000
0100
0000
0010
0000
0001
0000
1000
0000
0000
0100
0000
0000
0000
0000
,
0010
0000
0010
0000
0100
0000
1000
0000
0001
0010
0001
0010
0100
1000
0100
1000
,
0001
0010
0100
1000
0100
0010
0000
1000
,
0000
0001
0010
0100
1000
0010
0000
0000
,
0100
0001
0010
0100
1000
0001
0000
0100
,
0000
0000
0001
0010
0001
0010
0000
0100
1000
0000
0001
0000
1000
0000
0001
0000
,
0000
1000
0010
1000
0100
0001
0000
0010
,
0000
0100
0001
0100
1000
0001
0000
0000
,
0100
0001
0010
0100
1000
0001
0000
0010
,
0000
0000
0000
0000
1000
0000
0001
0000
1000
0000
0001
0000
1000
0010
0100
0010
,
0001
0010
0100
1000
0100
0010
0000
1001
,
0000
0010
0100
1000
0010
0001
0000
0000
,
0110
0001
0010
1000
0100
0010
0001
1000
,
0000
0000
0000
0000
0000
0011
0000
1010
,
0000
0001
0100
0010
1000
0100
0000
0101
,
0000
0100
1000
0010
0001
0100
0000
0000
,
1100
0100
0010
0010
0001
0100
0010
1000
,
0000
0000
0100
0000
0000
0000
0000
0000
0010
0001
0100
0010
1000
0100
0001
0010
,
1000
0100
0010
0001
0100
0010
0001
0100
,
1000
0000
0010
0000
0100
0000
0010
0000
1000
0100
1000
0100
0010
0001
0010
0001
,
1001
0000
0000
1001
0000
0000
1001
0000
,
1001
0000
0000
0000
0000
0000
0000
0000
1000
0100
0001
0010
1000
0100
0010
0001
,
1000
0000
0100
0000
0010
0000
0001
0000
0100
0000
0000
0010
0000
1000
0000
0010
,
0100
0000
0001
0000
0010
0000
0100
0000
1000
0000
0000
0010
0000
0100
0001
0010
,
1000
0000
0100
0000
0001
0000
0010
0000
1000
0000
0000
0100
0000
0100
0000
0001
,
0010
0001
0100
0000
0010
0000
1000
0000
0100
0000
0000
0001
0000
0000
0000
0000
,
0010
0000
0100
0000
1000
0000
0100
0000
0010
0000
0000
0001
0000
0100
0000
0010
,
1000
0000
0010
0000
0001
0000
0100
0000
0001
0000
0000
1000
0000
0100
0100
0010
,
0001
0000
0100
0000
0010
0000
1000
0000
0001
0000
0000
0100
0000
0010
0000
1000
,
0100
0010
0001
0010
1000
0100
0010
0001
1000
0100
0001
0010
1000
0100
0001
0010
;

//--------------- dance-single - APOCALYPTIC ----------------
#NOTES:
     dance-single:
     APOCALYPTIC:
     Edit:
     10:
     0,0,0,0,0:
1000
0100
0010
0001
1000
0100
0010
0001
,
1000
0100
0010
0100
0001
0010
0100
0010
1000
0100
0010
0100
0001
0010
0100
0010
,
2000
0100
3002
0100
1003
0010
0100
0100
,
0002
0010
2003
0010
3001
0100
0010
0010
,
2000
0100
3002
0010
1003
0001
0100
0100
,
0001
0010
1000
0100
0001
0010
1000
0100
0001
0010
0100
1000
0001
1000
0001
1000
,
1001
0100
0010
0000
0001
0010
0100
0000
1000
0100
0010
0100
1000
0010
0100
0000
,
0001
0000
0010
0000
0010
0000
1000
0000
0100
0001
0010
1000
0010
0001
0100
0010
,
1100
0000
1100
0000
0101
0000
0101
0000
0220
0000
0330
2002
3003
0000
0000
0000
,
1100
0000
0100
0000
0101
0000
0001
0000
1000
0100
0001
0100
1000
0001
0100
1000
,
0001
0000
0100
0010
0100
0001
0100
0010
0100
0000
0100
0000
0001
0100
0010
0100
,
1000
0000
0010
0100
0010
1000
0010
0100
1000
0010
0100
0001
0010
0100
1000
0000
,
0011
0000
0011
0000
1010
0000
1010
0000
0220
0000
0330
2002
3003
0000
0000
0000
,
0011
0000
0010
0000
1010
0000
1000
0000
0001
0010
1000
0010
0001
1000
0010
0001
,
2000
0100
3020
0100
0032
0100
0013
0100
,
2000
0010
3200
0010
0302
0010
0103
0010
,
2000
0001
3200
0001
0320
0001
0130
0001
,
1000
0000
0001
0100
1000
0010
0000
0010
0001
0000
1000
0000
0100
0000
0010
0000
,
0002
0010
0203
0010
2300
0010
3100
0010
,
0002
0100
0023
0100
2030
0100
3010
0100
,
0002
1000
0023
1000
0230
1000
0310
1000
,
0001
0000
0100
0001
0010
0100
0000
0100
1000
0100
0001
0010
1000
0010
0001
0100
,
1001
0000
0100
0010
0100
0010
0000
0010
0001
0000
0001
0000
0110
0000
2002
3003
,
1001
0000
0010
0100
0010
0100
0000
0100
1000
0000
1000
0000
0110
0000
0001
0000
,
1010
0000
0100
0001
1000
0010
0000
0100
0010
0000
0001
0000
0110
0000
0010
0000
,
1001
0000
0100
0010
0001
0100
0000
0100
1000
0000
0020
0000
0130
0000
2002
3003
,
0110
0000
0010
0001
0100
0010
0001
0100
1000
0000
1000
0000
0110
0000
2002
3003
,
0110
0000
0100
1000
0010
0100
1000
0010
0001
0000
0001
0000
0110
0000
0001
0000
,
1100
0000
0100
0010
0001
0100
1000
0100
0001
0000
0001
0000
0110
0000
1000
0000
,
0011
0000
0100
0010
1000
0001
0010
1000
0010
0001
1000
0010
0001
0010
1000
0001
,
0110
0000
0001
0000
0020
0000
0001
0000
0230
0000
0010
0000
2300
0000
0100
3000
,
0011
0000
0110
0000
1100
0000
1001
0000
0100
0001
0010
1000
0010
0001
0100
0010
,
1100
0000
0000
0110
0000
0000
0011
0000
,
1001
0000
0100
0010
0100
0010
0000
0010
0001
0100
1000
0010
0001
0100
1000
0010
,
0100
0000
0100
0000
0001
0000
0001
0000
0020
0000
0000
0100
0000
1000
0000
0130
,
0010
0000
0001
0000
0100
0000
0010
0000
1000
0000
0000
0100
0000
0010
0001
0100
,
0010
0000
0010
0000
1000
0000
1000
0000
0200
0000
0000
0010
0000
0001
0000
0310
,
0100
1000
0001
0000
0110
0000
0001
0000
0220
0000
0330
2002
3003
0000
0010
0000
,
1000
0000
1000
0000
0001
0000
0001
0000
0200
0000
0000
0001
0000
0010
0000
1300
,
0100
0000
0001
0000
0010
0000
1000
0000
0100
0000
0000
0001
0000
0010
0100
0010
,
0001
0000
0001
0000
1000
0000
1000
0000
0020
0000
0000
1000
0000
0100
0000
0031
,
0010
0001
0100
0010
1000
0100
0010
0001
1000
0100
0001
0010
1000
0100
0001
0020
,
0030
0000
0000
0000
;
