#VERSION:0.83;
#TITLE:Tortura;
#SUBTITLE:;
#ARTIST:MAX MAXIMIZER;
#TITLETRANSLIT:;
#SUBTITLETRANSLIT:;
#ARTISTTRANSLIT:;
#GENRE:;
#ORIGIN:;
#CREDIT:;
#BANNER:Tortura-bn.png;
#BACKGROUND:Tortura-bg.png;
#PREVIEWVID:;
#JACKET:;
#CDIMAGE:;
#DISCIMAGE:;
#LYRICSPATH:;
#CDTITLE:;
#MUSIC:Tortura.ogg;
#OFFSET:-0.137000;
#SAMPLESTART:38.584000;
#SAMPLELENGTH:13.835000;
#SELECTABLE:YES;
#DISPLAYBPM:*;
#BPMS:0.000=103.000,
34.000=206.000,
162.000=103.000,
178.000=51.500,
184.000=412.000,
330.000=103.000,
344.896=51.500;
#STOPS:184.000=2.000;
#DELAYS:;
#WARPS:;
#TIMESIGNATURES:0.000=4=4;
#TICKCOUNTS:0.000=4;
#COMBOS:0.000=1;
#SPEEDS:0.000=1.000=0.000=0;
#SCROLLS:0.000=1.000;
#FAKES:;
#LABELS:0.000=Song Start;
#BGCHANGES:;
#KEYSOUNDS:;
#ATTACKS:
;

//---------------dance-single - ----------------
#NOTEDATA:;
#CHARTNAME:;
#STEPSTYPE:dance-single;
#DESCRIPTION:;
#CHARTSTYLE:;
#DIFFICULTY:Beginner;
#METER:7;
#RADARVALUES:0.289388,0.538616,0.151706,0.223097,0.013386,227.000000,210.000000,17.000000,25.000000,0.000000,0.000000,0.000000,0.000000,0.000000,0.289388,0.538616,0.151706,0.223097,0.013386,227.000000,210.000000,17.000000,25.000000,0.000000,0.000000,0.000000,0.000000,0.000000;
#CREDIT:;
#DISPLAYBPM:*;
#NOTES:
0000
0000
0000
0000
,
0000
0000
0000
0000
,
0000
0000
0000
0000
,
0000
0000
0000
0000
,
0000
0000
2000
0000
,
3200
0000
0320
0000
,
0032
0000
0203
0000
,
0320
0000
2030
0000
,
3001
0000
1001
0010
,
0100
0000
1000
0100
,
0010
0000
1001
0100
,
0010
0000
0001
0010
,
0100
0000
0110
0001
,
1000
0000
1000
0010
,
0100
0000
0110
1000
,
0001
0000
0001
0100
,
0020
0030
1001
1000
,
0001
1000
0001
1000
,
0001
0000
0110
0100
,
0010
0100
0010
0100
,
0010
0000
1001
0001
,
1000
0001
1000
0001
,
1000
0000
0110
0010
,
0100
0010
0100
0010
,
0200
0300
1000
1000
,
0100
0100
0010
0010
,
0001
0001
1000
1000
,
0010
0010
0100
0100
,
0001
0001
1000
1000
,
0100
0100
0001
0001
,
0100
0100
1000
1000
,
0010
0010
0001
0010
,
2000
3000
1100
1000
,
1010
0010
0110
0100
,
0101
0001
1001
0001
,
0011
0010
0110
0100
,
2002
3003
1000
0100
,
0010
0001
1000
0010
,
0100
0000
0001
0000
1000
0100
1000
0000
,
0001
0100
0001
0000
1000
0010
1000
0000
,
0001
0010
0001
0000
2000
0000
0000
0000
,
3200
0000
0320
0000
,
0032
0000
0203
0000
,
0320
0000
2030
0000
,
3002
0000
2003
3200
,
0320
0032
1003
0000
,
2000
3000
0000
0000
0000
0000
0000
0000
0000
0000
0000
0000
0000
0000
0000
0000
0000
0000
0000
0000
0000
0000
0000
0000
0000
0000
0000
0000
0000
0000
0000
0000
1000
0000
0000
0000
0000
0000
0000
0000
0000
0000
0000
0000
0000
0000
0000
0000
0000
0000
0000
0000
0000
0000
0000
0000
0000
0000
0000
0000
0000
0000
0000
0000
,
0000
1000
0000
0000
,
1000
0000
0000
1000
,
0000
0000
0001
0000
,
0000
0001
0000
0000
,
0001
0000
0000
0001
,
0000
0000
0100
0000
,
0000
0100
0000
0000
,
0100
0000
0000
0100
,
0000
0000
0010
0000
,
0000
0010
0000
0000
,
0010
0000
0000
0010
,
0000
0000
1000
0000
,
0000
0100
0000
0000
,
0010
0000
0000
0001
,
0000
0000
1000
0000
,
0000
0010
0000
0000
,
0100
0000
0000
0001
,
0000
0000
1000
0000
,
0000
0100
0000
0000
,
0010
0000
0000
0001
,
0000
0000
1000
0000
,
0000
0010
0000
0000
,
0100
0000
0000
0001
,
0000
0000
0000
0000
1000
0000
0000
0100
,
0000
0000
1000
0000
0000
0100
0000
0000
,
0010
0000
0000
0001
0000
0000
0010
0000
,
0000
0001
0000
0000
1000
0000
0000
0010
,
0000
0000
1000
0000
0000
0010
0000
0000
,
0100
0000
0000
0001
0000
0000
0100
0000
,
0000
0001
0000
0000
1000
0000
0000
0100
,
0000
0000
0010
0000
0000
0001
0000
0000
,
1000
0000
0000
0010
0000
0000
0100
0000
,
0000
0000
0001
0000
0000
0000
0000
0000
1000
0000
0000
0100
0000
0000
1000
0000
,
0000
0000
0100
0000
0000
0100
0000
0000
,
0001
0000
0000
0010
0000
0000
0001
0000
0000
0000
0000
0000
0010
0000
0000
0000
,
0000
0010
0000
0000
1000
0000
0000
0000
,
0000
0000
0000
0000
,
0000
0000
0000
0010
0000
0000
0000
0000
,
0000
0100
0000
0000
,
0000
0000
0000
0000
0000
0000
0000
0000
0000
0000
0000
0000
0000
0000
0000
0000
0000
0000
0000
0000
0000
0000
0000
0000
0000
0000
0000
0000
0000
0000
0000
0000
0000
0000
0000
0000
0000
0000
0000
0000
0000
0000
0000
1001
0000
0000
0000
0000
0000
0000
0000
0000
0000
0000
0000
0000
0000
0000
0000
0000
0000
0000
0000
0000
0000
0000
0000
0000
0000
0000
0000
0000
0000
0000
0000
0000
0000
0000
0000
0000
0000
0000
0000
0000
0000
0000
0000
0000
0000
0000
0000
0000
0000
0000
0000
0000
0000
0000
0000
0000
0000
0000
0000
0000
0000
0000
0000
0000
0000
0000
0000
0000
0000
0000
0000
0000
0000
0000
0000
0000
0000
0000
0000
0000
0000
0000
0000
0000
0000
0000
0000
0000
0000
0000
0000
0000
0000
0000
0000
0000
0000
0000
0000
0000
0000
0000
0000
0000
0000
0000
0000
0000
0000
0000
0000
0000
0000
0000
0000
0000
0000
0000
0000
0000
0000
0000
0000
0000
0000
0000
0000
0000
0000
0000
0000
0000
0000
0000
0000
0000
0000
0000
0000
0000
0000
0000
0000
0000
0000
0000
0000
0000
;

//---------------dance-single - ----------------
#NOTEDATA:;
#CHARTNAME:;
#STEPSTYPE:dance-single;
#DESCRIPTION:;
#CHARTSTYLE:;
#DIFFICULTY:Easy;
#METER:10;
#RADARVALUES:0.461492,0.692506,0.249868,0.232021,0.075853,362.000000,334.000000,28.000000,26.000000,0.000000,0.000000,0.000000,0.000000,0.000000,0.461492,0.692506,0.249868,0.232021,0.075853,362.000000,334.000000,28.000000,26.000000,0.000000,0.000000,0.000000,0.000000,0.000000;
#CREDIT:;
#DISPLAYBPM:*;
#NOTES:
0000
0000
0000
0000
,
0000
0000
0000
0000
,
0000
0000
0000
0000
,
0000
0000
0000
0000
,
0000
0000
2000
0100
,
3200
0010
0320
0001
,
0032
0100
0203
0010
,
0320
1000
2030
0001
,
3001
0000
1001
0100
,
0010
0001
0110
0100
,
0010
0100
0010
0000
1001
0000
0010
0000
,
0100
1000
0110
0010
,
0100
0010
0100
0000
1001
0000
0010
0000
,
0100
0001
0110
0100
,
0010
0100
0010
0000
1001
0000
0100
0000
,
0010
1000
0110
0010
,
0200
0300
1001
0100
,
0010
0000
0001
0000
0100
0010
0100
0010
,
0100
0010
0100
0000
1001
0000
0010
0000
,
0100
0000
1000
0000
0010
0100
0010
0100
,
0010
0100
0010
0000
1001
0000
0010
0000
,
0100
0000
0001
0000
0010
0100
0010
0100
,
0010
0100
0010
0000
1001
0000
0100
0000
,
0010
0000
1000
0000
0100
0010
0100
0010
,
0200
0000
0300
0000
1000
1000
0100
0100
,
0010
0010
0001
0001
1000
1000
0010
0010
,
0100
0100
0001
0001
1000
1000
0100
0100
,
0001
0001
0100
0100
1000
1000
0010
0010
,
0001
0001
0010
0010
1000
1000
0010
0010
,
0100
0100
0001
0001
1000
1000
0100
0100
,
0010
0010
0001
0001
1000
1000
0010
0010
,
0001
0001
0010
0010
1000
1000
0100
0100
,
0002
0003
0200
0300
1001
0000
1001
0000
,
1001
1001
0110
0110
,
0110
0110
1010
1010
,
0101
0101
1100
0011
,
2002
0000
3003
0000
1000
0100
0010
0000
,
0100
0010
0001
0000
0001
0010
0100
0000
,
0010
0100
1000
0000
1000
0010
0100
0000
,
0100
0001
0010
0000
0001
0100
0010
0000
,
0010
1000
0100
0000
2000
0000
0100
0000
,
3200
0010
0320
0001
,
0032
0100
0203
0010
,
0320
1000
2030
0001
,
3002
0000
1000
0000
2003
0100
3200
0010
,
0320
0001
0032
1000
1003
0000
0000
0000
,
2000
3000
0000
0000
0000
0000
0000
0000
0000
0000
0000
0000
0000
0000
0000
0000
0000
0000
0000
0000
0000
0000
0000
0000
0000
0000
0000
0000
0000
0000
0000
0000
1000
0000
0000
0000
0000
0000
0000
0000
0000
0000
0000
0000
0000
0000
0000
0000
0000
0000
0000
0000
0000
0000
0000
0000
1000
0000
0000
0000
0000
0000
0000
0000
,
0000
0000
0100
0000
0000
0100
0000
0000
,
0010
0000
0000
0010
0000
0000
0001
0000
,
0000
0001
0000
0000
1000
0000
0000
1000
,
0000
0000
0010
0000
0000
0010
0000
0000
,
0100
0000
0000
0100
0000
0000
0001
0000
,
0000
0001
0000
0000
1000
0000
0000
1000
,
0000
0000
0100
0000
0000
0100
0000
0000
,
0010
0000
0000
0010
0000
0000
0001
0000
,
0000
0001
0000
0000
1000
0000
0000
1000
,
0000
0000
0010
0000
0000
0010
0000
0000
,
0100
0000
0000
0100
0000
0000
0001
0000
,
0000
0001
0000
0000
1000
0000
0000
1000
,
0000
0000
0100
0000
0000
0100
0000
0000
,
0001
0000
0000
0001
0000
0000
0100
0000
,
0000
0100
0000
0000
1000
0000
0000
1000
,
0000
0000
0010
0000
0000
0010
0000
0000
,
0001
0000
0000
0001
0000
0000
0010
0000
,
0000
0010
0000
0000
1000
0000
0000
1000
,
0000
0000
0100
0000
0000
0100
0000
0000
,
0001
0000
0000
0001
0000
0000
0010
0000
,
0000
0010
0000
0000
1000
0000
0000
1000
,
0000
0000
0010
0000
0000
0010
0000
0000
,
0001
0000
0000
0001
0000
0000
0100
0000
,
0000
0100
0000
0000
1000
0000
0000
0100
,
0000
0000
1000
0000
0000
0100
0000
0000
,
0010
0000
0000
0001
0000
0000
0010
0000
,
0000
0001
0000
0000
1000
0000
0000
0010
,
0000
0000
1000
0000
0000
0010
0000
0000
,
0100
0000
0000
0001
0000
0000
0100
0000
,
0000
0000
0001
0000
0000
0000
0000
0000
1000
0000
0000
0100
0000
0000
1000
0000
,
0000
0100
0000
0000
1000
0000
0000
0100
0000
0000
1000
0000
0000
0100
0000
0000
,
0010
0000
0000
0001
0000
0000
0010
0000
0000
0001
0000
0000
0010
0000
0000
0001
,
0000
0000
0010
0000
0000
0001
0000
0000
1000
0000
0000
0010
0000
0000
1000
0000
,
0000
0010
0000
0000
1000
0000
0000
0010
0000
0000
1000
0000
0000
0010
0000
0000
,
0100
0000
0000
0001
0000
0000
0100
0000
0000
0001
0000
0000
0100
0000
0000
0001
,
0000
0000
0100
0000
0000
0001
0000
0000
1000
0000
0000
0000
0000
0000
0000
0000
,
0000
0000
0000
0000
,
0000
0000
0000
0010
0000
0000
0000
0000
,
0000
0100
0000
0000
,
0000
0000
0000
0000
0000
0000
0000
0000
0000
0000
0000
0000
0000
0000
0000
0000
0000
0000
0000
0000
0000
0000
0000
0000
0000
0000
0000
0000
0000
0000
0000
0000
0000
0000
0000
0000
0000
0000
0000
0000
0000
0000
0000
1001
0000
0000
0000
0000
0000
0000
0000
0000
0000
0000
0000
0000
0000
0000
0000
0000
0000
0000
0000
0000
0000
0000
0000
0000
0000
0000
0000
0000
0000
0000
0000
0000
0000
0000
0000
0000
0000
0000
0000
0000
0000
0000
0000
0000
0000
0000
0000
0000
0000
0000
0000
0000
0000
0000
0000
0000
0000
0000
0000
0000
0000
0000
0000
0000
0000
0000
0000
0000
0000
0000
0000
0000
0000
0000
0000
0000
0000
0000
0000
0000
0000
0000
0000
0000
0000
0000
0000
0000
0000
0000
0000
0000
0000
0000
0000
0000
0000
0000
0000
0000
0000
0000
0000
0000
0000
0000
0000
0000
0000
0000
0000
0000
0000
0000
0000
0000
0000
0000
0000
0000
0000
0000
0000
0000
0000
0000
0000
0000
0000
0000
0000
0000
0000
0000
0000
0000
0000
0000
0000
0000
0000
0000
0000
0000
0000
0000
0000
0000
;

//---------------dance-single - ----------------
#NOTEDATA:;
#CHARTNAME:;
#STEPSTYPE:dance-single;
#DESCRIPTION:;
#CHARTSTYLE:;
#DIFFICULTY:Medium;
#METER:13;
#RADARVALUES:0.680764,1.038759,0.214173,0.223097,0.597899,534.000000,510.000000,24.000000,25.000000,0.000000,0.000000,0.000000,0.000000,0.000000,0.680764,1.038759,0.214173,0.223097,0.597899,534.000000,510.000000,24.000000,25.000000,0.000000,0.000000,0.000000,0.000000,0.000000;
#CREDIT:;
#DISPLAYBPM:*;
#NOTES:
0000
0000
0000
0000
,
0000
0000
0000
0000
,
0000
0000
0000
0000
,
0000
0000
0000
0000
,
0000
0000
0000
0000
2000
0100
0100
0100
,
3200
0010
0010
0010
0320
0001
0001
0001
,
0032
0100
0100
0100
0203
0010
0010
0010
,
0320
1000
1000
1000
2030
0001
0001
0001
,
3001
0000
0000
0000
0000
0000
0000
0000
1000
0100
0010
0001
1000
0000
0001
0000
,
1001
0100
0010
0001
0100
0100
0100
0100
,
0010
0000
0010
0000
0010
0000
0010
0000
0001
0010
0100
1000
0001
0000
1000
0000
,
1001
0010
0100
1000
0010
0010
0010
0010
,
0100
0000
0100
0000
0100
0000
0100
0000
1000
0010
0100
0001
0010
0000
0100
0000
,
0110
1000
0100
0001
0010
0010
0010
0010
,
0100
0000
0100
0000
0100
0000
0100
0000
0001
0100
0010
1000
0100
0000
0010
0000
,
0110
0001
0010
1000
0100
0100
0100
0100
,
0020
0000
0000
0000
0000
0000
0030
0000
1000
0100
0010
0100
1000
0000
0100
0000
,
1100
0100
0010
0001
0100
0100
0100
0100
,
0010
0000
0010
0000
0010
0000
0010
0000
0001
0010
0100
0010
0001
0000
0010
0000
,
0011
0010
0100
1000
0010
0010
0010
0010
,
0100
0000
0100
0000
0100
0000
0100
0000
1000
0010
0100
0010
1000
0000
0010
0000
,
1010
0100
0010
0001
0010
0010
0010
0010
,
0100
0000
0100
0000
0100
0000
0100
0000
0001
0100
0010
0100
0001
0000
0100
0000
,
0101
0010
0100
1000
0100
0100
0100
0100
,
0020
0000
0000
0000
0000
0000
0030
0000
1000
0100
1000
0000
0001
0100
0001
0000
,
1000
0010
1000
0000
0001
0010
0001
0000
0100
1000
0100
0000
0100
0001
0100
0000
,
0010
1000
0010
0000
0010
0001
0010
0000
0100
0010
0100
0000
1000
0001
1000
0000
,
0010
0100
0010
0000
0001
1000
0001
0000
1000
0100
1000
0000
0001
0100
0001
0000
,
1000
0010
1000
0000
0001
0010
0001
0000
1000
0100
0010
0000
0100
0010
0001
0000
,
0001
0010
0100
0000
0010
0100
1000
0000
1000
0010
0100
0000
0100
0001
0010
0000
,
0001
0100
0010
0000
0010
1000
0100
0000
1000
0100
0001
0000
1000
0010
0001
0000
,
0001
0010
1000
0000
0001
0100
1000
0000
1000
0100
0010
0001
0010
0100
1000
0000
,
0002
0003
1100
1100
,
0011
0011
1010
1010
,
0101
0101
0110
0110
,
1001
1001
0011
0110
,
2002
0000
3003
0000
1000
0100
0010
0001
,
0001
0010
0100
1000
1000
0010
0100
0001
,
0001
0000
0100
0000
0010
0000
1000
0000
1000
0001
1000
0000
0001
0000
0001
0000
,
0100
0010
0100
0000
0010
0000
0010
0000
1000
0100
1000
0100
1000
0100
1000
0100
,
0010
0001
0010
0001
0010
0001
0010
0001
2000
0100
0000
0100
0000
0100
0000
0000
,
3200
0010
0000
0010
0000
0010
0000
0000
0320
0001
0000
0001
0000
0001
0000
0000
,
0032
0100
0000
0100
0000
0100
0000
0000
0203
0010
0000
0010
0000
0010
0000
0000
,
0320
1000
0000
1000
0000
1000
0000
0000
2030
0001
0000
0001
0000
0001
0000
0000
,
3002
1000
0000
1000
0000
1000
0000
0000
2003
0000
0100
0000
3200
0000
0010
0000
,
0320
0001
0032
1000
1003
0000
0000
0000
,
2000
3000
0000
0000
0000
0000
0000
0000
0000
0000
0000
0000
0000
0000
0000
0000
0000
0000
0000
0000
0000
0000
0000
0000
0000
0000
0000
0000
0000
0000
0000
0000
0001
0000
0000
0000
0000
0000
0000
0000
0000
0000
0000
0000
0000
0000
0000
0000
0000
0000
0000
0000
0000
0000
0000
0000
0001
0000
0000
0000
0000
0000
0000
0000
,
0000
0000
1000
0000
0000
1000
0000
0000
,
0010
0000
0000
0010
0000
0000
0100
0000
,
0000
0100
0000
0000
1000
0000
0000
1000
,
0000
0000
0001
0000
0000
0001
0000
0000
,
0100
0000
0000
0100
0000
0000
0010
0000
,
0000
0010
0000
0000
1000
0000
0000
1000
,
0000
0000
0100
0000
0000
0100
0000
0000
,
0010
0000
0000
0010
0000
0000
0001
0000
,
0000
0001
0000
0000
1000
0000
0000
1000
,
0000
0000
0010
0000
0000
0010
0000
0000
,
0100
0000
0000
0100
0000
0000
0001
0000
,
0000
0001
0000
0000
1000
0000
0000
0100
,
0000
0000
0010
0000
0000
0001
0000
0000
,
1000
0000
0000
0010
0000
0000
0100
0000
,
0000
0001
0000
0000
1000
0000
0000
0100
,
0000
0000
0010
0000
0000
0100
0000
0000
,
1000
0000
0000
0010
0000
0000
0100
0000
,
0000
0010
0000
0000
1000
0000
0000
0100
,
0000
0000
0001
0000
0000
0100
0000
0000
,
1000
0000
0000
0010
0000
0000
0001
0000
,
0000
0010
0000
0000
1000
0000
0000
0100
,
0000
0000
0001
0000
0000
0010
0000
0000
,
1000
0000
0000
0010
0000
0000
0001
0000
,
0000
0000
0100
0000
0000
0000
0000
0000
1000
0000
0000
0100
0000
0000
1000
0000
,
0000
0100
0000
0000
0010
0000
0000
0001
0000
0000
0010
0000
0000
0001
0000
0000
,
1000
0000
0000
0010
0000
0000
1000
0000
0000
0010
0000
0000
0100
0000
0000
0001
,
0000
0000
0100
0000
0000
0001
0000
0000
1000
0000
0000
0100
0000
0000
0010
0000
,
0000
0001
0000
0000
1000
0000
0000
0010
0000
0000
0100
0000
0000
0001
0000
0000
,
1000
0000
0000
0100
0000
0000
0010
0000
0000
0001
0000
0000
1000
0000
0000
0010
,
0000
0000
0000
0000
0100
0000
0000
0000
0000
0000
0001
0000
0000
0000
0000
0000
1000
0000
0000
0100
0000
0000
1000
0000
0000
0000
0000
0000
0001
0000
0000
0100
,
0000
0000
0001
0000
0000
0000
0000
0000
1000
0000
0000
0010
0000
0000
1000
0000
0000
0000
0000
0000
0001
0000
0000
0010
0000
0000
0001
0000
0000
0000
0000
0000
,
1000
0000
0000
0100
0000
0000
1000
0000
0000
0000
0000
0000
0001
0000
0000
0100
0000
0000
0001
0000
0000
0000
0000
0000
1000
0000
0000
0010
0000
0000
1000
0000
,
0000
0000
0000
0000
0001
0000
0000
0010
0000
0000
0001
0000
0000
0000
0000
0000
1000
0000
0000
0100
0000
0000
1000
0000
0000
0100
0000
0000
1000
0000
0000
0000
,
0000
0000
0001
0000
0000
0010
0000
0000
0001
0000
0000
0010
0000
0000
0001
0000
0000
0000
0000
0000
1000
0000
0000
0010
0000
0000
1000
0000
0000
0010
0000
0000
,
1000
0000
0000
0000
0000
0000
0001
0000
0000
0100
0000
0000
0001
0000
0000
0100
0000
0000
0001
0000
0000
0000
0000
0000
1000
0000
0000
0001
0000
0000
1000
0000
,
0000
0001
0000
0000
1000
0000
0000
0001
0000
0000
1000
0000
0000
0001
0000
0000
1000
0000
0000
0000
0000
0000
0000
0000
0000
0000
0000
0000
0000
0000
0000
0000
,
0000
0000
0000
0000
,
0000
0000
0000
0100
0000
0000
0000
0000
,
0000
0010
0000
0000
,
0000
0000
0000
0000
0000
0000
0000
0000
0000
0000
0000
0000
0000
0000
0000
0000
0000
0000
0000
0000
0000
0000
0000
0000
0000
0000
0000
0000
0000
0000
0000
0000
0000
0000
0000
0000
0000
0000
0000
0000
0000
0000
0000
1001
0000
0000
0000
0000
0000
0000
0000
0000
0000
0000
0000
0000
0000
0000
0000
0000
0000
0000
0000
0000
0000
0000
0000
0000
0000
0000
0000
0000
0000
0000
0000
0000
0000
0000
0000
0000
0000
0000
0000
0000
0000
0000
0000
0000
0000
0000
0000
0000
0000
0000
0000
0000
0000
0000
0000
0000
0000
0000
0000
0000
0000
0000
0000
0000
0000
0000
0000
0000
0000
0000
0000
0000
0000
0000
0000
0000
0000
0000
0000
0000
0000
0000
0000
0000
0000
0000
0000
0000
0000
0000
0000
0000
0000
0000
0000
0000
0000
0000
0000
0000
0000
0000
0000
0000
0000
0000
0000
0000
0000
0000
0000
0000
0000
0000
0000
0000
0000
0000
0000
0000
0000
0000
0000
0000
0000
0000
0000
0000
0000
0000
0000
0000
0000
0000
0000
0000
0000
0000
0000
0000
0000
0000
0000
0000
0000
0000
0000
0000
;

//---------------dance-single - ----------------
#NOTEDATA:;
#CHARTNAME:;
#STEPSTYPE:dance-single;
#DESCRIPTION:;
#CHARTSTYLE:;
#DIFFICULTY:Hard;
#METER:15;
#RADARVALUES:1.049192,1.769738,0.856692,0.330183,1.561677,823.000000,727.000000,96.000000,37.000000,0.000000,0.000000,0.000000,0.000000,0.000000,1.049192,1.769738,0.856692,0.330183,1.561677,823.000000,727.000000,96.000000,37.000000,0.000000,0.000000,0.000000,0.000000,0.000000;
#CREDIT:;
#DISPLAYBPM:*;
#NOTES:
0000
0000
0000
0000
,
0000
0000
0000
0000
,
0000
0000
0000
0000
,
0000
0000
0000
0000
,
0000
0000
0000
0000
0000
0000
0000
0000
1001
0100
0011
0000
0000
0100
0000
0100
,
1001
0010
1100
0000
0000
0010
0000
0010
1001
0100
1010
0000
0000
0100
0000
0100
,
1001
0010
0101
0000
0000
0010
0000
0010
1100
0001
0110
0000
0000
0001
0000
0100
,
0011
1000
0110
0000
0000
1000
0000
0010
0101
1000
0110
0000
0000
1000
0000
0100
,
1010
0001
0110
0000
0000
0001
0000
0001
1000
0100
0010
0001
1000
0010
0100
0001
,
1000
0100
0001
0100
1000
0000
1001
0000
0001
0010
0100
1000
0001
0100
0010
1000
,
0001
0010
1000
0010
0001
0000
1001
0000
1000
0010
0100
0001
1000
0100
0010
0001
,
1000
0010
0001
0010
1000
0000
1001
0000
0001
0100
0010
1000
0001
0010
0100
1000
,
0001
0100
1000
0100
0001
0000
1001
0000
1000
0100
0010
0100
1000
0010
0100
0010
,
1000
0100
0001
0100
1000
0000
0110
0000
0001
0010
0100
0010
0001
0100
0010
0100
,
0001
0010
1000
0010
0001
0000
0110
0000
1000
0100
0010
0001
1000
0100
0010
0001
,
1000
0010
0100
0001
1000
0010
0100
0001
1000
0100
0001
0100
1000
0001
0100
1000
,
0100
0002
0000
0000
0000
0000
0003
0000
1001
0100
0010
0000
1100
0000
0011
0000
,
1001
0000
1000
0100
0001
0010
1000
0001
1001
0010
0100
0000
0011
0000
1100
0000
,
1001
0000
0001
0010
1000
0100
0001
1000
1001
0010
0100
0000
1010
0000
0101
0000
,
0110
0000
1000
0010
0001
0100
1000
0001
1001
0100
0010
0000
0101
0000
1010
0000
,
0110
0001
0010
0100
1000
0000
0000
0000
1000
0100
0010
0100
1000
0000
1001
0000
,
0001
0010
0100
1000
0100
0010
0001
0000
0001
0100
0010
0100
0001
0000
1001
0000
,
1000
0010
0100
0001
0100
0010
1000
0000
1000
0010
0100
0010
1000
0000
1001
0000
,
0001
0100
0010
1000
0010
0100
0001
0000
0001
0010
0100
0010
0001
0000
1001
0000
,
1000
0100
0010
0001
1000
0000
0000
0000
1100
0100
1000
0000
0011
0010
0001
0000
,
1010
0010
1000
0000
0101
0100
0001
0000
1100
1000
0100
0000
0011
0001
0010
0000
,
1010
1000
0010
0000
0101
0001
0100
0000
0110
0010
0100
0000
1001
0001
1000
0000
,
0110
0100
0010
0000
1001
1000
0001
0000
1100
0100
1000
0000
0101
0001
0100
0000
,
0011
0010
0001
0000
1010
1000
0010
0000
0011
0001
0010
0000
0101
0100
0001
0000
,
1100
1000
0100
0000
1010
0010
1000
0000
0110
0010
0100
0000
1001
1000
0001
0000
,
0110
0100
0010
0000
1001
0001
1000
0000
1100
0010
0001
0000
0011
0100
1000
0000
,
1010
0100
0001
0000
0101
0010
1000
0000
1000
0100
0001
0010
1000
0010
0001
0100
,
2000
0000
0000
0000
3000
0000
0000
0000
2200
3300
0000
0000
0022
0033
0000
0000
,
2020
3030
0000
0000
0202
0303
0010
0010
1000
0000
0000
0000
0220
0330
0000
0000
,
2002
3003
0010
0010
0000
0100
0100
0000
2020
3030
0000
0000
0022
0033
0000
0000
,
2200
3300
0000
0000
0202
0303
1000
0001
2002
3003
0000
0000
0220
0330
0000
0000
,
2002
0000
0000
0000
3003
0000
0000
0000
1000
0100
1000
0000
0001
0100
0001
0000
,
1000
0010
1000
0000
0001
0010
0001
0000
1000
0100
0010
0000
0100
0010
0001
0000
,
0001
0010
0100
0000
0010
0100
1000
0000
0001
0010
0100
1000
0010
0100
0010
0000
,
1000
0100
0010
0001
0100
0010
0100
0000
1000
0100
0010
0001
1000
0010
0100
0001
,
1000
0100
0001
0100
1000
0010
0001
0010
2000
0100
0010
0001
0000
0010
0000
3001
,
1200
0001
0010
1000
0000
0010
0000
1300
0120
0100
0001
1000
0000
0100
0000
1030
,
0012
0010
0100
1000
0000
1000
0100
0003
1002
0100
0010
0100
0000
0010
0000
0013
,
0201
0010
1000
0010
0000
0001
0000
0301
0120
1000
0100
0001
0000
0100
0000
0130
,
2010
0000
0100
0000
0010
0000
0001
0000
0000
0000
0010
0000
0000
0000
3001
0000
1001
0100
0100
0100
0000
0100
0000
0100
1001
0010
0010
0010
0000
0010
0000
0010
,
1001
1000
1000
1000
0000
1000
0000
1000
1001
0001
0001
0001
0000
0001
0000
0001
1001
1000
0100
0000
0000
0010
0000
0001
1000
0000
0000
0100
0000
0010
0000
0001
,
2000
3000
0000
0000
0000
0000
0000
0000
0000
0000
0000
0000
0000
0000
0000
0000
0000
0000
0000
0000
0000
0000
0000
0000
0000
0000
0000
0000
0000
0000
0000
0000
0001
0000
0000
0000
0000
0000
0000
0000
0000
0000
0000
0000
0010
0000
0000
0000
0000
0000
0000
0000
0000
0000
0000
0000
0100
0000
0000
0000
0000
0000
0000
0000
,
0000
1000
0000
0000
0001
0000
0000
0010
0000
0000
0100
0000
0000
1000
0000
0000
,
0001
0000
0000
0100
0000
0000
0010
0000
0000
1000
0000
0000
0001
0000
0000
0100
,
0000
0000
0010
0000
0000
1000
0000
0000
0001
0000
0000
0010
0000
0000
0100
0000
,
0000
0010
0000
0000
0001
0000
0000
0100
0000
0000
0010
0000
0000
0100
0000
0000
,
0001
0000
0000
0010
0000
0000
1000
0000
0000
0010
0000
0000
0001
0000
0000
0100
,
0000
0000
1000
0000
0000
0100
0000
0000
0001
0000
0000
0010
0000
0000
1000
0000
,
0000
0100
0000
0000
0001
0000
0000
0100
0000
0000
1000
0000
0000
0010
0000
0000
,
0001
0000
0000
0010
0000
0000
0100
0000
0000
1000
0000
0000
0001
0000
0000
0100
,
0000
0000
0010
0000
0000
1000
0000
0000
0001
0000
0000
0010
0000
0000
0100
0000
,
0000
0010
0000
0000
0001
0000
0000
0100
0000
0000
0010
0000
0000
0100
0000
0000
,
0001
0000
0000
0010
0000
0000
1000
0000
0000
0010
0000
0000
0001
0000
0000
0010
,
0000
0000
0000
0000
0100
0000
0000
0000
0000
0000
1000
0000
0000
0000
0000
0000
1000
0000
0000
0100
0000
0000
0010
0000
0000
0000
0000
0000
0001
0000
0000
0000
,
0000
0001
0000
0000
1000
0000
0000
0010
0000
0000
0100
0000
0000
0001
0000
0000
,
1000
0000
0000
0100
0000
0000
0001
0000
0000
0100
0000
0000
1000
0000
0000
0010
,
0000
0000
0001
0000
0000
0010
0000
0000
1000
0000
0000
0100
0000
0000
0001
0000
,
0000
0010
0000
0000
1000
0000
0000
0010
0000
0000
0001
0000
0000
0100
0000
0000
,
1000
0000
0000
0100
0000
0000
0010
0000
0000
1000
0000
0000
0100
0000
0000
0001
,
0000
0000
1000
0000
0000
0010
0000
0000
0001
0000
0000
0100
0000
0000
0010
0000
,
0000
0001
0000
0000
1000
0000
0000
0001
0000
0000
0010
0000
0000
0100
0000
0000
,
0001
0000
0000
0010
0000
0000
1000
0000
0000
0001
0000
0000
0100
0000
0000
1000
,
0000
0000
0010
0000
0000
0100
0000
0000
1000
0000
0000
0100
0000
0000
1000
0000
,
0000
0100
0000
0000
0010
0000
0000
0001
0000
0000
0010
0000
0000
0001
0000
0000
,
1000
0000
0000
0010
0000
0000
1000
0000
0000
0010
0000
0000
0100
0000
0000
0001
,
0000
0000
0000
0000
0100
0000
0000
0000
0000
0000
0001
0000
0000
0000
0000
0000
1000
0000
0000
0100
0000
0000
1000
0000
0000
0000
0000
0000
0100
0000
0000
0000
,
0000
0010
0000
0000
0001
0000
0000
0100
0000
0000
0010
0000
0000
1000
0000
0000
,
0001
0000
0000
0010
0000
0000
0001
0000
0000
0000
0000
0000
0010
0000
0000
0000
0000
0000
0100
0000
0000
0000
0000
0000
1000
0000
0000
0000
0000
0000
0010
0000
,
0000
0000
0000
0000
0100
0000
0000
0000
0000
0000
0001
0000
0000
0000
0000
0000
1000
0000
0000
0010
0000
0000
1000
0000
0000
0000
0000
0000
0010
0000
0000
0000
,
0000
0100
0000
0000
0001
0000
0000
0010
0000
0000
0100
0000
0000
1000
0000
0000
,
0001
0000
0000
0100
0000
0000
0001
0000
0000
0000
0000
0000
0100
0000
0000
0000
0000
0000
0010
0000
0000
0000
0000
0000
1000
0000
0000
0000
0000
0000
0100
0000
,
0000
0000
0000
0000
0010
0000
0000
0000
0000
0000
0001
0000
0000
0000
0000
0000
1000
0000
0000
0100
0000
0000
1000
0000
0000
0000
0000
0000
0001
0000
0000
0100
,
0000
0000
0001
0000
0000
0000
0000
0000
1000
0000
0000
0010
0000
0000
1000
0000
0000
0000
0000
0000
0001
0000
0000
0010
0000
0000
0001
0000
0000
0000
0000
0000
,
1000
0000
0000
0100
0000
0000
0010
0000
0000
0000
0000
0000
0100
0000
0000
0010
0000
0000
0001
0000
0000
0000
0000
0000
0001
0000
0000
0010
0000
0000
0100
0000
,
0000
0000
0000
0000
0010
0000
0000
0100
0000
0000
1000
0000
0000
0000
0000
0000
1000
0000
0000
0100
0000
0000
1000
0000
0000
0100
0000
0000
0010
0000
0000
0001
,
0000
0000
0010
0000
0000
0001
0000
0000
1000
0000
0000
0010
0000
0000
1000
0000
0000
0010
0000
0000
0100
0000
0000
0001
0000
0000
0100
0000
0000
0001
0000
0000
,
1000
0000
0000
0100
0000
0000
0010
0000
0000
0001
0000
0000
1000
0000
0000
0100
0000
0000
0010
0000
0000
0001
0000
0000
1000
0000
0000
0010
0000
0000
0100
0000
,
0000
0001
0000
0000
1000
0000
0000
0010
0000
0000
0100
0000
0000
0001
0000
0000
0010
0000
0000
0000
0000
0000
0010
0000
0000
0000
0000
0000
0010
0000
0000
0000
,
0000
0010
0000
0010
0010
0000
0000
0000
,
0000
0000
0000
0100
0000
0000
0000
0000
,
0000
0100
0000
0000
,
0000
0000
0000
0000
0000
0000
0000
0000
0000
0000
0000
0000
0000
0000
0000
0000
0000
0000
0000
0000
0000
0000
0000
0000
0000
0000
0000
0000
0000
0000
0000
0000
0000
0000
0000
0000
0000
0000
0000
0000
0000
0000
0000
1001
0000
0000
0000
0000
0000
0000
0000
0000
0000
0000
0000
0000
0000
0000
0000
0000
0000
0000
0000
0000
0000
0000
0000
0000
0000
0000
0000
0000
0000
0000
0000
0000
0000
0000
0000
0000
0000
0000
0000
0000
0000
0000
0000
0000
0000
0000
0000
0000
0000
0000
0000
0000
0000
0000
0000
0000
0000
0000
0000
0000
0000
0000
0000
0000
0000
0000
0000
0000
0000
0000
0000
0000
0000
0000
0000
0000
0000
0000
0000
0000
0000
0000
0000
0000
0000
0000
0000
0000
0000
0000
0000
0000
0000
0000
0000
0000
0000
0000
0000
0000
0000
0000
0000
0000
0000
0000
0000
0000
0000
0000
0000
0000
0000
0000
0000
0000
0000
0000
0000
0000
0000
0000
0000
0000
0000
0000
0000
0000
0000
0000
0000
0000
0000
0000
0000
0000
0000
0000
0000
0000
0000
0000
0000
0000
0000
0000
0000
0000
;

//---------------dance-single - ----------------
#NOTEDATA:;
#CHARTNAME:;
#STEPSTYPE:dance-single;
#DESCRIPTION:;
#CHARTSTYLE:;
#DIFFICULTY:Challenge;
#METER:17;
#RADARVALUES:0.931907,1.308068,0.580052,0.249868,1.459053,731.000000,666.000000,65.000000,28.000000,0.000000,0.000000,0.000000,0.000000,0.000000,0.931907,1.308068,0.580052,0.249868,1.459053,731.000000,666.000000,65.000000,28.000000,0.000000,0.000000,0.000000,0.000000,0.000000;
#CREDIT:;
#DISPLAYBPM:*;
#NOTES:
// measure 0
0000
0000
0000
0000
,  // measure 1
0000
0000
0000
0000
,  // measure 2
0000
0000
0000
0000
,  // measure 3
0000
0000
0000
0000
,  // measure 4
0000
0000
0000
0000
2000
0000
0000
3000
,  // measure 5
0020
0000
0000
0030
0200
0000
0000
0300
,  // measure 6
0002
0000
0000
0003
2000
0000
0000
3000
,  // measure 7
0200
0000
0000
0300
0020
0000
0000
0030
,  // measure 8
0002
0000
0000
0000
0000
0000
0003
0000
1000
0100
0001
0100
1000
0000
0010
0000
,  // measure 9
1001
0000
0010
0100
1000
0000
0000
0000
0001
0010
1000
0010
0001
0000
0100
0000
,  // measure 10
1001
0000
0100
0010
0001
0000
0000
0000
1000
0010
0001
0010
1000
0000
0100
0000
,  // measure 11
1001
0000
0100
0010
1000
0000
0000
0000
0001
0100
1000
0100
0001
0000
0010
0000
,  // measure 12
1001
0000
0010
0100
0001
0000
0000
0000
1000
0100
0010
0100
1000
0000
0100
0000
,  // measure 13
0110
0000
0010
0001
0100
0000
0000
0000
0110
0000
0100
1000
0010
0000
1000
0000
,  // measure 14
0001
0010
0100
1000
0010
0000
0000
0000
0001
0010
0100
0010
0001
0000
0010
0000
,  // measure 15
0110
0000
0100
1000
0010
0000
0000
0000
0110
0000
0010
0001
0100
0000
0001
0000
,  // measure 16
2002
0000
0000
0000
3003
0000
0000
0000
1000
0010
0100
0010
1000
0000
0010
0000
,  // measure 17
0101
0000
0100
0001
0010
0000
0000
0000
0010
1000
0010
1000
0100
0000
1000
0000
,  // measure 18
0001
0100
0010
1000
0100
0000
0000
0000
0001
0100
0010
0100
0001
0000
0100
0000
,  // measure 19
1010
0000
0010
1000
0100
0000
0000
0000
0100
0001
0100
0001
0010
0000
0001
0000
,  // measure 20
1000
0010
0100
0001
0010
0000
0000
0000
1000
0100
0010
0100
0001
0000
0100
0000
,  // measure 21
0001
0010
0100
1000
0010
0000
0000
0000
0001
0010
0100
0000
1000
0010
0100
0000
,  // measure 22
0001
0100
0010
0000
1000
0100
0010
0000
0001
0010
0100
0010
1000
0000
0010
0000
,  // measure 23
1000
0100
0010
0001
0100
0000
0000
0000
1000
0000
0010
0000
0001
0000
0100
0000
,  // measure 24
2002
0000
0000
0000
3003
0000
0000
0000
1000
0100
0011
0000
1000
0010
0101
0000
,  // measure 25
1000
0100
0011
0000
1000
0010
0101
0000
1000
0100
0011
0000
1000
0010
0101
0000
,  // measure 26
1000
0010
1001
0000
1000
0100
0110
0000
1000
0010
1001
0000
1000
0100
0110
0000
,  // measure 27
1000
0010
0110
0000
1000
0100
1001
0000
1000
0010
0110
0000
1000
0100
1001
0000
,  // measure 28
1000
0100
0010
0001
0010
0100
1000
0000
0001
0010
1100
0000
0001
0100
1010
0000
,  // measure 29
0001
0010
1100
0000
0001
0100
1010
0000
0001
0010
1001
0000
0001
0100
0110
0000
,  // measure 30
0001
0010
1001
0000
0001
0100
0110
0000
0001
0010
0110
0000
0001
0100
1001
0000
,  // measure 31
0001
0010
0110
0000
0001
0100
1001
0000
1000
0010
0100
0001
0100
0010
1000
0000
,  // measure 32
0002
0003
1001
1010
,  // measure 33
0101
0000
0000
0000
0110
0000
0010
0010
0011
0000
0000
0000
1100
0000
0000
0000
,  // measure 34
0110
0000
0001
0001
0000
0010
0010
0000
1001
0000
0000
0000
0101
0000
0000
0000
,  // measure 35
1001
0000
0000
0000
1100
0000
0001
0001
1001
0000
0000
0000
0110
0000
0000
0000
,  // measure 36
2002
0000
0000
0000
3003
0000
0000
0000
1010
0000
0100
0000
0011
0001
0010
0000
,  // measure 37
0101
0000
0010
0000
1100
1000
0100
0000
1010
0000
0001
0000
0110
0010
0100
0000
,  // measure 38
0011
0000
0100
0000
1010
1000
0010
0000
1100
0000
0010
0000
0101
0001
0100
0000
,  // measure 39
1010
0000
0100
0000
1001
1000
0001
0000
1000
0100
0001
0100
1000
0010
0001
0010
,  // measure 40
1000
0100
0001
0100
1000
0010
0001
0010
2000
0000
0000
0000
0000
0000
0000
0000
,  // measure 41
3200
0000
0320
0000
,  // measure 42
0032
0000
0203
0000
,  // measure 43
0320
0000
2030
0000
,  // measure 44
3002
0000
0203
2300
,  // measure 45
3200
0320
0031
0000
,  // measure 46
2000
3000
0000
0000
0000
0000
0000
0000
0000
0000
0000
0000
0000
0000
0000
0000
0000
0000
0000
0000
0000
0000
0000
0000
0000
0000
0000
0000
0000
0000
0000
0000
0001
0000
0000
0000
0000
0000
0010
0000
0000
0000
0000
0000
0100
0000
0000
0000
0000
0000
0000
0000
0000
0000
0000
0000
1000
0000
0000
0000
0000
0000
0100
0000
,  // measure 47
0000
0000
0010
0000
0000
0000
0000
0000
0001
0000
0000
0100
0000
0000
0010
0000
0000
0000
0000
0000
1000
0000
0000
0010
0000
0000
0100
0000
0000
0000
0000
0000
,  // measure 48
0001
0000
0000
0100
0000
0000
1000
0000
0000
0000
0000
0000
0010
0000
0000
0001
0000
0000
0010
0000
0000
0000
0000
0000
1000
0000
0000
0100
0000
0000
0001
0000
,  // measure 49
0000
0000
0000
0000
0010
0000
0000
1000
0000
0000
0010
0000
0000
0000
0000
0000
0001
0000
0000
0100
0000
0000
0010
0000
0000
0000
0000
0000
1000
0000
0000
0010
,  // measure 50
0000
0000
0100
0000
0000
0000
0000
0000
0001
0000
0000
0010
0000
0000
0100
0000
0000
0000
0000
0000
1000
0000
0000
0100
0000
0000
0010
0000
0000
0000
0000
0000
,  // measure 51
0001
0000
0000
0010
0000
0000
1000
0000
0000
0000
0000
0000
0100
0000
0000
0001
0000
0000
0100
0000
0000
0000
0000
0000
1000
0000
0000
0010
0000
0000
0001
0000
,  // measure 52
0000
0000
0000
0000
0100
0000
0000
1000
0000
0000
0100
0000
0000
0000
0000
0000
0001
0000
0000
0010
0000
0000
0100
0000
0000
0000
0000
0000
0010
0000
0000
0001
,  // measure 53
0000
0000
0010
0000
0000
0000
0000
0000
0001
0000
0000
0100
0000
0000
0010
0000
0000
0000
0000
0000
0100
0000
0000
0001
0000
0000
0010
0000
0000
0000
0000
0000
,  // measure 54
0001
0000
0000
0010
0000
0000
0100
0000
0000
0000
0000
0000
0001
0000
0000
0010
0000
0000
1000
0000
0000
0000
0000
0000
0001
0000
0000
0100
0000
0000
1000
0000
,  // measure 55
0000
0000
0000
0000
0010
0000
0000
0100
0000
0000
1000
0000
0000
0000
0000
0000
1000
0000
0000
0100
0000
0000
0010
0000
0000
0000
0000
0000
0001
0000
0000
0010
,  // measure 56
0000
0000
0100
0000
0000
0000
0000
0000
1000
0000
0000
0010
0000
0000
0100
0000
0000
0000
0000
0000
0001
0000
0000
0100
0000
0000
0010
0000
0000
0000
0000
0000
,  // measure 57
1000
0000
0000
0100
0000
0000
0010
0000
0000
0000
0000
0000
1000
0000
0000
0100
0000
0000
0001
0000
0000
0000
0000
0000
1000
0000
0000
0010
0000
0000
0001
0000
,  // measure 58
0000
0000
0000
0000
0100
0000
0000
0010
0000
0000
0001
0000
0000
0000
0000
0000
0001
0000
0000
0010
0000
0000
1000
0000
0000
0010
0000
0000
0001
0000
0000
0000
,  // measure 59
0000
0000
0100
0000
0000
1000
0000
0000
0100
0000
0000
0001
0000
0000
0010
0000
0000
0000
0000
0000
1000
0000
0000
0010
0000
0000
0001
0000
0000
0100
0000
0000
,  // measure 60
0001
0000
0000
0000
0000
0000
0010
0000
0000
0100
0000
0000
0001
0000
0000
0010
0000
0000
1000
0000
0000
0000
0000
0000
0001
0000
0000
0100
0000
0000
1000
0000
,  // measure 61
0000
0010
0000
0000
0100
0000
0000
0000
0000
0000
1000
0000
0000
0001
0000
0000
1000
0000
0000
0100
0000
0000
0001
0000
0000
0000
0000
0000
0100
0000
0000
1000
,  // measure 62
0000
0000
0010
0000
0000
0001
0000
0000
0010
0000
0000
0000
0000
0000
1000
0000
0000
0100
0000
0000
0001
0000
0000
0100
0000
0000
1000
0000
0000
0000
0000
0000
,  // measure 63
1000
0000
0000
0100
0000
0000
0010
0000
0000
1000
0000
0000
0100
0000
0000
0000
0000
0000
0001
0000
0000
1000
0000
0000
0100
0000
0000
0001
0000
0000
0100
0000
,  // measure 64
0000
0000
0000
0000
0010
0000
0000
0001
0000
0000
0100
0000
0000
0010
0000
0000
0001
0000
0000
0000
0000
0000
0100
0000
0000
1000
0000
0000
0100
0000
0000
0001
,  // measure 65
0000
0000
0010
0000
0000
0000
0000
0000
1000
0000
0000
0010
0000
0000
0001
0000
0000
0100
0000
0000
1000
0000
0000
0000
0000
0000
0100
0000
0000
0010
0000
0000
,  // measure 66
0001
0000
0000
0010
0000
0000
0100
0000
0000
0000
0000
0000
0001
0000
0000
0010
0000
0000
1000
0000
0000
0001
0000
0000
0100
0000
0000
0000
0000
0000
1000
0000
,  // measure 67
0000
0010
0000
0000
0100
0000
0000
1000
0000
0000
0001
0000
0000
0000
0000
0000
1000
0000
0000
0010
0000
0000
0001
0000
0000
0010
0000
0000
1000
0000
0000
0000
,  // measure 68
0000
0000
0100
0000
0000
0001
0000
0000
0100
0000
0000
1000
0000
0000
0010
0000
0000
0000
0000
0000
0001
0000
0000
0010
0000
0000
1000
0000
0000
0100
0000
0000
,  // measure 69
1000
0000
0000
0000
0000
0000
0100
0000
0000
0001
0000
0000
0010
0000
0000
1000
0000
0000
0100
0000
0000
0000
0000
0000
0001
0000
0000
0010
0000
0000
1000
0000
,  // measure 70
0000
0100
0000
0000
0001
0000
0000
0000
0000
0000
0010
0000
0000
0000
0000
0000
1000
0000
0000
0100
0000
0000
1000
0000
0000
0100
0000
0000
0001
0000
0000
0100
,  // measure 71
0000
0000
0001
0000
0000
0000
0000
0000
1000
0000
0000
0010
0000
0000
1000
0000
0000
0010
0000
0000
0001
0000
0000
0010
0000
0000
0001
0000
0000
0000
0000
0000
,  // measure 72
1000
0000
0000
0100
0000
0000
0010
0000
0000
0001
0000
0000
0010
0000
0000
0100
0000
0000
1000
0000
0000
0000
0000
0000
1000
0000
0000
0010
0000
0000
0100
0000
,  // measure 73
0000
0001
0000
0000
0100
0000
0000
0010
0000
0000
1000
0000
0000
0000
0000
0000
1000
0000
0000
0010
0000
0000
1000
0000
0000
0010
0000
0000
0001
0000
0000
0010
,  // measure 74
0000
0000
0001
0000
0000
0000
0000
0000
1000
0000
0000
0100
0000
0000
1000
0000
0000
0100
0000
0000
0001
0000
0000
0100
0000
0000
0001
0000
0000
0000
0000
0000
,  // measure 75
1000
0000
0000
0010
0000
0000
0100
0000
0000
0001
0000
0000
0100
0000
0000
0010
0000
0000
1000
0000
0000
0000
0000
0000
1000
0000
0000
0100
0000
0000
0010
0000
,  // measure 76
0000
0001
0000
0000
0010
0000
0000
0100
0000
0000
1000
0000
0000
0000
0000
0000
1000
0000
0000
0100
0000
0000
1000
0000
0000
0100
0000
0000
0010
0000
0000
0001
,  // measure 77
0000
0000
0010
0000
0000
0001
0000
0000
1000
0000
0000
0010
0000
0000
1000
0000
0000
0010
0000
0000
0100
0000
0000
0001
0000
0000
0100
0000
0000
0001
0000
0000
,  // measure 78
1000
0000
0000
0100
0000
0000
0010
0000
0000
0001
0000
0000
1000
0000
0000
0100
0000
0000
0010
0000
0000
0001
0000
0000
1000
0000
0000
0010
0000
0000
0100
0000
,  // measure 79
0000
0001
0000
0000
1000
0000
0000
0010
0000
0000
0100
0000
0000
0001
0000
0000
1000
0000
0000
0100
0000
0000
0001
0000
0000
0100
0000
0000
1000
0000
0000
0100
,  // measure 80
0000
0000
0001
0000
0000
0100
0000
0000
1000
0000
0000
0010
0000
0000
0001
0000
0000
0010
0000
0000
1000
0000
0000
0010
0000
0000
0001
0000
0000
0010
0000
0000
,  // measure 81
1000
0000
0000
0100
0000
0000
0001
0000
0000
0100
0000
0000
1000
0000
0000
0010
0000
0000
0001
0000
0000
0010
0000
0000
1000
0000
0000
0100
0000
0000
0001
0000
,  // measure 82
0000
0100
0000
0000
1000
0000
0000
0010
0000
0000
0001
0000
0000
0010
0000
0000
1000
0000
0000
0000
0000
0000
0000
0000
0000
0000
0000
0000
0000
0000
0000
0000
,  // measure 83
0000
0000
0000
0000
,  // measure 84
0000
0000
0000
0000
0000
0001
0000
0000
0000
0000
0000
0000
0000
0000
0000
0000
,  // measure 85
0000
0000
0000
0000
0000
0000
0000
0000
0000
0000
0000
0000
0000
0000
0000
1000
0000
0000
0000
0000
0000
0000
0000
0000
0000
0000
0000
0000
0000
0000
0000
0000
0000
0000
0000
0000
0000
0000
0000
0000
0000
0000
0000
0000
0000
0000
0000
0000
0000
0000
0000
0000
0000
0000
0000
0000
0000
0000
0000
0000
0000
0000
0000
0000
,  // measure 86
0000
0000
0000
0000
0000
0000
0000
0000
0000
0000
0000
0000
0000
0000
0000
0000
0000
0000
0000
0000
0000
0000
0000
0000
0000
0000
0000
0000
0000
0000
0000
0000
0000
0000
0000
0000
0000
0000
0000
0000
0000
0000
0000
1001
0000
0000
0000
0000
0000
0000
0000
0000
0000
0000
0000
0000
0000
0000
0000
0000
0000
0000
0000
0000
0000
0000
0000
0000
0000
0000
0000
0000
0000
0000
0000
0000
0000
0000
0000
0000
0000
0000
0000
0000
0000
0000
0000
0000
0000
0000
0000
0000
0000
0000
0000
0000
0000
0000
0000
0000
0000
0000
0000
0000
0000
0000
0000
0000
0000
0000
0000
0000
0000
0000
0000
0000
0000
0000
0000
0000
0000
0000
0000
0000
0000
0000
0000
0000
0000
0000
0000
0000
0000
0000
0000
0000
0000
0000
0000
0000
0000
0000
0000
0000
0000
0000
0000
0000
0000
0000
0000
0000
0000
0000
0000
0000
0000
0000
0000
0000
0000
0000
0000
0000
0000
0000
0000
0000
0000
0000
0000
0000
0000
0000
0000
0000
0000
0000
0000
0000
0000
0000
0000
0000
0000
0000
0000
0000
0000
0000
0000
0000
;
