#TITLE:Tomb Rock;
#SUBTITLE:;
#ARTIST:Raxxo;
#TITLETRANSLIT:;
#SUBTITLETRANSLIT:;
#ARTISTTRANSLIT:;
#GENRE:;
#CREDIT:;
#MUSIC:Tomb Rock.ogg;
#BANNER:Tomb Rock-bn.png;
#BACKGROUND:Tomb Rock-bg.png;
#CDTITLE:;
#SAMPLESTART:8.579;
#SAMPLELENGTH:8.348;
#SELECTABLE:YES;
#OFFSET:-0.231;
#BPMS:0.000=115.000
,16.000=230.000
,112.000=115.000
,144.000=230.000
,272.000=115.000
;
#STOPS:;
#BGCHANGES:;
#FGCHANGES:;

//--------------- dance-single - ----------------
#NOTES:
     dance-single:
     :
     Beginner:
     4:
     0,0,0,0,0:
1000
0000
0000
1000
0000
0000
1000
0000
0000
1000
0000
0000
1000
0000
0000
0000
,
0001
0000
0000
0001
0000
0000
0001
0000
0000
0001
0000
0000
0001
0000
0000
0000
,
1000
0000
0000
1000
0000
0000
1000
0000
0001
0000
0000
0001
0000
0000
0001
0000
,
1000
0000
0000
1000
0000
0000
1000
0000
0000
1000
0000
0000
1000
0000
0000
0000
,
1000
0000
0000
1000
0000
0000
1000
0000
,
0000
1000
0000
0000
1000
0000
0000
0000
,
0100
0000
0000
0100
0000
0000
0100
0000
,
0000
0100
0000
0000
0100
0000
0000
0000
,
0010
0000
0000
0010
0000
0000
0010
0000
,
0001
0000
0000
0001
0000
0000
0001
0000
,
0010
0000
0000
0100
0000
0000
1000
0000
,
0000
0001
0000
0000
1000
0000
0000
0000
,
0001
0000
0000
0001
0000
0000
0001
0000
,
0000
0001
0000
0000
0001
0000
0000
0000
,
0010
0000
0000
0010
0000
0000
0010
0000
,
0000
0010
0000
0000
0010
0000
0000
0000
,
0100
0000
0000
0100
0000
0000
0100
0000
,
1000
0000
0000
1000
0000
0000
1000
0000
,
0100
0000
0000
0010
0000
0000
0001
0000
,
0000
1000
0000
0000
0001
0000
0000
0000
,
1000
0000
0000
1000
0000
0000
1000
0000
,
0000
1000
0000
0000
1000
0000
0000
0000
,
0010
0000
0000
0010
0000
0000
0010
0000
,
0000
0010
0000
0000
0010
0000
0000
0000
,
0100
0000
0000
0100
0000
0000
0100
0000
,
0001
0000
0000
0001
0000
0000
0001
0000
,
0100
0000
0000
0010
0000
0000
1000
0000
,
0000
0001
0000
0000
1000
0000
0000
0000
,
1000
0000
0000
0100
0000
0000
0010
0000
,
0001
0000
0000
0010
0000
0000
0100
0000
,
1000
0000
0001
0000
,
1000
0000
0000
0000
,
0001
0000
0000
0010
0000
0000
0100
0000
,
1000
0000
0000
0100
0000
0000
0010
0000
,
0001
0000
1000
0000
,
0001
0000
0000
0000
,
1000
0000
0100
0000
,
0010
0000
0001
0000
,
1000
0000
0010
0000
,
0100
0000
0001
0000
,
1000
0000
0100
0000
,
0010
0000
0100
0000
,
1000
0000
0000
0001
0000
0000
1000
0000
,
1000
0100
0010
0001
,
1000
0000
0000
0100
0000
0000
0010
0000
,
0000
0100
0000
0000
1000
0000
0000
0000
,
0001
0000
0000
0010
0000
0000
0100
0000
,
0000
0010
0000
0000
0001
0000
0000
0000
,
1000
0000
0000
0010
0000
0000
0100
0000
,
0001
0000
0000
0010
0000
0000
0100
0000
,
1000
0000
0000
0100
0000
0000
0010
0000
,
0000
0001
0000
0000
1000
0000
0000
0000
,
1000
0000
0000
0010
0000
0000
0100
0000
,
0000
0010
0000
0000
1000
0000
0000
0000
,
0001
0000
0000
0100
0000
0000
0010
0000
,
0000
0100
0000
0000
0001
0000
0000
0000
,
1000
0000
0000
0100
0000
0000
0010
0000
,
0001
0000
0000
0100
0000
0000
0010
0000
,
1000
0000
0000
0010
0000
0000
0100
0000
,
0000
0001
0000
0000
1000
0000
0000
0000
,
1000
0000
0000
0100
0000
0000
0010
0000
,
0000
0001
0000
0000
1000
0000
0000
0000
,
0001
0000
0000
0010
0000
0000
0100
0000
,
0000
1000
0000
0000
0001
0000
0000
0000
,
1000
0000
0000
0100
0000
0000
0100
0000
,
0001
0000
0000
0100
0000
0000
0100
0000
,
1000
0000
0000
0010
0000
0000
0100
0000
,
0000
0001
0000
0000
1000
0000
0000
0000
,
0001
1000
0000
0001
0000
0000
0000
0000
;

//--------------- dance-single - ----------------
#NOTES:
     dance-single:
     :
     Easy:
     7:
     0,0,0,0,0:
1000
0000
0000
0100
0000
0000
0010
0000
0000
0001
0000
0010
0100
0000
1000
0000
,
0001
0000
0000
0010
0000
0000
0100
0000
0000
1000
0000
0100
0010
0000
0001
0000
,
1000
0000
0000
0100
0000
0000
0010
0001
0010
0000
0000
0100
0000
0000
1000
0010
,
0100
0000
0000
0001
0000
0000
0100
0000
0000
0010
0000
0000
1000
0000
0000
0000
,
1000
0000
0000
0010
0000
0000
0100
0000
,
0000
0001
0000
0010
0100
0000
1000
0000
,
0001
0000
0000
0010
0000
0000
0100
0000
,
0000
1000
0000
0010
0100
0000
0001
0000
,
1000
0000
0000
0010
0000
0000
0100
0001
,
0010
0000
0000
0100
0000
0000
1000
0001
,
1000
0000
0000
0001
0000
0000
0010
0000
,
0000
0100
0000
0000
1000
0000
0000
0000
,
0001
0000
0000
0100
0000
0000
0010
0000
,
0000
1000
0000
0100
0010
0000
0001
0000
,
1000
0000
0000
0100
0000
0000
0010
0000
,
0000
0001
0000
0100
0010
0000
1000
0000
,
0001
0000
0000
0100
0000
0000
0010
1000
,
0100
0000
0000
0010
0000
0000
0001
1000
,
0001
0000
0000
1000
0000
0000
0010
0000
,
0000
0100
0000
0000
0001
0000
0000
0000
,
1000
0000
0000
0100
0000
0000
0010
0000
,
0000
0001
0000
0010
0100
0000
1000
0000
,
0001
0000
0000
0010
0000
0000
0100
0000
,
0000
1000
0000
0100
0010
0000
0001
0000
,
1000
0000
0000
0100
0000
0000
0010
0001
,
0010
0000
0000
0100
0000
0000
1000
0001
,
1000
0000
0000
0001
0000
0000
0010
0000
,
0000
0100
0000
0000
1000
0000
0000
0000
,
1000
0000
0000
0100
0000
0000
0010
0000
0000
0001
0000
0000
1000
0000
0000
0000
,
0001
0000
0000
0010
0000
0000
0100
0000
0000
1000
0000
0000
0001
0000
0000
0000
,
1000
0000
0000
0100
0000
0000
0010
0000
0001
0000
0000
0010
0000
0000
0100
0000
,
1000
0000
0000
0001
0000
0000
0100
0000
0000
0010
0000
0000
1000
0000
0000
0000
,
0001
0000
0000
0100
0000
0000
0010
0000
0000
1000
0000
0000
0001
0000
0000
0000
,
1000
0000
0000
0010
0000
0000
0100
0000
0000
0001
0000
0000
1000
0000
0000
0000
,
0001
0000
0000
0100
0000
0000
0010
0000
1000
0000
0000
0010
0000
0000
0100
0000
,
0001
0000
0000
1000
0000
0000
0100
0000
0000
0010
0000
0000
0001
0000
0000
0000
,
1000
0100
0010
0001
,
1000
0100
0010
0001
,
1000
0010
0100
0001
,
1000
0010
0100
0001
,
1000
0100
0010
0100
,
1000
0010
0100
0010
,
1000
0000
0000
0001
0000
0000
1000
0001
,
1000
0100
0010
0001
1000
0010
0100
0001
,
1000
0000
0000
0100
0000
0000
0010
0000
,
0000
0001
0000
0010
1000
0000
0010
0000
,
0001
0000
0000
0010
0000
0000
0100
0000
,
0000
1000
0000
0100
0001
0000
0100
0000
,
1000
0000
0000
0100
0000
0000
0010
0001
,
0100
0000
0000
0010
0000
0000
1000
0100
,
0010
0000
0000
0001
0000
0000
0010
0000
,
0000
0100
0000
0000
1000
0000
0000
0000
,
0001
0000
0000
0100
0000
0000
0010
0000
,
0000
1000
0000
0010
0001
0000
0010
0000
,
1000
0000
0000
0010
0000
0000
0100
0000
,
0000
0001
0000
0100
1000
0000
0100
0000
,
0001
0000
0000
0010
0000
0000
0100
1000
,
0010
0000
0000
0100
0000
0000
0001
0010
,
0100
0000
0000
1000
0000
0000
0100
0000
,
0000
0010
0000
0000
0001
0000
0000
0000
,
1000
0000
0000
0100
0000
0000
0010
0000
,
0000
0001
0000
0010
0100
0000
0010
0000
,
0001
0000
0000
0010
0000
0000
0100
0000
,
0000
1000
0000
0100
0010
0000
0100
0000
,
1000
0000
0000
0010
0000
0000
0100
0001
,
0010
0000
0000
0100
0000
0000
1000
0010
,
0100
0000
0000
0001
0000
0000
0100
0000
,
0000
0010
0000
0000
1000
0000
0000
0000
,
0001
0010
0100
1000
0000
0000
0001
0000
0000
0000
0000
0000
0000
0000
0000
0000
;

//--------------- dance-single - ----------------
#NOTES:
     dance-single:
     :
     Medium:
     8:
     0,0,0,0,0:
1000
0000
0000
0100
0000
0000
0010
0000
0000
0001
0000
0001
1000
0100
0010
0001
,
1000
0000
0000
0010
0000
0000
0100
0000
0000
0001
0000
0001
1000
0010
0100
0001
,
1000
0000
0000
0100
0000
0000
0010
0001
0010
0000
0000
0100
0000
0000
1000
0001
,
1000
0000
0000
0001
0000
0000
0010
0000
0000
0100
0000
0000
1000
0000
0000
0000
,
0001
0000
0000
0010
0000
0000
0100
0000
,
0000
1000
0000
1000
0001
0100
0010
1000
,
0001
0000
0000
0100
0000
0000
0010
0000
,
0000
1000
0000
1000
0001
0010
0100
1000
,
0001
0000
0000
0010
0000
0000
0100
1000
,
0100
0000
0000
0010
0000
0000
0001
1000
,
0001
0000
0000
1000
0000
0000
0100
0000
,
0000
0010
0000
0000
0001
0000
0000
0000
,
1000
0000
0000
0100
0000
0000
0010
0000
,
0000
0001
0000
1000
0010
0001
0010
1000
,
0001
0000
0000
0010
0000
0000
0100
0000
,
0000
1000
0000
0001
0010
1000
0010
0001
,
1000
0000
0000
0010
0000
0000
0100
0001
,
0100
0000
0000
0010
0000
0000
1000
0001
,
1000
0000
0000
0001
0000
0000
0100
0000
,
0000
0010
0000
0000
1000
0000
0000
0000
,
0001
0000
0000
0100
0000
0000
0010
0000
,
0000
1000
0000
0001
0100
1000
0100
0001
,
1000
0000
0000
0010
0000
0000
0100
0000
,
0000
0001
0000
1000
0100
0001
0100
1000
,
0001
0000
0000
0100
0000
0000
0010
1000
,
0010
0000
0000
0100
0000
0000
0001
1000
,
0001
0000
0000
1000
0000
0000
0010
0000
,
0000
0100
0000
0000
0001
0000
0000
0000
,
1000
0000
0000
0100
0000
0000
0010
0000
0000
0001
0000
0000
1000
0000
0001
0000
,
1000
0000
0000
0010
0000
0000
0100
0000
0000
0001
0000
0000
1000
0000
0001
0000
,
1000
0000
0000
0100
0000
0000
0010
0000
0001
0000
0000
0100
0000
0000
0010
0000
,
1000
0000
0000
0001
0000
0000
0010
0000
0000
0100
0000
0000
1000
0000
0000
0000
,
0001
0000
0000
0010
0000
0000
0100
0000
0000
1000
0000
0000
0001
0000
1000
0000
,
0001
0000
0000
0100
0000
0000
0010
0000
0000
1000
0000
0000
0001
0000
1000
0000
,
0001
0000
0000
0010
0000
0000
0100
0000
1000
0000
0000
0010
0000
0000
0100
0000
,
0001
0000
0000
1000
0000
0000
0010
0000
0000
0100
0000
0000
0001
0000
0000
0000
,
1000
0000
0100
0000
0010
0001
0010
0000
,
0001
0000
0010
0000
0100
1000
0100
0000
,
1000
0000
0010
0000
0100
0001
0100
0000
,
0001
0000
0100
0000
0010
1000
0010
0000
,
1000
0000
0100
0000
0010
0001
0010
0000
,
0001
0000
0100
0000
0010
1000
0010
0000
,
1000
0000
0000
0001
0000
0000
1000
0001
,
1000
0100
0010
0100
1000
0100
0010
0001
0010
0100
1000
0001
,
1000
0000
0000
0100
0000
0000
0010
0000
,
0000
0001
0000
1000
0010
0001
0010
1000
,
0001
0000
0000
0100
0000
0000
0010
0000
,
0000
1000
0000
0001
0010
1000
0010
0001
,
1000
0000
0000
0100
0000
0000
0010
0001
,
0100
0000
0000
0010
0000
0000
1000
0001
,
1000
0000
0000
0001
0000
0000
0010
0000
,
0000
0100
0000
0000
1000
0000
0000
0000
,
0001
0000
0000
0010
0000
0000
0100
0000
,
0000
1000
0000
0001
0100
1000
0100
0001
,
1000
0000
0000
0010
0000
0000
0100
0000
,
0000
0001
0000
1000
0100
0001
0100
1000
,
0001
0000
0000
0100
0000
0000
0010
1000
,
0100
0000
0000
0010
0000
0000
0001
1000
,
0001
0000
0000
1000
0000
0000
0010
0000
,
0000
0100
0000
0000
0001
0000
0000
0000
,
1000
0000
0000
0100
0000
0000
0010
0000
,
0000
0001
0000
0000
1000
0010
0001
0010
,
1000
0000
0000
0010
0000
0000
0100
0000
,
0000
0001
0000
0000
1000
0100
0001
0100
,
1000
0000
0000
0010
0000
0000
0100
0001
,
0010
0000
0000
0100
0000
0000
1000
0001
,
1000
0000
0000
0100
0000
0000
0010
0000
,
0000
0001
0000
0000
1000
0001
1000
0001
,
1000
0100
0010
0001
0000
0000
1000
0000
0000
0000
0000
0000
0000
0000
0000
0000
;

//--------------- dance-single - ----------------
#NOTES:
     dance-single:
     :
     Hard:
     10:
     0,0,0,0,0:
1000
0000
0100
0010
0000
0001
0010
0000
0001
0100
0000
1000
0100
0010
0001
1000
,
0100
0000
0010
0001
0000
0010
0100
0000
1000
0010
0000
0001
0010
0100
1000
0010
,
0100
0000
0001
0010
0000
0100
1000
0100
0010
0000
0001
0010
0000
1000
0100
0010
,
0001
0000
0100
0001
0000
1000
0010
0000
0100
1000
0000
0010
0001
0000
0000
0000
,
1000
0000
1000
0100
0000
0100
0010
0000
,
0010
0001
0000
0001
1000
0010
0100
0001
,
1000
0000
1000
0010
0000
0010
0100
0000
,
0100
0001
0000
0001
1000
0100
0010
0001
,
1000
0000
0100
0010
0000
0001
0100
1000
,
0100
0000
0010
0001
0000
0010
1000
0001
,
1000
0000
0100
0010
0000
0001
1000
0000
,
0010
0100
0000
0001
1000
0000
0000
0000
,
1000
0000
0100
0010
0000
0001
0010
0000
,
0100
1000
0001
0000
0010
0000
0100
0000
,
1000
0000
0010
0100
0000
0001
0100
0000
,
0010
1000
0001
0000
0100
0000
0010
0000
,
1000
0000
1000
0100
0000
0100
0010
0000
,
0010
0000
0010
0001
0000
0001
0010
0000
,
0010
0000
0010
0100
0000
0100
1000
0000
,
1000
0001
0000
0001
1000
0000
0010
0010
,
1000
0000
1000
0100
0000
0100
0001
0000
,
0001
0010
0000
0010
1000
0100
0001
0100
,
1000
0000
1000
0010
0000
0010
0001
0000
,
0001
0100
0000
0100
1000
0010
0001
0010
,
1000
0000
0100
0010
0000
0001
0010
0100
,
1000
0000
0010
0100
0000
0001
0100
0010
,
1000
0000
1000
0100
0000
0100
0010
0000
,
0010
0001
0000
0001
0010
0100
1000
0001
,
1000
0000
1000
0100
0000
0100
0010
0000
0010
0001
0000
0001
0010
0000
0100
0000
,
1000
0000
1000
0010
0000
0010
0100
0000
0100
0001
0000
0001
0100
0000
0010
0000
,
1000
0000
1000
0100
0000
0100
0010
0000
0010
0000
0010
0001
0000
0001
0100
0000
,
0100
0000
0100
0010
0000
0010
1000
0000
1000
0001
0000
0001
1000
0000
0001
0000
,
1000
0000
1000
0100
0000
0100
0010
0000
0010
0001
0000
0001
0100
0000
0010
0000
,
1000
0000
1000
0010
0000
0010
0100
0000
0100
0001
0000
0001
0010
0000
0100
0000
,
1000
0000
1000
0010
0000
0010
0100
0000
0100
0000
0100
0001
0000
0001
0010
0000
,
0010
0000
0010
0100
0000
0100
1000
0000
1000
0001
0000
0001
1000
0100
0010
0001
,
1000
0100
0010
0001
1000
0100
0010
0001
,
1000
0100
0010
0001
1000
0100
0010
0001
,
1000
0010
0100
0001
1000
0010
0100
0001
,
1000
0010
0100
0001
1000
0010
0100
0001
,
1000
0100
0010
0100
1000
0100
0010
0100
,
1000
0010
0100
0010
1000
0010
0100
0010
,
1000
0000
0001
1000
0000
0001
1000
0001
,
1000
0100
0010
0001
0010
0100
1000
0100
0010
0001
0010
0100
,
1000
0000
1000
0100
0000
0100
0010
0000
,
0010
0001
0000
0001
0100
1000
0100
0010
,
0001
0000
0001
0010
0000
0010
0100
0000
,
0100
1000
0000
1000
0010
0001
0010
0100
,
1000
0000
1000
0100
0000
0100
0001
0010
,
1000
0000
1000
0010
0000
0010
0001
0100
,
1000
0000
1000
0100
0000
0100
0010
0000
,
0010
0001
0000
0001
1000
0000
0000
0000
,
0001
0000
0001
0100
0000
0100
0010
0000
,
0010
1000
0000
1000
0100
0001
0100
0010
,
1000
0000
1000
0010
0000
0010
0100
0000
,
0100
0001
0000
0001
0010
1000
0010
0100
,
0001
0000
0001
0010
0000
0010
1000
0100
,
0001
0000
0001
0100
0000
0100
1000
0010
,
0001
0000
0001
0010
0000
0010
0100
0000
,
0100
1000
0000
1000
0001
0000
1000
0001
,
1000
0000
1000
0100
0000
0100
0010
0000
,
0010
0001
0000
0001
1000
0010
0100
0010
,
0001
0000
0001
0010
0000
0010
0100
0000
,
0100
1000
0000
1000
0001
0100
0010
0100
,
1000
0000
1000
0100
0000
0100
0010
0001
,
1000
0000
1000
0010
0000
0010
0100
0001
,
1000
0000
1000
0100
0000
0100
0010
0000
,
0010
0001
0000
0001
1000
0100
0010
0001
,
1000
0001
1000
0001
0000
1000
0001
0000
0000
0000
0000
0000
0000
0000
0000
0000
;

//--------------- dance-single - ----------------
#NOTES:
     dance-single:
     :
     Challenge:
     10:
     0,0,0,0,0:
1000
0000
0100
0010
0000
0001
0010
0000
0001
0100
0000
1000
0100
0010
0001
1000
,
0100
0000
0010
0001
0000
0010
0100
0000
1000
0010
0000
0001
0010
0100
1000
0010
,
0100
0000
0001
0010
0000
0100
1000
0100
0010
0000
0001
0010
0000
1000
0100
0010
,
0001
0000
0100
0001
0000
1000
0010
0000
0100
1000
0000
0010
0001
0000
0000
0000
,
2002
3003
0100
0010
0100
0001
0010
0100
,
1000
0010
0100
0001
1000
0100
0010
0001
,
2002
3003
0010
0100
0010
1000
0100
0010
,
0001
0100
0010
1000
0001
0010
0100
1000
,
1001
0000
1000
0010
0001
0010
0100
1000
,
1001
0000
0001
0100
1000
0100
0010
0001
,
1001
0000
1000
0100
0000
0100
0001
0000
,
0001
0010
0000
0010
1000
0000
0110
0000
,
2002
3003
0010
0100
0010
0001
0100
0010
,
1000
0100
0010
0001
1000
0010
0100
0001
,
2002
3003
0100
0010
0100
1000
0010
0100
,
0001
0010
0100
1000
0001
0100
0010
1000
,
2000
0000
0000
3200
0000
0000
0320
0000
,
0032
0000
0000
2003
0000
0000
3020
0000
,
0230
0000
0000
0302
0000
0000
0023
0000
,
0000
0000
0230
0000
0000
0000
0000
0000
2300
0000
3000
0000
0100
0010
0100
0010
,
1001
0000
1000
0100
0000
0001
0100
0000
,
1000
0010
0000
0001
0010
1000
0100
0010
,
0101
0000
0001
0010
0000
1000
0010
0000
,
0001
0100
0000
1000
0100
0001
0010
0100
,
1010
0000
0100
0010
0000
0001
0010
0100
,
0011
0000
0010
0100
0000
1000
0100
0010
,
1100
0000
1000
0100
0010
0001
1000
0010
,
0100
0001
0010
0100
1000
0001
0100
0010
,
1000
0000
0000
0100
0000
0000
0010
0000
0000
0001
0000
0000
1000
0000
0010
0000
,
0100
0000
0000
0001
0000
0000
1000
0000
0000
0100
0000
0000
0010
0000
0001
0000
,
1000
0000
0000
0010
0000
0000
0100
0000
0001
0000
0000
1000
0000
0000
0100
0000
,
0010
0000
0000
0001
0000
0000
1000
0000
0000
0010
0000
0000
0100
0000
0001
0000
,
1100
0000
0000
0110
0000
0000
0101
0000
0000
0110
0000
0000
1100
0000
0011
0000
,
1010
0000
0000
0110
0000
0000
0011
0000
0000
0110
0000
0000
1010
0000
0101
0000
,
2002
3000
0023
0000
,
0230
0000
0000
0000
0000
0000
0000
0000
0000
0000
0000
0000
0300
0001
0010
0100
,
1000
0010
0100
0001
1000
0010
0100
0001
,
1000
0100
0010
0001
1000
0100
0010
0001
,
1000
0100
0010
0100
1000
0100
0010
0100
,
1000
0010
0100
0010
1000
0010
0100
0010
,
1000
0100
0010
0001
1000
0010
0100
0001
,
1000
0100
0010
0001
0010
0100
1000
0100
0010
0001
0010
0100
,
1000
0000
0010
0100
0000
0010
0100
0001
,
1000
0100
0010
1000
0100
0001
1000
0010
0001
0100
0010
0001
1000
0010
0100
0001
,
1000
0100
0010
0001
1000
0010
0100
0001
,
1000
0100
0010
0100
1000
0010
0100
0010
,
1000
0100
0010
0001
1000
0010
0100
0001
,
1000
0100
0010
0100
1000
0010
0100
0010
,
1000
0000
0000
0100
0000
0000
0010
0001
,
1000
0000
0000
0010
0000
0000
0100
0001
,
1000
0000
1000
0100
0000
0100
0001
0000
,
0001
0010
0000
0010
1000
0000
0001
0000
,
1000
0100
1000
0100
1000
0100
1000
0100
,
0010
0001
0010
0001
0010
0001
0010
0001
,
1000
0010
1000
0010
1000
0010
1000
0010
,
0100
0001
0100
0001
0100
0001
0100
0001
,
2000
0000
0000
3200
0000
0000
0320
0000
,
0032
0000
0000
2003
0000
0000
3020
0000
,
0230
0000
0000
0302
0000
0000
2003
0000
,
0000
0000
3200
0000
0000
0000
0000
0000
0320
0000
0000
0000
0130
0010
0100
0010
,
1001
0000
0001
0010
0000
0010
1000
0000
,
1000
0100
0000
0100
0001
0010
0100
1000
,
0001
0000
0001
0100
0000
0100
1000
0000
,
1000
0010
0000
0010
0001
0100
0010
1000
,
0001
0000
0010
0001
0000
0001
0100
1000
,
0010
0000
0100
0010
0000
0010
1000
0001
,
0100
0000
1000
0100
0000
0100
0001
0010
,
1000
0001
0000
0001
0010
0100
1000
0010
,
0100
0010
0100
0010
0000
0010
2002
0000
0000
0000
0000
0000
0000
0000
0000
0000
,
0000
0000
3003
0000
;
