#TITLE:Tomb Boulder;
#SUBTITLE:;
#ARTIST:Raxxo;
#TITLETRANSLIT:;
#SUBTITLETRANSLIT:;
#ARTISTTRANSLIT:;
#GENRE:;
#CREDIT:;
#MUSIC:Tomb Boulder.ogg;
#BANNER:Tomb Boulder-bn.png;
#BACKGROUND:Tomb Boulder-bg.png;
#CDTITLE:;
#SAMPLESTART:0.085;
#SAMPLELENGTH:8.348;
#SELECTABLE:YES;
#OFFSET:-0.085;
#BPMS:0.000=115.000;
#STOPS:;
#BGCHANGES:;
#FGCHANGES:;

//--------------- dance-single - ----------------
#NOTES:
     dance-single:
     :
     Beginner:
     2:
     0,0,0,0,0:
1000
0000
0000
1000
0000
0000
1000
0000
,
0001
0000
0000
0001
0000
0000
0001
0000
,
1000
0000
0100
0000
,
0010
0000
0001
0000
,
1000
0000
0000
1000
0000
0000
1000
0000
,
0100
0000
0000
0100
0000
0000
0100
0000
,
0010
0000
0001
0000
,
1000
0000
0000
0000
,
0001
0000
0000
0001
0000
0000
0001
0000
,
0010
0000
0000
0010
0000
0000
0010
0000
,
0100
0000
1000
0000
,
0001
0000
0000
0000
,
1000
0000
0000
0000
,
0100
0000
0000
0000
,
0010
0000
0001
0000
,
1000
0000
0000
0000
,
0001
0000
0000
0001
0000
0000
0001
0000
,
0100
0000
0000
0100
0000
0000
0100
0000
,
0010
0000
1000
0000
,
0001
0000
0000
0000
,
1000
0000
0000
1000
0000
0000
1000
0000
,
0010
0000
0000
0010
0000
0000
0010
0000
,
0100
0000
0001
0000
,
1000
0000
0000
0000
,
0001
0000
0000
0010
0000
0000
0100
0000
,
1000
0000
0000
0010
0000
0000
0100
0000
,
0001
0000
1000
0000
,
0001
0000
0000
0000
,
1000
0000
0000
0100
0000
0000
0010
0000
,
0001
0000
0000
0100
0000
0000
0010
0000
,
1000
0000
0001
0000
,
1000
0000
0000
0000
,
0001
0000
0000
0010
0000
0000
0100
0000
,
1000
0000
0000
0100
0000
0000
0010
0000
,
0001
0000
0010
0000
,
0100
0000
1000
0000
,
0001
0000
0000
0000
;

//--------------- dance-single - ----------------
#NOTES:
     dance-single:
     :
     Easy:
     4:
     0,0,0,0,0:
1000
0000
0000
1000
0000
0000
1000
0000
0000
1000
0000
0000
1000
0000
0000
0000
,
0001
0000
0000
0001
0000
0000
0001
0000
0000
0001
0000
0000
0001
0000
0000
0000
,
1000
0000
0000
1000
0000
0000
1000
0000
0001
0000
0000
0001
0000
0000
0001
0000
,
1000
0000
0000
1000
0000
0000
1000
0000
0000
1000
0000
0000
1000
0000
0000
0000
,
0001
0000
0000
0001
0000
0000
0001
0000
0000
0001
0000
0000
0001
0000
0000
0000
,
0010
0000
0000
0010
0000
0000
0010
0000
0000
0010
0000
0000
0010
0000
0000
0000
,
0100
0000
0000
0100
0000
0000
0100
0000
1000
0000
0000
1000
0000
0000
1000
0000
,
0001
0000
0000
0001
0000
0000
0001
0000
0000
0001
0000
0000
0001
0000
0000
0000
,
1000
0000
0000
1000
0000
0000
1000
0000
0000
1000
0000
0000
1000
0000
0000
0000
,
0100
0000
0000
0100
0000
0000
0100
0000
0000
0100
0000
0000
0100
0000
0000
0000
,
0010
0000
0000
0010
0000
0000
0010
0000
0001
0000
0000
0001
0000
0000
0001
0000
,
1000
0000
0000
1000
0000
0000
1000
0000
0000
1000
0000
0000
1000
0000
0000
0000
,
0001
0000
0010
0000
0100
1000
0010
0100
,
0001
0000
0100
0000
0010
1000
0100
0010
,
0001
0000
0000
0010
0000
0000
0000
0000
0100
0000
0000
1000
0000
0000
0000
0000
,
1000
0000
0000
0001
0000
0000
1000
0000
0000
0000
0000
0000
0000
0000
0000
0000
,
1000
0000
0000
0100
0000
0000
0010
0000
0000
0001
0000
0000
1000
0000
0000
0000
,
0001
0000
0000
0010
0000
0000
0100
0000
0000
1000
0000
0000
0001
0000
0000
0000
,
1000
0000
0000
0100
0000
0000
0010
0000
0001
0000
0000
0010
0000
0000
0100
0000
,
1000
0000
0000
0100
0000
0000
0010
0000
0000
0001
0000
0000
1000
0000
0000
0000
,
0001
0000
0000
0100
0000
0000
0010
0000
0000
1000
0000
0000
0001
0000
0000
0000
,
1000
0000
0000
0010
0000
0000
0100
0000
0000
0001
0000
0000
1000
0000
0000
0000
,
0001
0000
0000
0100
0000
0000
0010
0000
1000
0000
0000
0010
0000
0000
0100
0000
,
0001
0000
0000
0100
0000
0000
0010
0000
0000
1000
0000
0000
0001
0000
0000
0000
,
1000
0000
0000
0100
0000
0000
0010
0000
0000
0100
0000
0000
1000
0000
0000
0000
,
0001
0000
0000
0010
0000
0000
0100
0000
0000
0010
0000
0000
0001
0000
0000
0000
,
1000
0000
0000
0100
0000
0000
0100
0000
0001
0000
0000
0100
0000
0000
0100
0000
,
1000
0000
0000
0100
0000
0000
0010
0000
0000
0001
0000
0000
1000
0000
0000
0000
,
0001
0000
0000
0100
0000
0000
0010
0000
0000
0100
0000
0000
0001
0000
0000
0000
,
1000
0000
0000
0010
0000
0000
0100
0000
0000
0010
0000
0000
1000
0000
0000
0000
,
0001
0000
0000
0010
0000
0000
0010
0000
1000
0000
0000
0010
0000
0000
0010
0000
,
0001
0000
0000
0100
0000
0000
0010
0000
0000
1000
0000
0000
0001
0000
0000
0000
,
1000
0000
0000
0100
0000
0000
0010
0000
0000
0001
0000
0000
1000
0000
0001
0000
,
1000
0000
0000
0010
0000
0000
0100
0000
0000
0001
0000
0000
1000
0000
0001
0000
,
1000
0000
0000
0100
0000
0000
0010
0000
0001
0000
0000
0100
0000
0000
0010
0000
,
1000
0000
0000
0100
0000
0000
0010
0000
0000
0001
0000
0000
1000
0000
0001
0000
,
1000
0000
0000
0000
;

//--------------- dance-single - ----------------
#NOTES:
     dance-single:
     :
     Medium:
     6:
     0,0,0,0,0:
1000
0000
0000
0100
0000
0000
0010
0000
0000
0001
0000
0010
0100
0000
1000
0000
,
0001
0000
0000
0010
0000
0000
0100
0000
0000
1000
0000
0100
0010
0000
0001
0000
,
1000
0000
0000
0100
0000
0000
0010
0001
0010
0000
0000
0100
0000
0000
1000
0010
,
0100
0000
0000
0001
0000
0000
0100
0000
0000
0010
0000
0000
1000
0000
0000
0000
,
1000
0000
0000
0010
0000
0000
0100
0000
0000
0001
0000
0100
0010
0000
1000
0000
,
0001
0000
0000
0100
0000
0000
0010
0000
0000
1000
0000
0010
0100
0000
0001
0000
,
1000
0000
0000
0010
0000
0000
0100
0001
0100
0000
0000
0010
0000
0000
1000
0100
,
0010
0000
0000
0001
0000
0000
0010
0000
0000
0100
0000
0000
1000
0000
0000
0000
,
1000
0000
0000
0100
0000
0000
0010
0000
0000
0001
0000
0000
1000
0000
0100
0000
,
0010
0000
0000
0001
0000
0000
1000
0000
0000
0100
0000
0000
0010
0000
0001
0000
,
1000
0000
0000
0010
0000
0000
0100
0001
0100
0000
0000
0010
0000
0000
0100
1000
,
0100
0000
0000
0010
0000
0000
0001
0000
0000
0010
0000
0000
0100
0000
0000
0000
,
1000
0000
0000
0100
0000
0000
0010
0000
0001
0000
0000
0000
1000
0000
0000
0000
,
0001
0000
0000
0010
0000
0000
0100
0000
1000
0000
0000
0000
0001
0000
0000
0000
,
1000
0000
0000
0100
0000
0000
0010
0000
0001
0000
0000
0010
0000
0000
0100
0000
,
1000
0000
0000
0100
0000
0000
0010
0000
0000
0000
0000
0000
0001
0000
0000
0000
,
1000
0000
0000
0100
0000
0000
0010
0000
0000
0100
0000
0000
1000
0000
0001
0000
,
1000
0000
0000
0010
0000
0000
0100
0000
0000
0010
0000
0000
1000
0000
0001
0000
,
1000
0000
0000
0100
0000
0000
0010
0001
0100
0000
0000
0010
0000
0000
1000
0100
,
0010
0000
0000
0001
0000
0000
0010
0000
0000
0100
0000
0000
1000
0000
0010
0000
,
0001
0000
0000
0010
0000
0000
0100
0000
0000
0010
0000
0000
0001
0000
1000
0000
,
0001
0000
0000
0100
0000
0000
0010
0000
0000
0100
0000
0000
0001
0000
1000
0000
,
0001
0000
0000
0100
0000
0000
0010
1000
0100
0000
0000
0010
0000
0000
0001
0100
,
0010
0000
0000
1000
0000
0000
0010
0000
0000
0100
0000
0000
0001
0000
0010
0000
,
1000
0000
0000
0100
0000
0000
0010
0000
0000
0001
0000
0000
1000
0001
1000
0000
,
0001
0000
0000
0010
0000
0000
0100
0000
0000
1000
0000
0000
0001
1000
0001
0000
,
1000
0000
0000
0100
0000
0000
0010
0001
0010
0000
0000
0100
0000
0000
1000
0001
,
1000
0000
0000
0100
0000
0000
0010
0000
0000
0001
0000
0000
1000
0000
0000
0000
,
0001
0000
0000
0010
0000
0000
0100
0000
0000
1000
0000
0000
0001
0000
0010
0000
,
1000
0000
0000
0100
0000
0000
0010
0000
0000
0001
0000
0000
1000
0000
0100
0000
,
0001
0000
0000
0010
0000
0000
0100
1000
0100
0000
0000
0010
0000
0000
0001
1000
,
0001
0000
0000
1000
0000
0000
0100
0000
0000
0010
0000
0000
0001
0000
0000
0000
,
1000
0000
0000
0100
0000
0000
0010
0000
0000
0001
0000
0000
1000
0100
0010
0001
,
1000
0000
0000
0010
0000
0000
0100
0000
0000
0001
0000
0000
1000
0010
0100
0001
,
1000
0000
0000
0100
0000
0000
0001
0010
0001
0000
0000
0100
0000
0000
1000
0001
,
1000
0000
0000
0100
0000
0000
0010
0000
0000
0001
0000
0000
1000
0001
1000
0000
,
0001
0000
0000
0000
;

//--------------- dance-single - ----------------
#NOTES:
     dance-single:
     :
     Hard:
     7:
     0,0,0,0,0:
1000
0000
0000
0100
0000
0000
0010
0000
0000
0001
0000
0001
1000
0100
0010
0001
,
1000
0000
0000
0010
0000
0000
0100
0000
0000
0001
0000
0001
1000
0010
0100
0001
,
1000
0000
0000
0100
0000
0000
0010
0001
0010
0000
0000
0100
0000
0000
1000
0001
,
1000
0000
0000
0001
0000
0000
0010
0000
0000
0100
0000
0000
1000
0000
0000
0000
,
0001
0000
0000
0010
0000
0000
0100
0000
0000
1000
0000
1000
0001
0010
0100
1000
,
0001
0000
0000
0100
0000
0000
0010
0000
0000
1000
0000
1000
0001
0100
0010
1000
,
0001
0000
0000
0010
0000
0000
0100
1000
0100
0000
0000
0010
0000
0000
0001
1000
,
0001
0000
0000
1000
0000
0000
0100
0000
0000
0010
0000
0000
0001
0000
0000
0000
,
1000
0000
0000
0100
0000
0000
0010
0000
0000
0100
0000
0100
1000
0100
0010
0100
,
1000
0000
0000
0010
0000
0000
0100
0000
0000
0010
0000
0010
1000
0010
0100
0010
,
1000
0000
0000
0010
0000
0000
0100
0001
0100
0000
0000
0010
0000
0000
1000
0001
,
1000
0000
0000
0001
0000
0000
0100
0000
0000
0010
0000
0000
1000
0000
0000
0000
,
0001
0000
0000
0010
0000
0000
0100
0000
1000
0000
0100
0000
0010
0000
0001
0000
,
1000
0000
0000
0100
0000
0000
0010
0000
0001
0000
0010
0000
0100
0000
1000
0000
,
0001
0000
0000
0100
0000
0000
0010
0000
1000
0000
0000
0010
0000
0000
0100
0000
,
0001
0000
0000
0010
0000
0000
0100
0000
0000
1000
0000
0000
0001
0000
0000
0000
,
1000
0000
0000
0100
0000
0000
0010
0000
0000
0001
0000
1000
0001
0010
0100
1000
,
0001
0000
0000
0100
0000
0000
0010
0000
0000
1000
0000
0001
1000
0010
0100
0001
,
1000
0000
0000
0100
0000
0000
0010
1000
0010
0000
0000
0100
0000
0000
1000
0001
,
1000
0000
0000
0001
0000
0000
0010
0000
0000
0100
0000
0000
1000
0100
0010
0001
,
1000
0000
0000
0010
0000
0000
0100
0000
0000
0001
0000
1000
0001
0100
0010
1000
,
0001
0000
0000
0010
0000
0000
0100
0000
0000
1000
0000
0001
1000
0100
0010
0001
,
1000
0000
0000
0010
0000
0000
0100
1000
0100
0000
0000
0010
0000
0000
1000
0001
,
1000
0000
0000
0001
0000
0000
0010
0000
0000
0100
0000
0000
1000
0010
0100
0001
,
1000
0000
0000
0100
0000
0000
0010
0000
0000
0100
0000
1000
0001
0010
0100
0010
,
0001
0000
0000
0100
0000
0000
0010
0000
0000
0100
0000
0001
1000
0010
0100
0010
,
1000
0000
0000
0100
0000
0000
0010
0001
0010
0000
0000
0100
0000
0000
1000
0001
,
1000
0000
0000
0001
0000
0000
0010
0000
0000
0100
0000
0000
1000
0000
0000
0000
,
1000
0000
0000
0100
0000
0000
0010
0000
0001
0000
0010
0000
0100
0000
1000
0000
,
0001
0000
0000
0010
0000
0000
0100
0000
1000
0000
0100
0000
0010
0000
0001
0000
,
1000
0000
0000
0100
0000
0000
0010
0000
0001
0000
0000
0100
0000
0000
0010
0000
,
1000
0000
0000
0010
0000
0000
0001
0000
0000
0100
0000
0000
0010
0000
0000
0000
,
1000
0000
0000
0010
0000
0000
0100
0000
0000
0010
0000
1000
0001
0100
0010
0100
,
0001
0000
0000
0010
0000
0000
0100
0000
0000
0010
0000
0001
1000
0100
0010
0100
,
1000
0000
0000
0010
0000
0000
0100
0001
0100
0000
0000
0010
0000
0000
1000
0001
,
1000
0000
0000
0001
0000
0000
0100
0000
0000
0010
0000
0000
1000
0100
0010
0001
,
1000
0000
0000
0000
;

//--------------- dance-single - ----------------
#NOTES:
     dance-single:
     :
     Challenge:
     9:
     0,0,0,0,0:
1000
0000
0100
0010
0000
0001
0010
0000
0001
0100
0000
1000
0100
0010
0001
1000
,
0100
0000
0010
0001
0000
0010
0100
0000
1000
0010
0000
0001
0010
0100
1000
0010
,
0100
0000
0001
0010
0000
0100
1000
0100
0010
0000
0001
0010
0000
1000
0100
0010
,
0001
0000
0100
0001
0000
1000
0010
0000
0100
1000
0000
0010
0001
0000
0000
0000
,
1000
0000
0100
0010
0000
0001
0010
0000
0010
0001
0000
1000
0100
0010
0001
0100
,
0010
0000
0010
0100
0000
0001
0100
0000
0010
1000
0000
0100
0001
0010
0100
1000
,
0001
0000
0010
0100
0000
1000
0010
0100
0001
0000
0100
0010
0000
1000
0100
0010
,
0001
0000
0010
0100
0000
1000
0100
0000
0010
0001
0000
1000
0001
0000
0000
0000
,
0001
0000
0010
0100
0000
1000
0100
0000
0010
0001
0000
0010
0001
0100
0010
1000
,
0001
0000
0010
0100
0000
1000
0100
0000
0010
0001
0000
1000
0010
0100
0001
0010
,
0100
0000
1000
0010
0000
0100
0001
0010
0100
0000
0010
0001
0000
1000
0100
0001
,
0010
0000
0100
1000
0000
0100
0010
0000
0010
0001
0000
0001
1000
0000
0000
0000
,
1000
0000
0100
0010
0000
0001
0010
0000
1000
0001
1000
0000
0010
0000
0100
0000
,
0001
0000
0010
0100
0000
1000
0100
0000
0001
1000
0001
0000
0100
0000
0010
0000
,
1000
0000
0100
0010
0000
0001
0010
0000
1000
0000
0010
0100
0000
0001
0100
0000
,
1000
0000
0100
0010
0000
0010
0001
0000
0001
0100
0000
0010
1000
0000
0000
0000
,
1000
0000
0100
0010
0000
0001
0010
0000
0010
0001
0000
0100
0010
0001
1000
0100
,
0010
0000
0001
0100
0000
1000
0100
0000
0010
0001
0000
1000
0100
0010
0100
1000
,
0010
0000
0001
0010
0000
0100
0001
0010
0100
0000
1000
0100
0000
0010
1000
0100
,
0010
0000
0001
0100
0000
1000
0010
0000
0001
0010
0000
1000
0100
0010
0001
0100
,
0010
0000
1000
0100
0000
0001
0010
0000
1000
0010
0000
0001
0100
1000
0100
0010
,
0001
0000
0100
0010
0000
0001
0010
0000
0010
0001
0000
1000
0100
0001
0010
0100
,
1000
0000
0010
0001
0000
1000
0010
0100
0010
0000
0001
0010
0000
0100
0010
0001
,
1000
0000
0100
0010
0000
0001
0010
0000
0100
0010
0000
0001
0010
1000
0100
0010
,
1000
0000
0100
0001
0000
0010
0100
0000
1000
0100
0000
0010
0001
0010
0100
0010
,
1000
0000
0001
0010
0000
0100
0010
0000
0010
0100
0000
1000
0010
0100
0001
0010
,
1000
0000
0100
0001
0000
0010
0100
0001
1000
0000
0100
0010
0000
0001
0010
0100
,
1000
0000
0010
0001
0000
0100
0010
0000
0100
1000
0000
0100
0010
0000
0000
0000
,
1000
0000
0100
0010
0000
0001
0010
0000
1000
0001
1000
0000
0100
0000
0010
0000
,
0001
0000
0010
0100
0000
1000
0100
0000
0001
1000
0001
0000
0010
0000
0100
0000
,
1000
0000
0100
0010
0000
0001
0010
0100
0001
0000
1000
0100
0000
0010
0100
1000
,
0001
0000
0010
0100
0000
1000
0100
0000
0010
0001
0000
0001
1000
0000
0000
0000
,
1000
0000
0100
0010
0000
0001
0010
0000
1000
0100
0000
0010
0001
0010
1000
0010
,
0100
0000
0001
0010
0000
0100
0010
0000
0010
0100
0000
1000
0100
0010
0001
0100
,
0010
0000
0001
0010
0000
1000
0100
0001
0010
0000
0100
1000
0000
0100
1000
0010
,
0001
0000
0100
0010
0000
0001
0100
0000
1000
0010
0000
0001
0100
1000
0001
0010
,
1000
0000
0000
0000
;
