#TITLE:The Quick Brown Fox.....;
#SUBTITLE:;
#ARTIST:Doin;
#TITLETRANSLIT:;
#SUBTITLETRANSLIT:;
#ARTISTTRANSLIT:;
#GENRE:;
#CREDIT:;
#MUSIC:The Quick Brown Fox.ogg;
#BANNER:The Quick Brown Fox-bn.png;
#BACKGROUND:The Quick Brown Fox-bg.png;
#CDTITLE:;
#SAMPLESTART:45.653;
#SAMPLELENGTH:22.069;
#SELECTABLE:YES;
#OFFSET:-0.308;
#BPMS:0.000=174.000;
#STOPS:;
#BGCHANGES:;
#FGCHANGES:;

//--------------- dance-single - ----------------
#NOTES:
     dance-single:
     :
     Beginner:
     2:
     0,0,0,0,0:
0000
0000
0000
0000
0000
0000
0000
1000
,
0000
0000
0000
0000
0000
0000
0000
0001
,
0000
0000
0000
0000
0000
0000
0000
1000
,
0000
0000
0000
0000
,
0000
0000
0000
0000
0000
0000
0000
0001
,
0000
0000
0000
0000
0000
0000
0000
1000
,
0000
0000
0000
0000
0000
0000
0000
0001
,
0000
0000
0000
0000
,
0000
0000
0000
0000
0000
0000
0000
1000
,
0000
0000
0000
0000
0000
0000
0000
0100
,
0000
0000
0000
0000
0000
0000
0000
0010
,
0000
0000
0000
0000
,
0000
0000
0000
0000
0000
0000
0000
0001
,
0000
0000
0000
0000
0000
0000
0000
0010
,
0000
0000
0000
0000
0000
0000
0000
0100
,
0000
0000
0000
0000
0000
0000
0000
1000
,
0000
0000
0000
0000
0000
0000
0000
1000
,
0000
0000
0000
0000
0000
0000
0000
0100
,
0000
0000
0000
0000
0000
0000
0000
0010
,
0000
0000
0000
0000
0000
0000
0000
0001
,
0000
0000
0000
0000
0000
0000
0000
1000
,
0000
0000
0000
0000
0000
0000
0000
0010
,
0000
0000
0000
0000
0000
0000
0000
0100
,
0000
0000
0000
0000
0000
0000
0000
0001
,
0000
0000
0000
0000
0000
0000
0000
1000
,
0000
0000
0000
0000
0000
0000
0000
0100
,
0000
0000
0000
0000
0000
0000
0000
0010
,
0000
0000
0000
0000
0000
0000
0000
0001
,
0000
0000
0000
0000
0000
0000
0000
1000
,
0000
0000
0000
0000
0000
0000
0000
0010
,
0000
0000
0000
0000
0000
0000
0000
0100
,
0000
0000
0000
0000
0000
0000
0000
0001
,
0000
0000
0000
0000
0000
0000
0000
1000
,
0000
0000
0000
1000
0000
0000
0000
0100
,
0000
0000
0000
0100
0000
0000
0000
0010
,
0000
0000
0000
0010
0000
0000
0000
0001
,
0000
0000
0000
0001
0000
0000
0000
1000
,
0000
0000
0000
1000
0000
0000
0000
0010
,
0000
0000
0000
0010
0000
0000
0000
0100
,
0000
0000
0000
0100
0000
0000
0000
0001
,
0000
0000
0000
0001
0000
0000
0000
1000
,
0000
0000
0000
0100
0000
0000
0000
0010
,
0000
0000
0000
0001
0000
0000
0000
1000
,
0000
0000
0000
0010
0000
0000
0000
0100
,
0000
0000
0000
0001
0000
0000
0000
1000
,
0000
0000
0000
0100
0000
0000
0000
0010
,
0000
0000
0000
0100
0000
0000
0000
1000
,
0000
0000
0000
0010
0000
0000
0000
0100
,
0000
0000
0000
0010
0000
0000
0000
1000
,
0000
0000
0000
0100
0000
0000
0000
1000
,
0000
0000
0000
0010
0000
0000
0000
1000
,
0000
0000
0000
0001
0000
0000
0000
1000
,
0000
0000
0000
0001
0000
0000
0000
1000
,
0000
0000
0000
0010
0000
0000
0000
1000
,
0000
0000
0000
0100
0000
0000
0000
1000
,
0000
0000
0000
0001
0000
0000
0000
1000
,
0000
0000
0000
1000
0000
0001
0000
1000
,
0000
0000
0000
0001
0000
0000
0000
1000
,
0000
0000
0000
0100
0000
0000
0000
1000
,
0000
0000
0000
0010
0000
0000
0000
1000
,
0000
0000
0000
0001
0000
0000
0000
1000
,
0000
0000
0000
0100
0000
0000
0000
1000
,
0000
0000
0000
0001
0000
0000
0000
1000
,
0000
0000
0000
0010
0000
0000
0000
1000
,
0000
0000
0000
1000
0000
0001
0000
1000
;

//--------------- dance-single - ----------------
#NOTES:
     dance-single:
     :
     Easy:
     4:
     0,0,0,0,0:
0000
0000
0000
0000
0000
0000
0000
1000
,
0000
0000
0000
0000
0000
0000
0000
0100
,
0000
0000
0000
0000
0000
0000
0000
0010
,
0000
0000
0000
0000
,
0000
0000
0000
0000
0000
0000
0000
0001
,
0000
0000
0000
0000
0000
0000
0000
0010
,
0000
0000
0000
0000
0000
0000
0000
0100
,
0000
0000
0000
0000
0000
0000
0000
1000
,
0000
0100
0000
0010
0000
0001
0000
1000
,
0000
0000
0000
0000
0000
0000
0000
0001
,
0000
0000
0000
0000
0000
0000
0000
0100
,
0000
0000
0000
0000
0000
0000
0000
0010
,
0000
0000
0000
0000
0000
0000
0000
1000
,
0000
0000
0000
0000
0000
0000
0000
0001
,
0000
0000
0000
0000
0000
0000
0000
0010
,
0000
0000
0000
0000
0000
0000
0000
0100
,
0000
0100
0000
0100
0000
0100
0000
1000
,
0000
1000
0000
0000
0000
0000
0000
0000
,
0000
0000
0000
0000
0000
0000
0000
0100
,
0000
0100
0000
0000
0000
0000
0000
0000
,
0000
0000
0000
0000
0000
0000
0000
0010
,
0000
0010
0000
0000
0000
0000
0000
0000
,
0000
0000
0000
0000
0000
0000
0000
0001
,
0000
0001
0000
0000
0000
0000
0000
0000
,
0000
0000
0000
0000
0000
0000
0000
1000
,
0000
1000
0000
0000
0000
0000
0000
0100
,
0000
0100
0000
0000
0000
0000
0000
0010
,
0000
0010
0000
0000
0000
0000
0000
0001
,
0000
0001
0000
0000
0000
0000
0000
1000
,
0000
1000
0000
0000
0000
0000
0000
0010
,
0000
0010
0000
0000
0000
0000
0000
0100
,
0000
0100
0000
0000
0000
0000
0000
0001
,
0000
0001
0000
0000
0000
0000
0000
1000
,
0000
0100
0000
0010
0000
0001
0000
1000
,
0000
0100
0000
0010
0000
0001
0000
1000
,
0000
0100
0000
0010
0000
0001
0000
1000
,
0000
0100
0000
0010
0000
0001
0000
1000
,
0000
0010
0000
0100
0000
0001
0000
1000
,
0000
0010
0000
0100
0000
0001
0000
1000
,
0000
0010
0000
0100
0000
0001
0000
1000
,
0000
0010
0000
0100
0000
0001
0000
1000
,
0000
0100
0000
0010
0000
0100
0000
1000
,
0000
0100
0000
0010
0000
0100
0000
1000
,
0000
0100
0000
0010
0000
0100
0000
1000
,
0000
0100
0000
0010
0000
0100
0000
1000
,
0000
0010
0000
0100
0000
0010
0000
1000
,
0000
0010
0000
0100
0000
0010
0000
1000
,
0000
0010
0000
0100
0000
0010
0000
1000
,
0000
0010
0000
0100
0000
0010
0000
1000
,
0000
0100
0000
0010
0000
0001
0000
1000
,
0000
0010
0000
0100
0000
0001
0000
1000
,
0000
0100
0000
0010
0000
0001
0000
1000
,
0000
0010
0000
0100
0000
0001
0000
1000
,
0000
0100
0000
0010
0000
0100
0000
1000
,
0000
0010
0000
0100
0000
0010
0000
1000
,
0000
0100
0000
0010
0000
0100
0000
1000
,
0000
0010
0000
0100
0000
0010
0000
1000
,
0000
0010
0000
0100
0000
0010
0000
1000
,
0000
0100
0000
0010
0000
0100
0000
1000
,
0000
0010
0000
0100
0000
0010
0000
1000
,
0000
0100
0000
0010
0000
0100
0000
1000
,
0000
0010
0000
0100
0000
0001
0000
1000
,
0000
0100
0000
0010
0000
0001
0000
1000
,
0000
0010
0000
0100
0000
0001
0000
1000
,
0000
0100
0000
0010
0000
0001
0000
0000
;

//--------------- dance-single - ----------------
#NOTES:
     dance-single:
     :
     Medium:
     7:
     0,0,0,0,0:
0000
0000
0000
0000
0000
0000
0000
1000
,
0000
1000
0000
0000
0000
0000
0000
0100
,
0000
0100
0000
0000
0000
0000
0000
0010
,
0000
0010
0000
0000
0000
0000
0000
0000
,
0000
0000
0000
0000
0000
0000
0000
0001
,
0000
0001
0000
0000
0000
0000
0000
0010
,
0000
0010
0000
0000
0000
0000
0000
0100
,
0000
0100
0000
0000
0000
0000
0000
1000
,
0000
0100
0000
0010
0000
0001
0000
1000
,
0000
1000
0000
1000
0000
1000
0000
0100
,
0000
0100
0000
0100
0000
0100
0000
0010
,
0000
0010
0000
0010
0000
0010
0000
0001
,
0000
0001
0000
0001
0000
0001
0000
1000
,
0000
1000
0000
1000
0000
1000
0000
0010
,
0000
0010
0000
0010
0000
0010
0000
0100
,
0000
0100
0000
0100
0000
0100
0000
0001
,
0000
0010
0000
0100
0000
1000
0000
1000
,
0000
0100
0000
0010
0000
0001
0000
1000
,
0000
0010
0000
0100
0000
0001
0000
1000
,
0000
0100
0000
0010
0000
0100
0000
1000
,
0000
0010
0000
0100
0000
0010
0000
1000
,
0000
0100
0000
0010
0000
0001
0000
1000
,
0000
0010
0000
0100
0000
0010
0000
1000
,
0000
0100
0000
0010
0000
0100
0000
1000
,
0000
0010
0000
0100
0000
0001
0000
1000
,
0000
0100
0000
0010
0000
0100
0000
1000
,
0000
0010
0000
0100
0000
0001
0000
1000
,
0000
0100
0000
0010
0000
0001
0000
1000
,
0000
0010
0000
0100
0000
0010
0000
1000
,
0000
0100
0000
0010
0000
0100
0000
1000
,
0000
0100
0000
0010
0000
0001
0000
1000
,
0000
0010
0000
0100
0000
0010
0000
1000
,
0000
0010
0000
0100
0000
0001
0000
1000
,
0100
0010
0001
0000
0000
0000
0000
1000
,
0100
0010
0001
0000
0000
0000
0000
1000
,
0100
0010
0001
0000
0000
0000
0000
1000
,
0100
0010
0001
1000
0010
0100
0001
1000
,
0010
0100
0001
0000
0000
0000
0000
1000
,
0010
0100
0001
0000
0000
0000
0000
1000
,
0010
0100
0001
0000
0010
0100
1000
0001
,
0000
0000
0000
1000
0001
1000
0001
1000
,
0010
0100
0001
0000
0000
0000
0000
1000
,
0010
0100
0001
0000
0000
0000
0000
1000
,
0010
0100
0001
0000
0000
0000
0000
1000
,
0010
0100
0001
1000
0100
0010
0001
1000
,
0100
0010
0001
0000
0000
0000
0000
1000
,
0100
0010
0001
0000
0000
0000
0000
1000
,
0100
0010
0001
0000
0100
0010
1000
0001
,
0000
0000
0000
1000
0001
1000
0001
1000
,
0100
0010
0001
0000
0000
0000
0000
1000
,
0100
0010
0001
0000
0000
0000
0000
1000
,
0100
0010
0001
0000
0000
0000
0000
1000
,
0100
0010
0001
1000
0010
0100
0001
1000
,
0010
0100
0001
0000
0000
0000
0000
1000
,
0010
0100
0001
0000
0000
0000
0000
1000
,
0010
0100
0001
0000
0010
0100
1000
0001
,
0000
0000
0000
1000
0001
1000
0001
1000
,
0010
0100
0001
0000
0000
0000
0000
1000
,
0010
0100
0001
0000
0000
0000
0000
1000
,
0010
0100
0001
0000
0000
0000
0000
1000
,
0010
0100
0001
1000
0100
0010
0001
1000
,
0100
0010
0001
0000
0000
0000
0000
1000
,
0100
0010
0001
0000
0000
0000
0000
1000
,
0100
0010
0001
0000
0100
0010
1000
0001
,
0000
0000
0000
1000
0001
1000
0001
1000
;

//--------------- dance-single - ----------------
#NOTES:
     dance-single:
     :
     Hard:
     10:
     0,0,0,0,0:
0000
0000
0000
0000
0000
0000
0000
1000
,
0000
1000
0000
0000
1000
0000
1000
0100
,
0000
0100
0000
0000
0100
0000
0100
0010
,
0000
0010
0000
0000
0010
0000
0010
0000
,
0010
0010
0000
0010
0000
0010
0010
0001
,
0000
0001
0000
0000
0001
0000
0001
0010
,
0000
0010
0000
0000
0010
0000
0010
0100
,
0000
0100
0000
0000
0100
0000
0100
1000
,
0100
0010
0001
1000
0100
0010
0001
1000
,
0000
1000
0000
0000
1000
0000
1000
1000
,
0000
0100
0000
0000
0100
0000
0100
0100
,
0000
0010
0000
0000
0010
0000
0010
0000
,
0010
0010
0000
0010
0000
0010
0010
0001
,
0000
0001
0000
0000
0001
0000
0001
0010
,
0000
0010
0000
0000
0010
0000
0010
0100
,
0000
0100
0000
0000
0100
0000
0100
1000
,
0010
0100
0001
1000
0010
0100
0001
1000
,
0000
1000
0000
0000
1000
0000
1000
0000
,
1000
1000
0000
1000
0000
1000
1000
0100
,
0000
0100
0000
0000
0100
0000
0100
0000
,
0100
0100
0000
0100
0100
0100
0100
0010
,
0000
0010
0000
0000
0010
0000
0010
0000
,
0010
0010
0000
0010
0000
0010
0010
0001
,
0000
0001
0000
0000
0001
0000
0001
0000
,
0001
0001
0000
0001
0001
0001
0001
1000
,
0000
1000
0000
0000
1000
0000
1000
0000
,
1000
1000
0000
1000
0000
1000
1000
0010
,
0000
0010
0000
0000
0010
0000
0010
0000
,
0010
0010
0000
0000
0010
0000
0010
0100
,
0000
0100
0000
0000
0100
0000
0100
0000
,
0100
0100
0000
0100
0000
0100
0100
0001
,
0000
0001
0000
0000
0001
0000
0001
0000
,
0001
0001
0000
0000
0001
0000
0001
1000
,
0100
0010
0001
0000
0000
0000
0000
1000
,
0100
0010
0001
0000
0000
0000
0000
1000
,
0100
0010
0001
0000
0000
0000
0000
1000
,
0100
0000
0010
0000
0001
0000
1000
0100
0010
0001
1000
0000
0001
0000
1000
0000
,
0010
0100
0001
0000
0000
0000
0000
1000
,
0010
0100
0001
0000
0000
0000
0000
1000
,
0010
0100
0001
0000
0010
0100
1000
0001
,
0000
0000
0000
0000
0000
0000
1000
0100
0010
0001
1000
0100
0010
0001
1000
0000
,
0010
0100
0001
0000
0000
0000
0000
1000
,
0010
0100
0001
0000
0000
0000
0000
1000
,
0010
0100
0001
0000
0000
0000
0000
1000
,
0010
0000
0100
0000
0001
0000
1000
0100
0010
0001
1000
0000
0001
0000
1000
0000
,
0100
0010
0001
0000
0000
0000
0000
1000
,
0100
0010
0001
0000
0000
0000
0000
1000
,
0100
0010
0001
0000
0100
0010
1000
0001
,
0000
0000
0000
0000
0000
0000
1000
0010
0100
0001
1000
0010
0100
0001
1000
0000
,
0100
0010
0100
0000
0000
0000
0000
1000
,
0100
0010
0100
0000
0000
0000
0000
1000
,
0100
0010
0100
0000
0000
0000
0000
1000
,
0100
0000
0010
0000
0100
0000
1000
0100
0010
0001
1000
0000
0001
0000
1000
0000
,
0010
0100
0010
0000
0000
0000
0000
1000
,
0010
0100
0010
0000
0000
0000
0000
1000
,
0010
0100
0010
0000
1000
0100
0010
0001
,
0000
0000
0000
0000
0000
0000
1000
0010
0100
0001
1000
0010
0100
0001
1000
0000
,
0010
0100
0010
0000
0000
0000
0000
1000
,
0010
0100
0010
0000
0000
0000
0000
1000
,
0010
0100
0010
0000
0000
0000
0000
1000
,
0010
0000
0100
0000
0010
0000
1000
0010
0100
0001
1000
0000
0001
0000
1000
0000
,
0100
0010
0100
0000
0000
0000
0000
1000
,
0100
0010
0100
0000
0000
0000
0000
1000
,
0100
0010
0100
0000
1000
0010
0100
0001
,
0000
0000
0000
0000
0000
0000
1000
0100
0010
0001
1000
0100
0010
0001
1000
0000
;

//--------------- dance-single - ----------------
#NOTES:
     dance-single:
     :
     Challenge:
     11:
     0,0,0,0,0:
0000
0000
0000
0000
0000
0000
0000
1000
,
0000
0100
0000
0000
0100
0000
0100
1000
,
0000
0010
0000
0000
0010
0000
0010
1000
,
0000
0001
0000
0000
0001
0000
0001
0000
,
1000
0001
0000
0001
0000
1000
0001
1000
,
0000
0001
0000
0000
0001
0000
0001
1000
,
0000
0010
0000
0000
0010
0000
0010
1000
,
0000
0100
0000
0000
0100
0000
0100
1000
,
0100
0010
0001
1000
0100
0010
0001
1000
,
0000
0100
0000
0000
0010
0000
0010
0100
,
0000
1000
0000
0000
0001
0000
0001
0010
,
0000
0001
0000
0000
0100
0000
0100
1000
,
0100
0010
0000
1000
0000
0010
0001
1000
,
0000
0010
0000
0000
0100
0000
0001
1000
,
0000
0010
0000
0000
0100
0000
0001
1000
,
0000
0100
0000
0000
0010
0000
0001
1000
,
0010
0100
0001
1000
0100
0010
0001
1000
,
0000
0100
0000
0000
0100
0000
0100
0000
,
0010
0100
0000
0100
0000
0100
0100
0001
,
0000
1000
0000
0000
1000
0000
1000
1000
,
0100
0010
0001
1000
0010
0100
0001
0100
,
0000
0001
0000
0000
0001
0000
0001
0000
,
0100
0001
0000
0001
0000
0001
0001
0100
,
0000
0010
0000
0000
0010
0000
0010
0000
,
0100
0010
0000
0010
0010
0000
0001
1000
,
0000
0010
0000
0000
0100
0000
0001
0000
,
0010
0100
0000
1000
0000
0100
0001
1000
,
0000
0010
0000
0000
0100
0000
0001
1000
,
0100
0010
0001
1000
0010
0100
0001
1000
,
0000
0010
0000
0000
0100
0000
0100
1000
,
0100
0010
0000
1000
0000
0010
0100
1000
,
0000
0100
0000
0000
0010
0000
0010
1000
,
0010
0100
0000
0000
0010
0000
0010
1000
,
0100
0000
0010
0000
0001
0100
0001
0100
0010
0000
0100
0000
1000
0000
0001
0000
,
0010
0000
0100
0000
1000
0010
1000
0010
0100
0000
0010
0000
0001
0000
1000
0000
,
0010
0000
0100
0000
0001
0010
0001
0010
0100
0000
0010
0000
1000
0000
0001
0000
,
0100
0000
0010
0000
1000
0100
1000
0100
0010
0001
1000
0000
0001
0000
1000
0000
,
0100
0000
0010
0000
0001
0100
0001
0100
0001
0000
0010
0000
0100
0000
1000
0000
,
0010
0000
0100
0000
0001
0010
0001
0010
0001
0000
0100
0000
0010
0000
1000
0000
,
0100
0000
0010
0000
0001
1000
0001
1000
0001
0000
0010
0000
0100
0000
1000
0000
,
0001
0000
0100
0010
0100
0010
1000
0100
0010
0001
1000
0100
0010
0001
1000
0000
,
0010
0000
0100
0000
0001
0010
0001
0010
0001
0000
0100
0000
0010
0000
1000
0000
,
0010
0000
0100
0000
0001
0100
0001
0100
0001
0000
0100
0000
0010
0000
1000
0000
,
0010
0000
0100
0000
0001
1000
0001
1000
0001
0000
0100
0000
0010
0000
1000
0000
,
0100
0000
0010
0001
0010
0001
1000
0100
0010
0001
1000
0000
0001
0000
1000
0000
,
0100
0000
0010
0000
0001
0100
0001
0100
0001
0000
0010
0000
0100
0000
1000
0000
,
0100
0000
0010
0000
0001
0010
0001
0010
0001
0000
0010
0000
0100
0000
1000
0000
,
0100
0000
0010
0000
0001
1000
0001
1000
0001
0000
0010
0000
0100
0000
1000
0000
,
0010
0000
0100
0010
0100
0010
1000
0100
0010
0001
1000
0100
0010
0001
1000
0000
,
0100
0000
0010
0000
0001
0100
0001
0100
0001
0000
0100
0000
0010
0000
1000
0000
,
0100
0000
0010
0000
0001
0010
0001
0010
0001
0000
0100
0000
0010
0000
1000
0000
,
0100
0000
0010
0000
0001
1000
0001
1000
0001
0000
0100
0000
0010
0000
1000
0000
,
0100
0000
0010
0001
0010
0001
1000
0010
0100
0001
0010
0000
0001
0000
1000
0000
,
0010
0000
0100
0000
0001
0010
0001
0010
0001
0000
0010
0000
0100
0000
1000
0000
,
0010
0000
0100
0000
0001
0100
0001
0100
0001
0000
0010
0000
0100
0000
1000
0000
,
0010
0000
0100
0000
0001
1000
0001
1000
0001
0000
0010
0000
0100
0000
1000
0000
,
0100
0000
0010
0100
0010
0100
1000
0010
0100
0001
1000
0010
0100
0001
1000
0000
,
0100
0000
0010
0000
0100
1000
0100
1000
0100
0000
0010
0000
0100
0000
1000
0000
,
0100
0000
0010
0000
0100
0010
0100
0010
0100
0000
0010
0000
0100
0000
1000
0000
,
0100
0000
0010
0000
0100
0001
0100
0001
0100
0000
0010
0000
0100
0000
1000
0000
,
0100
0000
0010
0001
0010
0001
1000
0010
0100
0001
0010
0001
0100
0001
1000
0000
,
0010
0000
0100
0000
0010
1000
0010
1000
0010
0000
0100
0000
0010
0000
1000
0000
,
0010
0000
0100
0000
0010
0100
0010
0100
0010
0000
0100
0000
0010
0000
1000
0000
,
0010
0000
0100
0000
0010
0001
0010
0001
0010
0000
0100
0000
0010
0000
1000
0000
,
0010
0000
0100
0010
0100
0010
1000
0100
0010
0001
1000
0100
0010
0001
1000
0000
;
