#TITLE:The Quick Brown Fox Jumps Over The Lazy Dog;
#SUBTITLE:;
#ARTIST:Doin;
#TITLETRANSLIT:;
#SUBTITLETRANSLIT:;
#ARTISTTRANSLIT:;
#GENRE:;
#CREDIT:;
#MUSIC:The Quick Brown Fox Jumps Over The Lazy Dog.ogg;
#BANNER:The Quick Brown Fox Jumps Over The Lazy Dog-bn.png;
#BACKGROUND:The Quick Brown Fox Jumps Over The Lazy Dog-bg.png;
#CDTITLE:;
#SAMPLESTART:12.071;
#SAMPLELENGTH:19.200;
#SELECTABLE:YES;
#OFFSET:1.129;
#BPMS:0.000=25.000
,5.000=50.000
,6.000=200.000
,70.000=50.000
,78.000=200.000
,142.000=100.000
,158.000=200.000
,190.000=50.000
,192.000=200.000
,248.000=25.000
;
#STOPS:;
#BGCHANGES:1.129=The Quick Brown Fox Jumps Over The Lazy Dog.avi=1.000=0=0=0=StretchNoLoop====,
99999.000=-nosongbg-=1.000=0=0=0=StretchNoLoop====;
#FGCHANGES:;

//--------------- dance-single - ----------------
#NOTES:
     dance-single:
     :
     Beginner:
     2:
     0,0,0,0,0:
0000
0000
0000
1000
0100
0010
0001
1000
,
0100
0010
0001
0000
2002
0000
0000
0000
,
3003
0000
0000
0000
,
0000
0000
2002
0000
,
3003
0000
0000
0000
,
0000
0000
2002
0000
,
3003
0000
0000
0000
,
0000
0000
2002
0000
,
3003
0000
0000
0000
,
0000
0000
2002
0000
,
3003
0000
0000
0000
,
0000
0000
2002
0000
,
3003
0000
0000
0000
,
0000
0000
2002
0000
,
3003
0000
0000
0000
,
0000
0000
2002
0000
,
3003
0000
0000
0000
,
0000
0000
0000
0000
2000
3000
0200
0300
,
0020
0030
0002
0003
2000
3000
0200
0300
,
0020
0030
0002
0003
1000
0000
0000
0000
,
0010
0000
1000
0000
,
0010
0000
0100
0000
,
0001
0000
0100
0000
,
0001
0000
1000
0000
,
0100
0000
1000
0000
,
0100
0000
0010
0000
,
0001
0000
0010
0000
,
0001
0000
1000
0000
,
0010
0000
1000
0000
,
0100
0000
1000
0000
,
0010
0000
0100
0000
,
0001
0000
0100
0000
,
0001
0000
0010
0000
,
0001
0000
0100
0000
,
0001
0000
1000
0000
,
0010
0000
2000
3000
,
0000
0000
0000
0000
,
0000
0000
0002
0003
,
0000
0000
0000
0000
,
0000
0000
1000
0000
,
0000
0000
0100
0000
,
0000
0000
0010
0000
,
0000
0000
0001
0000
,
0000
0000
1000
0000
,
0000
0000
0010
0000
,
0000
0000
0100
0000
,
0000
0000
0001
0000
,
0000
0000
0002
0003
,
1000
0000
0001
0000
,
1000
0100
0010
0001
,
1000
0000
0001
0000
,
0100
0000
0010
0000
,
1000
0000
0001
0000
,
1000
0000
1000
0001
,
1000
0000
0000
0000
,
0100
0000
0000
0000
,
0010
0000
0000
0000
,
0001
0000
0000
0000
,
0100
0000
0000
0000
,
0010
0000
0000
0000
,
1000
0000
0000
0000
,
0001
0000
1000
0001
,
1000
0100
0010
0001
1000
0100
0010
0000
;

//--------------- dance-single - ----------------
#NOTES:
     dance-single:
     :
     Easy:
     6:
     0,0,0,0,0:
0000
0000
0000
0000
0000
0000
0000
0000
0000
0000
0000
0000
1000
0100
0000
0000
0010
0001
0000
0000
1000
0010
0000
0000
0100
0001
0000
0000
1000
0100
0000
0000
,
0010
0001
0000
0000
1000
0010
0000
0000
0100
0000
0001
0000
0000
0000
0000
0000
2002
0000
0000
0000
0000
0000
0000
0000
0000
0000
0000
0000
0000
0000
0000
0000
,
3003
0000
0001
0000
,
0000
0000
2002
0000
,
3003
0000
1000
0000
,
0000
0000
2002
0000
,
3003
0000
0001
0000
,
0000
0000
2002
0000
,
3003
0000
1000
0000
,
0000
0000
2002
0000
,
3003
0000
0001
0000
,
0000
0000
2002
0000
,
3003
0000
1000
0000
,
0000
0000
2002
0000
,
3003
0000
0001
0000
,
0000
0000
2002
0000
,
3003
0000
1000
0000
,
0000
0000
0000
0000
2000
3000
0200
0300
,
0020
0030
0002
0003
2000
3000
0200
0300
,
0020
0030
0002
0003
1000
0000
0100
0000
,
1000
0100
0010
0001
,
0010
0001
1000
0010
,
1000
0010
0100
0001
,
0100
0001
1000
0100
,
0010
0001
1000
0010
,
0100
0001
1000
0100
,
0010
0001
1000
0001
,
1000
0001
1000
0100
,
1000
0100
0010
0001
,
0010
0001
1000
0010
,
1000
0010
0100
0001
,
0100
0001
1000
0100
,
0010
0001
1000
0010
,
0100
0001
1000
0100
,
0010
0001
1000
0001
,
1000
0001
2000
3000
,
0000
0000
0200
0300
,
0000
0000
0020
0030
,
0000
0000
0002
0003
,
0000
0000
1001
0110
,
0000
0110
0110
1001
,
0000
1001
1001
0110
,
0000
0110
0110
1001
,
0000
1001
1001
0110
,
0000
0110
0110
1001
,
0000
1001
1001
0110
,
0000
0110
0110
1001
,
0000
0000
1001
0000
2000
3000
0002
0003
,
1000
0100
0010
0001
,
1000
0010
0100
0001
,
1000
0100
0010
0100
,
1000
0100
0010
0100
,
1000
0100
0010
0100
,
1000
0000
0001
0000
1000
0001
1000
0000
,
0001
0010
0100
1000
,
0001
0100
0010
1000
,
0001
0010
0100
0010
,
0001
0010
0100
0010
,
0001
0010
0100
0010
,
0001
0010
0100
0010
,
0001
0010
0100
0010
,
0001
0000
1000
0000
0001
1000
0001
0000
,
1000
0100
0000
0000
0010
0001
0000
0000
1000
0010
0000
0000
0100
0001
0000
0000
1000
0100
0000
0000
0010
0001
0000
0000
1000
0010
0000
0000
0000
0000
0000
0000
;

//--------------- dance-single - ----------------
#NOTES:
     dance-single:
     :
     Medium:
     8:
     0,0,0,0,0:
0000
0000
0000
0000
0000
0000
0000
0000
0000
0000
0000
0000
1000
0100
0000
0000
0010
0001
0000
0000
1000
0010
0000
0000
0100
0001
0000
0000
1000
0100
0000
0000
,
0010
0001
0000
0000
1000
0010
0000
0000
0100
0000
0001
0000
0000
0000
0000
0000
2002
0000
0000
0000
0000
0000
0000
0000
0000
0000
0000
0000
0000
0000
0000
0000
,
3003
0000
2000
0000
,
3002
0000
0000
0000
0000
0000
0000
0000
0000
0000
0000
0000
0000
0000
0000
0000
0000
0000
0000
0000
0000
0000
0000
0000
0000
0000
0000
0000
0000
0000
0000
0003
2002
0000
0000
0000
0000
0000
0000
0000
0000
0000
0000
0000
0000
0000
0000
0000
0000
0000
0000
0000
0000
0000
0000
0000
0000
0000
0000
0000
0000
0000
0000
0000
,
3003
0000
0002
0000
,
2003
0000
0000
0000
0000
0000
0000
0000
0000
0000
0000
0000
0000
0000
0000
0000
0000
0000
0000
0000
0000
0000
0000
0000
0000
0000
0000
0000
0000
0000
0000
3000
2002
0000
0000
0000
0000
0000
0000
0000
0000
0000
0000
0000
0000
0000
0000
0000
0000
0000
0000
0000
0000
0000
0000
0000
0000
0000
0000
0000
0000
0000
0000
0000
,
3003
0000
2000
0000
,
3002
0000
0000
0000
0000
0000
0000
0000
0000
0000
0000
0000
0000
0000
0000
0000
0000
0000
0000
0000
0000
0000
0000
0000
0000
0000
0000
0000
0000
0000
0000
0003
2002
0000
0000
0000
0000
0000
0000
0000
0000
0000
0000
0000
0000
0000
0000
0000
0000
0000
0000
0000
0000
0000
0000
0000
0000
0000
0000
0000
0000
0000
0000
0000
,
3003
0000
0002
0000
,
2003
0000
0000
0000
0000
0000
0000
0000
0000
0000
0000
0000
0000
0000
0000
0000
0000
0000
0000
0000
0000
0000
0000
0000
0000
0000
0000
0000
0000
0000
0000
3000
2002
0000
0000
0000
0000
0000
0000
0000
0000
0000
0000
0000
0000
0000
0000
0000
0000
0000
0000
0000
0000
0000
0000
0000
0000
0000
0000
0000
0000
0000
0000
0000
,
3003
0000
2000
0000
,
3002
0000
0000
0000
0000
0000
0000
0000
0000
0000
0000
0000
0000
0000
0000
0000
0000
0000
0000
0000
0000
0000
0000
0000
0000
0000
0000
0000
0000
0000
0000
0003
2002
0000
0000
0000
0000
0000
0000
0000
0000
0000
0000
0000
0000
0000
0000
0000
0000
0000
0000
0000
0000
0000
0000
0000
0000
0000
0000
0000
0000
0000
0000
0000
,
3003
0000
0002
0000
,
2003
0000
0000
0000
0000
0000
0000
0000
0000
0000
0000
0000
0000
0000
0000
0000
0000
0000
0000
0000
0000
0000
0000
0000
0000
0000
0000
0000
0000
0000
0000
3000
2002
0000
0000
0000
0000
0000
0000
0000
0000
0000
0000
0000
0000
0000
0000
0000
0000
0000
0000
0000
0000
0000
0000
0000
0000
0000
0000
0000
0000
0000
0000
0000
,
3003
0000
2000
0000
,
3002
0000
0000
0000
0000
0000
0000
0000
0000
0000
0000
0000
0000
0000
0000
0000
0000
0000
0000
0000
0000
0000
0000
0000
0000
0000
0000
0000
0000
0000
0000
0003
2002
0000
0000
0000
0000
0000
0000
0000
0000
0000
0000
0000
0000
0000
0000
0000
0000
0000
0000
0000
0000
0000
0000
0000
0000
0000
0000
0000
0000
0000
0000
0000
,
3003
0000
0002
0000
,
2003
0000
0000
0000
0000
0000
0000
0000
0000
0000
0000
0000
0000
0000
0000
0000
0000
0000
0000
0000
0000
0000
0000
0000
0000
0000
0000
0000
0000
0000
0000
3000
2000
0000
0000
0000
0000
0000
0000
0000
3000
0000
0000
0000
0000
0000
0000
0000
0200
0000
0000
0000
0000
0000
0000
0000
0300
0000
0000
0000
0000
0000
0000
0000
,
0020
0030
0002
0003
0020
0030
0200
0300
,
2000
3000
0002
0003
1000
0000
0100
0000
,
0010
0100
1000
0100
,
0010
0000
0001
0010
0100
1000
0001
1000
,
0001
0010
0100
1000
,
0100
0010
0001
0100
,
0010
1000
0010
0100
,
0001
0000
1000
0100
0010
0001
0100
0010
,
1000
0001
0100
0010
,
0100
0010
1000
0100
,
0010
0001
1000
0010
,
0100
0001
1000
0100
,
0010
0000
0100
0000
1000
1000
0100
0100
,
0010
0010
0001
0001
1000
0000
0010
0000
,
0100
0001
1000
0100
,
0010
0001
1000
0010
,
0100
0010
1000
0100
,
0010
0001
2000
3000
,
0000
0000
0002
0003
,
0000
0000
2000
3000
,
0000
0000
0002
0003
,
0000
0000
1001
1100
,
1000
1100
1000
1010
,
1000
1010
0001
0011
,
0001
0011
0001
0101
,
0001
0101
0100
0110
,
0100
0110
0100
0101
,
0100
0101
0100
1100
,
0100
1100
1001
1001
,
1001
0000
1001
0000
2000
3000
0002
0003
,
1000
0100
0010
0001
1000
0100
0010
0001
,
1000
0001
1000
0001
1000
0001
1000
0000
,
1000
0100
0010
0001
0000
0000
0000
0000
,
1000
0100
0010
0001
0000
0000
0000
0000
,
1000
0100
0010
0001
0000
0100
0010
1000
,
0001
0000
0000
0000
1000
0001
1000
0000
,
1000
0010
0100
0001
0000
0000
0000
0000
,
1000
0010
0100
0001
0000
0000
0000
0000
,
1000
0010
0100
0001
0000
0000
0000
0000
,
1000
0010
0100
0001
1000
0001
1000
0000
,
1000
0100
0010
0001
0000
0000
0000
0000
,
1000
0100
0010
0001
0000
0000
0000
0000
,
1000
0100
0010
0001
0000
0100
0010
1000
,
0001
0010
0100
1000
0001
0010
0100
1000
,
1000
0100
0000
0000
0010
0001
0000
0000
1000
0010
0000
0000
0100
0001
0000
0000
1000
0100
0000
0000
0010
0001
0000
0000
1000
0010
0000
0000
0000
0000
0000
0000
;

//--------------- dance-single - ----------------
#NOTES:
     dance-single:
     :
     Hard:
     10:
     0,0,0,0,0:
0000
0000
0000
0000
0000
0000
0000
0000
0000
0000
0000
0000
0000
0000
0000
0000
0000
0000
0000
0000
0000
0000
0000
0000
1000
0000
0100
0000
0000
0010
0001
0010
0001
0000
0010
0000
0000
0100
1000
0100
1000
0000
0100
0000
0000
0010
0100
0010
0100
0000
1000
0001
1000
0001
1000
0001
1000
0000
0010
0000
0000
0100
0001
0100
,
0001
0000
0100
0000
0000
0010
1000
0010
1000
0000
0010
0000
0000
0100
0010
0100
0010
0000
0000
0000
1000
0000
0001
0000
1000
0000
0001
0000
1000
0000
0001
0000
2002
0000
0000
0000
0000
0000
0000
0000
0000
0000
0000
0000
0000
0000
0000
0000
0000
0000
0000
0000
0000
0000
0000
0000
3003
0000
0000
0000
0000
0000
0000
0000
,
1100
0000
0000
0010
0110
0000
0011
0000
,
1001
0000
0000
0000
0220
0000
0000
0330
,
0101
0000
0000
0001
1001
0000
1010
0000
,
0110
0000
0011
0001
2002
0000
0000
3003
,
1010
0000
0000
0010
0110
0000
0011
0000
,
1001
0000
0000
0000
0220
0000
0000
0330
,
0101
0000
0000
0100
0110
0000
1100
0000
,
1001
0000
1000
0001
1000
0000
0001
0000
1000
0000
0000
0000
0001
0000
0000
0000
,
1000
0100
0010
0001
1000
0010
0100
0001
,
1000
0100
0010
0001
1000
0001
1000
0001
,
1000
0100
0010
0001
1001
0000
1001
0000
,
0000
0000
0000
0000
2002
0000
0000
3003
,
0000
0000
2000
0000
3000
0000
2000
3000
2000
0000
0000
0000
0000
0000
3000
0000
,
2000
0000
0000
3000
2002
0000
0000
3003
,
0000
0000
0002
0000
0003
0000
0002
0003
0002
0000
0000
0000
0000
0000
0003
0000
,
0002
0000
0000
0003
2000
3000
0200
0300
,
0020
0030
0002
2003
3002
0003
0020
0030
,
0200
0000
0000
0000
0000
0000
0000
0000
0300
0000
0000
0000
0000
0000
0000
0000
2000
0000
0000
0000
3000
0000
0000
0000
1000
0100
0010
0001
1000
0100
0010
0001
1000
0000
0000
0000
0000
0000
0000
0000
0100
0000
0000
0000
0000
0000
0000
0000
1000
0000
0000
0000
0000
0000
0000
0000
0100
0000
0000
0000
0000
0000
0000
0000
,
1000
0100
1000
0100
0010
0001
0010
0001
,
0010
0001
0010
0001
1000
0001
1000
0001
,
1000
0001
1000
0001
1000
1000
1000
1000
,
1000
0100
0010
0001
1000
0010
1000
0010
,
1000
0010
1000
0010
0100
0001
0100
0001
,
0100
0001
0100
0001
0100
0010
0100
0010
,
0100
0010
0100
0010
1000
0100
0010
0001
,
1000
0001
1000
0001
1100
0100
1000
0100
,
1000
0100
1000
0100
1001
0001
1000
0001
,
1000
0001
1000
0001
0101
0001
0100
0001
,
0100
0001
0100
0001
0110
0010
0100
0010
,
0100
0010
0100
0010
1000
0100
0010
0001
,
1000
0010
0100
0001
1000
0100
0010
0100
,
1000
0010
0100
0010
1000
0100
0010
0001
,
0100
0010
1000
0001
1001
1000
1001
0001
,
1000
0000
0000
0000
0110
0000
0000
0000
0110
0000
0000
0000
0110
0000
0000
0000
2000
0000
0000
0000
0000
0000
3000
0000
0000
0000
0200
0000
0300
0000
0020
0030
,
0002
0000
0000
0000
0000
0000
0003
0000
0002
0000
0000
0000
0000
0000
0003
0000
2000
0000
0000
0000
0000
0000
3000
0000
0000
0000
0020
0000
0030
0000
0200
0300
,
0002
0000
0000
0000
0000
0000
0003
0000
0002
0000
0000
0000
0000
0000
0003
0000
2000
0000
0000
0000
0000
0000
3000
0000
0000
0000
0200
0000
0300
0000
0020
0030
,
0200
0000
0000
0000
0000
0000
0300
0000
2000
0000
0000
0000
0000
0000
3000
0000
0002
0000
0000
0000
0000
0000
0003
0000
0000
0000
0200
0000
0300
0000
0020
0030
,
0200
0000
0000
0300
0002
0000
0000
0003
1001
0000
0000
0000
0110
0000
0000
0000
,
0000
0010
0110
0100
1100
0000
1001
0000
,
0000
0100
0110
0010
0011
0000
1001
0000
,
0000
0100
0110
0010
1010
1000
1100
0100
,
0000
0001
0011
0001
1001
0000
0110
0000
,
0000
1000
1001
0001
0011
0000
0110
0000
,
0000
0001
1001
1000
1010
0000
0110
0000
,
0000
0001
1001
1000
1100
0100
0101
0001
,
0000
0010
0110
0100
2000
3000
0002
0003
,
1000
0100
1000
0100
1000
0000
0100
0000
0000
0000
0100
0000
0000
0000
0100
0000
,
0010
0001
0000
0100
0000
0100
1001
1001
,
1001
0000
0000
0110
0000
0110
0000
0001
,
1000
0000
0100
0000
0010
0000
0001
0000
0100
0000
0010
0000
1000
0001
1000
0001
,
1000
0100
0010
0001
0000
0100
0010
1000
,
0001
0000
0001
0000
1000
0000
1000
0000
1000
0100
0010
0001
1000
0100
0010
0001
,
1000
0100
0010
0001
0000
0110
0000
0110
,
0001
0000
0010
0000
0100
0000
1000
0000
0000
0000
0110
0000
1000
0001
1000
0001
,
1000
0100
0010
0001
0000
0110
0000
0110
,
1000
0000
0010
0000
0100
0000
0001
0000
1000
0100
0010
0001
1000
0000
0001
0000
,
1000
0010
0100
0001
1000
0100
0010
0001
,
0001
0000
0100
0000
0010
0000
1000
0000
0001
0000
0010
0000
0100
1000
0100
1000
,
0001
0010
0100
1000
0000
0010
0100
0001
,
1000
0000
1000
0000
0001
0000
0001
0000
1000
0100
0010
0001
1000
0100
0010
0001
,
1000
0000
0100
0000
0000
0010
0001
0010
0001
0000
0010
0000
0000
0100
1000
0100
1000
0000
0100
0000
0000
0010
0100
0010
0100
0000
1000
0001
1000
0001
1000
0001
1000
0000
0010
0000
0000
0100
0001
0100
0001
0000
0100
0000
0000
0010
1000
0010
1000
0000
0010
0000
0000
0000
0000
0000
0000
0000
0000
0000
0000
0000
0000
0000
;

//--------------- dance-single - ----------------
#NOTES:
     dance-single:
     :
     Challenge:
     13:
     0,0,0,0,0:
0000
0000
0000
0000
0000
0000
0000
0000
0000
0000
0000
0000
0000
0000
0000
0000
0000
0000
0000
0000
0000
0000
0000
0000
1000
0000
0100
0000
0000
0010
0001
0010
0001
0000
0010
0000
0000
0100
1000
0100
1000
0000
0100
0000
0000
0010
0100
0010
0100
0000
1000
0001
1000
0001
1000
0001
1000
0000
0010
0000
0000
0100
0001
0100
,
0001
0000
0100
0000
0000
0010
1000
0010
1000
0000
0010
0000
0000
0100
0010
0100
0010
0000
0000
0000
1000
0000
0001
0000
1000
0000
0001
0000
1000
0000
0001
0000
2002
0000
0000
0000
0000
0000
0000
0000
0000
0000
0000
0000
0000
0000
0000
0000
0000
0000
0000
0000
0000
0000
0000
0000
0000
0000
0000
0000
0000
0000
0000
0000
,
3003
0000
0220
0000
0330
0000
2020
3030
2020
0000
0000
0000
0000
0000
3030
0000
,
0022
0000
0000
0033
0220
0000
0000
0330
,
0000
0000
2002
0000
3003
0000
0202
0303
0202
0000
0000
0000
0000
0000
0303
0000
,
2200
0000
0000
3300
2002
0000
0000
3003
,
0000
0000
0220
0000
0330
0000
2200
3300
2200
0000
0000
0000
0000
0000
3300
0000
,
0202
0000
0000
0303
0220
0000
0000
0330
,
0000
0000
2002
0000
3003
0000
0022
0033
0022
0000
0000
0000
0000
0000
0033
0000
,
2020
3030
0100
0001
0101
0000
0010
0000
2002
0000
0000
0000
0000
0000
3003
0000
,
0000
0000
0220
0000
0330
0000
2200
3300
0202
0000
0000
0000
0000
0000
0303
0000
,
2200
0000
0000
3300
0220
0000
0000
0330
,
0000
0000
2002
0000
3003
0000
0022
0033
2020
0000
0000
0000
0000
0000
3030
0000
,
0022
0000
0000
0033
2002
0000
0000
3003
,
0000
0000
0220
0000
0330
0000
2020
3030
0022
0000
0000
0000
0000
0000
0033
0000
,
2020
0000
0000
3030
0220
0000
0000
0330
,
0000
0000
2002
0000
3003
0000
0202
0303
2200
0000
0000
0000
0000
0000
3300
0000
,
0202
0000
0000
0000
0000
0000
0000
0000
0000
0000
0000
0000
0303
0000
0000
0000
1000
0100
0010
0001
0000
0000
0000
0000
0001
0010
0100
1000
0000
0000
0000
0000
,
1000
0010
0100
0001
0000
0000
0000
0000
0001
0100
0010
1000
0001
1000
0001
0000
1000
0010
0100
0001
0000
0000
0000
0000
0001
0010
0100
1000
0000
0000
0000
0000
,
1000
0000
0100
0000
0010
0000
0001
0000
0000
0000
0100
0000
0010
0000
1000
0000
0001
0000
0000
0000
0010
0000
0100
0000
1000
0100
0010
0001
1000
0100
0010
0001
1001
0000
0000
0000
0000
0000
0000
0000
0000
0000
0000
0000
0000
0000
0000
0000
1001
0000
0000
0000
0000
0000
0000
0000
0110
0000
0000
0000
0000
0000
0000
0000
,
0000
0110
0011
0011
1001
0000
0000
0110
,
0000
0000
1000
0100
0010
0001
0010
0100
1000
0010
0100
0010
1000
0100
0010
0001
,
0100
0110
0000
0110
0110
0110
0000
0110
,
0000
1001
1010
1010
1001
0000
0000
1001
,
0000
1001
0000
0110
0110
0000
0000
0110
,
0000
0000
1000
0010
0100
0001
0100
0010
1000
0100
0010
0100
1000
0010
0100
0001
,
0010
0110
0000
0110
0000
0110
0000
1001
,
0000
1001
1001
1001
1001
0000
0000
1010
,
0000
1010
0000
1010
1010
0000
0000
0011
,
0000
0000
0001
0010
0100
1000
0100
0010
0001
0100
0010
0100
0001
0010
0100
1000
,
0010
0110
0000
0110
0110
0110
0000
1001
,
0000
1001
0000
0000
1001
0000
0000
0011
,
0000
0011
0000
1010
1010
0000
0000
0110
,
0000
0000
0001
0100
0010
1000
0010
0100
0001
0010
0100
0010
0001
0100
0010
1000
,
0100
0110
0000
0110
0000
0110
0000
0110
,
0000
0000
0000
0000
1001
0000
0000
0000
1001
0000
0000
0000
1001
0000
0000
0000
2000
0000
0000
0000
0000
0000
3000
0000
0000
0000
0200
0000
0300
0000
0020
0030
,
0002
0000
0000
0000
0000
0000
0003
0000
0020
0000
0000
0000
0000
0000
0030
0000
0200
0000
0000
0000
0000
0000
0300
0000
0000
0000
2000
0000
3000
0000
0020
0030
,
0200
0000
0000
0000
0000
0000
0300
0000
0002
0000
0000
0000
0000
0000
0003
0000
0020
0000
0000
0000
0000
0000
0030
0000
0000
0000
0200
0000
0300
0000
0020
0030
,
0002
0000
0000
0000
0000
0000
0003
0000
0200
0000
0000
0000
0000
0000
0300
0000
0020
0000
0000
0000
0000
0000
0030
0000
0000
0000
2000
0000
3000
0000
0200
0300
,
0020
0000
0000
0030
0002
0000
0000
0003
1001
0000
0000
0000
0110
0000
0010
0000
,
0000
1001
1001
1001
2002
0000
0000
3003
,
0220
0000
0000
0330
2002
0000
0000
3003
,
0000
0110
0110
0110
0220
0000
0000
0330
,
2002
0000
0000
3003
0220
0000
0000
0330
,
0000
1001
0000
1001
2002
0000
0000
3003
,
0220
0000
0000
0330
2002
0000
0000
3003
,
0000
1001
0000
1001
1001
1000
0001
1000
,
0001
0000
0000
0000
0000
0000
0000
0000
1001
0000
0000
0000
0000
0000
0000
0000
1001
0000
0000
0000
0000
0000
0000
0000
1001
0000
0000
0000
0000
0000
0000
0000
1000
0000
0100
0000
0010
0000
0001
0000
0000
0000
0000
0000
0000
0000
0000
0000
1000
0000
0100
0000
0010
0000
0001
0000
0000
0000
0000
0000
1000
0001
1000
0001
,
1000
0100
0010
0001
0010
0100
1000
0001
1000
0000
0010
0000
0100
0000
0001
0000
,
1000
0100
1000
0100
1000
0010
1000
0010
1000
0100
0010
0001
0010
0100
1000
0001
,
1000
0100
0010
0001
0000
0110
0000
0110
,
1000
0000
0001
0000
1000
0001
1000
0001
1000
0010
0100
0001
0010
0100
1000
0001
,
1000
0000
0000
0000
0100
0010
0100
0010
0100
0001
0100
0001
1000
0100
0010
0001
,
1000
0000
1001
0000
1001
0000
0001
0000
1000
0100
0010
0100
1000
0100
0010
0001
,
1000
0000
0100
0000
0010
0000
0001
0000
1000
0100
1000
0100
1000
0010
1000
0010
,
1000
0000
0100
0000
0010
0000
0001
0000
0100
0010
0100
0010
1000
0100
0010
0001
,
0010
0100
1000
0010
0100
0001
0010
0100
1000
0000
0110
0000
1001
0000
0110
0000
,
1000
0000
0100
0000
0010
0000
0001
0000
1000
0010
0100
0010
1000
0100
0010
0001
,
1000
0100
0010
0001
1000
0110
0001
0110
,
1001
0000
0100
0000
0010
0000
0001
0000
1000
0000
1001
0000
1000
0100
0010
0001
,
0010
0100
1000
0100
0010
0100
1000
0010
0100
0000
0001
0000
0110
0000
0110
0000
,
0110
0000
1010
0000
0011
0000
1001
0000
1000
0100
0010
0100
1000
0010
0100
0001
,
1000
0000
0100
0000
0000
0010
0001
0010
0001
0000
0010
0000
0000
0100
1000
0100
1000
0000
0100
0000
0000
0010
0100
0010
0100
0000
1000
0001
1000
0001
1000
0001
1000
0000
0010
0000
0000
0100
0001
0100
0001
0000
0100
0000
0000
0010
1000
0010
1000
0000
0010
0000
0000
0000
0000
0000
0000
0000
0000
0000
0000
0000
0000
0000
;
