#TITLE:The Battle of Lil' Slugger;
#SUBTITLE:;
#ARTIST:dB soundworks;
#TITLETRANSLIT:;
#SUBTITLETRANSLIT:;
#ARTISTTRANSLIT:;
#GENRE:;
#CREDIT:;
#MUSIC:The Battle of Lil' Slugger.ogg;
#BANNER:The Battle of Lil' Slugger-bn.png;
#BACKGROUND:The Battle of Lil' Slugger-bg.png;
#CDTITLE:;
#SAMPLESTART:38.454;
#SAMPLELENGTH:19.200;
#SELECTABLE:YES;
#OFFSET:-0.054;
#BPMS:0.000=200.000;
#STOPS:;
#BGCHANGES:;
#FGCHANGES:;

//--------------- dance-single - ----------------
#NOTES:
     dance-single:
     :
     Beginner:
     10:
     0,0,0,0,0:
1001
0001
0000
0001
,
0000
0001
0000
0001
,
1001
1000
0000
1000
,
0000
1000
0000
1000
,
1001
0010
0000
0010
,
0000
0010
0000
0010
,
1001
0100
0000
0100
,
0000
0100
0000
0100
,
1001
0000
0000
0000
,
0110
0000
0000
0110
0000
0000
0110
0000
,
1001
0000
0000
0000
,
0110
0000
0000
0110
0000
0000
0110
0000
,
1001
0000
0000
0000
,
0110
0000
0000
0110
0000
0000
0110
0000
,
1001
0000
0000
0000
,
0110
0000
0000
0110
0000
0000
0110
0000
,
2000
3200
0300
0000
,
0000
0000
0020
0030
,
0002
0003
0200
0300
,
0000
0000
0020
0030
,
2000
3000
0000
0000
,
0000
0000
0200
0300
,
0020
0030
0000
0000
,
0002
0003
2000
3000
,
2002
3003
0000
0000
,
2000
3000
0020
0030
,
0200
0300
0002
0003
,
0020
0030
0200
0300
,
2000
3000
0000
0000
,
0020
0030
0200
0300
,
0002
0003
0000
0000
,
1001
0000
0000
0000
0100
1M1M
MM11
M11M
,
1MM1
0100
0010
0001
,
1000
0010
0100
0001
,
1000
0100
0001
0100
,
1000
0100
1000
0010
1000
0001
1000
0100
,
0010
0000
0100
0010
0001
0000
0010
1000
,
0100
0000
1000
0001
0010
0000
0100
0010
,
1000
0100
1000
0000
0001
0100
0001
0000
1000
0010
1000
0000
0001
0010
0001
0000
,
1000
0010
1000
0000
0001
0010
0001
0000
1000
0100
1000
0000
0001
0100
0001
0000
,
1000
0100
0001
0000
0001
0100
1000
0000
,
1000
0010
0001
0000
0001
0010
1000
0000
,
1000
0000
0001
0000
0100
0100
1000
0001
,
1000
0010
0100
0001
,
1000
0100
0010
0001
1000
0100
0010
0001
,
1000
0010
0100
0001
1000
0010
0100
0001
,
1000
0100
0010
0001
0100
0010
1000
0000
0001
0010
0100
1000
0010
0100
0001
0000
,
1000
0010
0100
0001
0010
0100
1000
0000
0001
0100
0010
1000
0100
0010
0001
1000
,
1001
1000
0000
1000
,
0000
1000
0000
1000
,
1001
0001
0000
0001
,
0000
0001
0000
0001
,
1001
0100
0000
0100
,
0000
0100
0000
0100
,
1001
0010
0000
0010
,
0000
0010
0000
0010
,
1001
0000
0000
0000
,
0110
0000
0000
0110
0000
0000
0110
0000
,
1001
0000
0000
0000
,
0110
0000
0000
0110
0000
0000
0110
0000
,
1001
0000
0000
0000
,
0110
0000
0000
0110
0000
0000
0110
0000
,
1001
0000
0000
0000
,
0110
0000
0000
0110
0000
0000
0110
0000
,
0002
0023
0030
0000
,
0000
0000
0200
0300
,
2000
3000
0020
0030
,
0000
0000
0200
0300
,
0002
0003
0000
0000
,
0000
0000
0020
0030
,
0200
0300
0000
0000
,
2000
3000
0002
0003
,
2002
3003
0000
0000
,
0002
0003
0200
0300
,
0020
0030
2000
3000
,
0200
0300
0020
0030
,
0002
0003
0000
0000
,
0200
0300
0020
0030
,
2000
3000
0000
0000
,
1001
0000
0000
0000
0010
M1M1
11MM
M11M
,
1MM1
0010
0100
1000
,
0001
0100
0010
1000
,
0001
0010
1000
0010
,
0001
0010
0001
0100
0001
1000
0001
0010
,
0100
0000
0010
0100
1000
0000
0100
0001
,
0010
0000
0001
1000
0100
0000
0010
0100
,
0001
0010
0001
0000
1000
0010
1000
0000
0001
0100
0001
0000
1000
0100
1000
0000
,
0001
0100
0001
0000
1000
0100
1000
0000
0001
0010
0001
0000
1000
0010
1000
0000
,
0001
0010
1000
0000
1000
0010
0001
0000
,
0001
0100
1000
0000
1000
0100
0001
0000
,
0001
0000
1000
0000
0010
0010
0001
1000
,
0001
0100
0010
1000
,
0001
0010
0100
1000
0001
0010
0100
1000
,
0001
0100
0010
1000
0001
0100
0010
1000
,
0001
0010
0100
1000
0010
0100
0001
0000
1000
0100
0010
0001
0100
0010
1000
0000
,
0001
0100
0010
1000
0100
0010
0001
0000
1000
0010
0100
0001
0010
0100
1000
0001
,
1001
0000
0000
0000
;

//--------------- dance-single - ----------------
#NOTES:
     dance-single:
     :
     Easy:
     13:
     0,0,0,0,0:
1001
0110
0001
0110
,
0001
0110
0001
0110
,
1001
0110
1000
0110
,
1000
0110
1000
0110
,
1001
0110
0001
0110
,
0001
0110
0001
0110
,
1001
0110
1000
0110
,
1000
0110
1000
0110
,
1001
0110
0001
0110
,
1000
0110
0001
0110
,
1000
0110
0001
0110
,
1000
0110
0001
0110
,
1000
0110
0001
0110
,
1000
0110
0001
0110
,
1000
0110
0001
0110
,
1000
0110
0001
0110
,
2MMM
3000
0000
0000
0000
0000
0000
0000
M2MM
0300
0000
0000
0000
0000
0000
0000
MMMM
0000
0000
0000
0000
0000
0000
0000
MMMM
0000
0000
0000
0000
0000
0000
0000
,
MMMM
0000
0000
0000
0000
0000
0000
0000
MMMM
0000
0000
0000
0000
0000
0000
0000
MM2M
0030
0000
0000
0000
0000
0000
0000
MMMM
0000
0000
0000
0000
0000
0000
0000
,
MMM2
0003
0000
0000
0000
0000
0000
0000
MMMM
0000
0000
0000
0000
0000
0000
0000
M2MM
0300
0000
0000
0000
0000
0000
0000
MMMM
0000
0000
0000
0000
0000
0000
0000
,
MMMM
0000
0000
0000
0000
0000
0000
0000
MMMM
0000
0000
0000
0000
0000
0000
0000
MM2M
0030
0000
0000
0000
0000
0000
0000
MMMM
0000
0000
0000
0000
0000
0000
0000
,
2MMM
3000
0000
0000
0000
0000
0000
0000
MMMM
0000
0000
0000
0000
0000
0000
0000
MMMM
0000
0000
0000
0000
0000
0000
0000
MMMM
0000
0000
0000
0000
0000
0000
0000
,
MMMM
0000
0000
0000
0000
0000
0000
0000
MMMM
0000
0000
0000
0000
0000
0000
0000
MM2M
0030
0000
0000
0000
0000
0000
0000
MMMM
0000
0000
0000
0000
0000
0000
0000
,
M2MM
0300
0000
0000
0000
0000
0000
0000
MMMM
0000
0000
0000
0000
0000
0000
0000
MMMM
0000
0000
0000
0000
0000
0000
0000
MMMM
0000
0000
0000
0000
0000
0000
0000
,
MMM2
0003
0000
0000
0000
0000
0000
0000
MMMM
0000
0000
0000
0000
0000
0000
0000
2MMM
3000
0000
0000
0000
0000
0000
0000
MMMM
0000
0000
0000
0000
0000
0000
0000
,
2MM2
3003
0000
0000
0000
0000
0000
0000
MMMM
0000
0000
0000
0000
0000
0000
0000
MMMM
0000
0000
0000
0000
0000
0000
0000
MMMM
0000
0000
0000
0000
0000
0000
0000
,
MMM2
0003
0000
0000
0000
0000
0000
0000
MMMM
0000
0000
0000
0000
0000
0000
0000
MM2M
0030
0000
0000
0000
0000
0000
0000
MMMM
0000
0000
0000
0000
0000
0000
0000
,
M2MM
0300
0000
0000
0000
0000
0000
0000
MMMM
0000
0000
0000
0000
0000
0000
0000
2MMM
3000
0000
0000
0000
0000
0000
0000
MMMM
0000
0000
0000
0000
0000
0000
0000
,
MM2M
0030
0000
0000
0000
0000
0000
0000
MMMM
0000
0000
0000
0000
0000
0000
0000
M2MM
0300
0000
0000
0000
0000
0000
0000
MMMM
0000
0000
0000
0000
0000
0000
0000
,
MMM2
0003
0000
0000
0000
0000
0000
0000
MMMM
0000
0000
0000
0000
0000
0000
0000
MMMM
0000
0000
0000
0000
0000
0000
0000
MMMM
0000
0000
0000
0000
0000
0000
0000
,
M2MM
0300
0000
0000
0000
0000
0000
0000
MMMM
0000
0000
0000
0000
0000
0000
0000
MM2M
0030
0000
0000
0000
0000
0000
0000
MMMM
0000
0000
0000
0000
0000
0000
0000
,
2MMM
3000
0000
0000
0000
0000
0000
0000
MMMM
0000
0000
0000
0000
0000
0000
0000
MMMM
0000
0000
0000
0000
0000
0000
0000
MMMM
0000
0000
0000
0000
0000
0000
0000
,
1MM1
0000
0000
0000
0100
1M1M
MM11
M11M
,
1MM1
0100
1000
0100
0010
0001
0010
0001
,
1000
0010
0100
0001
0010
0100
1000
0000
,
0010
0100
0001
0010
0001
0100
0010
1000
,
0002
0203
2300
3020
,
1030
0100
0010
0001
1000
0010
0100
0001
,
1000
0100
0010
0001
1000
0010
0100
0001
,
1000
0100
0010
0001
1000
0100
0010
0001
1000
0100
0010
0001
1000
0100
0010
0001
,
1000
0100
0010
0001
1000
0100
0010
0001
1000
0100
0010
0001
1000
0100
0010
0001
,
1000
0010
0100
0010
1000
0001
0010
0001
,
1000
0100
1000
0001
0100
0010
0100
0001
,
1000
0000
0100
0000
0010
0000
0001
0000
0100
0010
0100
0010
1000
0001
1000
0001
,
1000
0000
0100
0000
0010
0000
0001
0000
0100
0000
0010
0000
1000
0001
1000
0001
,
1000
0100
0010
0100
0010
0100
0010
0001
1000
0100
0010
0100
0010
0100
0010
0001
,
1000
0010
0100
0010
0100
0010
0100
0001
1000
0010
0100
0010
0100
0010
0100
0001
,
1000
0010
0100
0001
1000
0010
0100
0001
1000
0010
0100
0001
1000
0010
0100
0001
,
1000
0010
0100
0001
1000
0010
0100
0001
1000
0010
0100
0001
1000
0010
0100
0001
,
1001
0110
1000
0110
,
1000
0110
1000
0110
,
1001
0110
0001
0110
,
0001
0110
0001
0110
,
1001
0110
1000
0110
,
1000
0110
1000
0110
,
1001
0110
0001
0110
,
0001
0110
0001
0110
,
1001
0110
1000
0110
,
0001
0110
1000
0110
,
0001
0110
1000
0110
,
0001
0110
1000
0110
,
0001
0110
1000
0110
,
0001
0110
1000
0110
,
0001
0110
1000
0110
,
0001
0110
1000
0110
,
MMM2
0003
0000
0000
0000
0000
0000
0000
MM2M
0030
0000
0000
0000
0000
0000
0000
MMMM
0000
0000
0000
0000
0000
0000
0000
MMMM
0000
0000
0000
0000
0000
0000
0000
,
MMMM
0000
0000
0000
0000
0000
0000
0000
MMMM
0000
0000
0000
0000
0000
0000
0000
M2MM
0300
0000
0000
0000
0000
0000
0000
MMMM
0000
0000
0000
0000
0000
0000
0000
,
2MMM
3000
0000
0000
0000
0000
0000
0000
MMMM
0000
0000
0000
0000
0000
0000
0000
MM2M
0030
0000
0000
0000
0000
0000
0000
MMMM
0000
0000
0000
0000
0000
0000
0000
,
MMMM
0000
0000
0000
0000
0000
0000
0000
MMMM
0000
0000
0000
0000
0000
0000
0000
M2MM
0300
0000
0000
0000
0000
0000
0000
MMMM
0000
0000
0000
0000
0000
0000
0000
,
MMM2
0003
0000
0000
0000
0000
0000
0000
MMMM
0000
0000
0000
0000
0000
0000
0000
MMMM
0000
0000
0000
0000
0000
0000
0000
MMMM
0000
0000
0000
0000
0000
0000
0000
,
MMMM
0000
0000
0000
0000
0000
0000
0000
MMMM
0000
0000
0000
0000
0000
0000
0000
M2MM
0300
0000
0000
0000
0000
0000
0000
MMMM
0000
0000
0000
0000
0000
0000
0000
,
MM2M
0030
0000
0000
0000
0000
0000
0000
MMMM
0000
0000
0000
0000
0000
0000
0000
MMMM
0000
0000
0000
0000
0000
0000
0000
MMMM
0000
0000
0000
0000
0000
0000
0000
,
2MMM
3000
0000
0000
0000
0000
0000
0000
MMMM
0000
0000
0000
0000
0000
0000
0000
MMM2
0003
0000
0000
0000
0000
0000
0000
MMMM
0000
0000
0000
0000
0000
0000
0000
,
2MM2
3003
0000
0000
0000
0000
0000
0000
MMMM
0000
0000
0000
0000
0000
0000
0000
MMMM
0000
0000
0000
0000
0000
0000
0000
MMMM
0000
0000
0000
0000
0000
0000
0000
,
2MMM
3000
0000
0000
0000
0000
0000
0000
MMMM
0000
0000
0000
0000
0000
0000
0000
M2MM
0300
0000
0000
0000
0000
0000
0000
MMMM
0000
0000
0000
0000
0000
0000
0000
,
MM2M
0030
0000
0000
0000
0000
0000
0000
MMMM
0000
0000
0000
0000
0000
0000
0000
MMM2
0003
0000
0000
0000
0000
0000
0000
MMMM
0000
0000
0000
0000
0000
0000
0000
,
M2MM
0300
0000
0000
0000
0000
0000
0000
MMMM
0000
0000
0000
0000
0000
0000
0000
MM2M
0030
0000
0000
0000
0000
0000
0000
MMMM
0000
0000
0000
0000
0000
0000
0000
,
2MMM
3000
0000
0000
0000
0000
0000
0000
MMMM
0000
0000
0000
0000
0000
0000
0000
MMMM
0000
0000
0000
0000
0000
0000
0000
MMMM
0000
0000
0000
0000
0000
0000
0000
,
MM2M
0030
0000
0000
0000
0000
0000
0000
MMMM
0000
0000
0000
0000
0000
0000
0000
M2MM
0300
0000
0000
0000
0000
0000
0000
MMMM
0000
0000
0000
0000
0000
0000
0000
,
MMM2
0003
0000
0000
0000
0000
0000
0000
MMMM
0000
0000
0000
0000
0000
0000
0000
MMMM
0000
0000
0000
0000
0000
0000
0000
MMMM
0000
0000
0000
0000
0000
0000
0000
,
1MM1
0000
0000
0000
0010
M1M1
11MM
M11M
,
1MM1
0010
0001
0010
0100
1000
0100
1000
,
0001
0100
0010
1000
0100
0010
0001
0000
,
0100
0010
1000
0100
1000
0010
0100
0001
,
2000
3020
0032
0203
,
0301
0010
0100
1000
0001
0100
0010
1000
,
0001
0010
0100
1000
0001
0100
0010
1000
,
0001
0010
0100
1000
0001
0010
0100
1000
0001
0010
0100
1000
0001
0010
0100
1000
,
0001
0010
0100
1000
0001
0010
0100
1000
0001
0010
0100
1000
0001
0010
0100
1000
,
0001
0100
0010
0100
0001
1000
0100
1000
,
0001
0010
0001
1000
0010
0100
0010
1000
,
0001
0000
0010
0000
0100
0000
1000
0000
0010
0100
0010
0100
0001
1000
0001
1000
,
0001
0000
0010
0000
0100
0000
1000
0000
0010
0000
0100
0000
0001
1000
0001
1000
,
0001
0010
0100
0010
0100
0010
0100
1000
0001
0010
0100
0010
0100
0010
0100
1000
,
0001
0100
0010
0100
0010
0100
0010
1000
0001
0100
0010
0100
0010
0100
0010
1000
,
0001
0100
0010
1000
0001
0100
0010
1000
0001
0100
0010
1000
0001
0100
0010
1000
,
0001
0100
0010
1000
0001
0100
0010
1000
0001
0100
0010
1000
0001
0100
0010
1000
,
1001
0000
0000
0000
;

//--------------- dance-single - ----------------
#NOTES:
     dance-single:
     :
     Medium:
     14:
     0,0,0,0,0:
2002
3003
0000
0000
0000
0000
0000
0000
,
0000
0000
0000
0000
0000
0001
0110
1000
,
0220
0330
0000
0000
0000
0000
0000
0000
,
0000
0000
0000
0000
1000
0100
0010
0100
0010
0001
1000
0100
0010
0100
0010
0001
,
2002
3003
0000
0000
0000
0000
0000
0000
,
0000
0000
0000
0000
0000
1000
0110
0001
,
0220
0330
0000
0000
0000
0000
0000
0000
,
0000
0000
0000
0000
1000
0100
1000
0100
0010
0100
0010
0100
0010
0001
0010
0001
,
0220
0330
0000
0000
0000
0000
0000
0000
,
2002
3003
0000
2002
3003
0000
2002
3003
,
0220
0330
0000
0000
0000
0000
0000
0000
,
0022
0033
0000
0022
0033
0000
0022
0033
,
2020
3030
0000
0000
0000
0000
0000
0000
,
2200
3300
0000
2200
3300
0000
2200
3300
,
0202
0303
0000
0000
0000
0000
0000
0000
,
0220
0330
0000
0220
0330
0000
0220
0330
,
1000
0100
1000
0001
0100
0010
1000
0100
0010
0100
1000
0010
0100
0001
0010
0100
,
1000
0010
0100
0001
0010
0100
0010
0001
1000
0010
1000
0001
0010
0100
1000
0001
,
1000
0100
0010
0100
0010
0001
0100
0010
1000
0001
0010
0100
1000
0010
0100
0010
,
1000
0100
0010
0100
1000
0100
0010
0001
1000
0001
0010
0001
0100
0010
1000
0100
,
1000
0010
0100
0010
1000
0100
0010
0100
0010
0001
0100
0010
0100
0001
0010
0100
,
1000
0010
1000
0001
0010
0100
1000
0010
0100
0010
0100
0001
0010
0100
0010
0001
,
0100
0001
0010
0100
0010
0100
1000
0010
0100
0001
1000
0100
1000
0001
0100
0001
,
1000
0100
0010
0001
0100
0010
1000
0010
0100
0001
0010
0100
1000
0010
0100
0001
,
2002
3003
0000
0000
0000
0000
0000
0000
,
0220
0330
0000
0000
0022
0033
0000
0000
,
2002
3003
0000
0000
2020
3030
0000
0000
,
2200
3300
0000
0000
0202
0303
0000
0000
,
2002
3003
0000
0000
0000
0000
0000
0000
,
2020
3030
0000
0000
0022
0033
0000
0000
,
0202
0303
0000
0000
0000
0000
0000
0000
,
1100
0000
0000
0000
0100
1M1M
MM11
M11M
,
1MM1
0100
0010
0001
0100
0010
1000
0001
,
1000
0000
0100
0000
0010
0000
0100
0000
0010
0001
0010
0001
1000
0010
1000
0010
,
1000
0100
1000
0001
0100
0001
0010
0100
,
2000
3020
0230
0302
,
1003
0100
0010
0100
1000
0001
0100
0010
,
0100
0001
0010
0100
1000
0010
0100
0001
,
1000
0100
0010
0100
1000
0100
0010
0001
0010
0100
0010
0001
1000
0100
1000
0001
,
0010
0100
0010
0100
1000
0010
0100
0001
0010
0100
0010
0001
1000
0100
0010
0001
,
1000
0010
0100
0001
0010
0100
1000
0001
,
1000
0100
1000
0001
0010
0001
0010
0001
1000
0010
0100
0001
0010
0000
0100
0000
,
1000
0000
0010
0000
0100
0000
0001
0000
1000
0100
0010
0100
0001
0010
0100
0010
,
1000
0000
0100
0000
0001
0000
0100
0000
1000
0000
0010
0100
1000
0010
0100
0001
,
1000
0100
1000
0001
0010
0100
0010
0001
0100
0010
1000
0100
0010
0100
0010
0001
,
0100
0010
1000
0100
0010
0100
1000
0001
0100
0010
0100
0001
0010
0001
1000
0100
,
0010
0001
0010
0100
0010
0001
0010
0100
1000
0100
0010
0100
1000
0100
0010
0001
,
1000
0100
1000
0001
0100
0001
1000
0010
1000
0001
0010
0001
1000
0010
0100
0001
,
2002
3003
0000
0000
0000
0000
0000
0000
,
0000
0000
0000
0000
0000
1000
0110
0001
,
0220
0330
0000
0000
0000
0000
0000
0000
,
0000
0000
0000
0000
0001
0010
0100
0010
0100
1000
0001
0010
0100
0010
0100
1000
,
2002
3003
0000
0000
0000
0000
0000
0000
,
0000
0000
0000
0000
0000
0001
0110
1000
,
0220
0330
0000
0000
0000
0000
0000
0000
,
0000
0000
0000
0000
0001
0010
0001
0010
0100
0010
0100
0010
0100
1000
0100
1000
,
0220
0330
0000
0000
0000
0000
0000
0000
,
2002
3003
0000
2002
3003
0000
2002
3003
,
0220
0330
0000
0000
0000
0000
0000
0000
,
2200
3300
0000
2200
3300
0000
2200
3300
,
0202
0303
0000
0000
0000
0000
0000
0000
,
0022
0033
0000
0022
0033
0000
0022
0033
,
2020
3030
0000
0000
0000
0000
0000
0000
,
0220
0330
0000
0220
0330
0000
0220
0330
,
0001
0010
0001
1000
0010
0100
0001
0010
0100
0010
0001
0100
0010
1000
0100
0010
,
0001
0100
0010
1000
0100
0010
0100
1000
0001
0100
0001
1000
0100
0010
0001
1000
,
0001
0010
0100
0010
0100
1000
0010
0100
0001
1000
0100
0010
0001
0100
0010
0100
,
0001
0010
0100
0010
0001
0010
0100
1000
0001
1000
0100
1000
0010
0100
0001
0010
,
0001
0100
0010
0100
0001
0010
0100
0010
0100
1000
0010
0100
0010
1000
0100
0010
,
0001
0100
0001
1000
0100
0010
0001
0100
0010
0100
0010
1000
0100
0010
0100
1000
,
0010
1000
0100
0010
0100
0010
0001
0100
0010
1000
0001
0010
0001
1000
0010
1000
,
0001
0010
0100
1000
0010
0100
0001
0100
0010
1000
0100
0010
0001
0100
0010
1000
,
2002
3003
0000
0000
0000
0000
0000
0000
,
0220
0330
0000
0000
2200
3300
0000
0000
,
2002
3003
0000
0000
0202
0303
0000
0000
,
0022
0033
0000
0000
2020
3030
0000
0000
,
2002
3003
0000
0000
0000
0000
0000
0000
,
0202
0303
0000
0000
2200
3300
0000
0000
,
2020
3030
0000
0000
0000
0000
0000
0000
,
0011
0000
0000
0000
0010
M1M1
11MM
M11M
,
1MM1
0010
0100
1000
0010
0100
0001
1000
,
0001
0000
0010
0000
0100
0000
0010
0000
0100
1000
0100
1000
0001
0100
0001
0100
,
0001
0010
0001
1000
0010
1000
0100
0010
,
0002
0203
0320
2030
,
3001
0010
0100
0010
0001
1000
0010
0100
,
0010
1000
0100
0010
0001
0100
0010
1000
,
0001
0010
0100
0010
0001
0010
0100
1000
0100
0010
0100
1000
0001
0010
0001
1000
,
0100
0010
0100
0010
0001
0100
0010
1000
0100
0010
0100
1000
0001
0010
0100
1000
,
0001
0100
0010
1000
0100
0010
0001
1000
,
0001
0010
0001
1000
0100
1000
0100
1000
0001
0100
0010
1000
0100
0000
0010
0000
,
0001
0000
0100
0000
0010
0000
1000
0000
0001
0010
0100
0010
1000
0100
0010
0100
,
0001
0000
0010
0000
1000
0000
0010
0000
0001
0000
0100
0010
0001
0100
0010
1000
,
0001
0010
0001
1000
0100
0010
0100
1000
0010
0100
0001
0010
0100
0010
0100
1000
,
0010
0100
0001
0010
0100
0010
0001
1000
0010
0100
0010
1000
0100
1000
0001
0010
,
0100
1000
0100
0010
0100
1000
0100
0010
0001
0010
0100
0010
0001
0010
0100
1000
,
0001
0010
0001
1000
0010
1000
0001
0100
0001
1000
0100
1000
0001
0100
0010
1000
,
2002
3003
0000
0000
0000
0000
0000
0000
;

//--------------- dance-single - ----------------
#NOTES:
     dance-single:
     :
     Hard:
     15:
     0,0,0,0,0:
1001
0100
0011
1000
0110
0001
1001
0010
,
1100
0000
0010
0000
0101
0000
1000
0000
0110
0000
0001
0000
1010
0000
0100
0010
,
1001
0010
1100
0001
0110
1000
1001
0100
,
0011
0000
0100
0000
1000
0100
1000
0100
0001
0100
0001
0100
0010
0100
0010
0100
,
1001
0010
0101
1000
0110
0001
1001
0100
,
1010
0000
0100
0000
0011
0000
1000
0000
0110
0000
0001
0000
1100
0000
0010
0100
,
1001
0100
1010
0001
0110
1000
1001
0100
,
0011
0000
0100
0000
1000
0010
1000
0010
0001
0010
0001
0010
0100
0010
0100
0010
,
1001
0100
0011
0100
1010
0001
0110
1000
,
2001
3001
0110
1002
1003
0110
2001
3001
,
0110
0110
1100
0010
0101
1000
0110
0001
,
1002
0000
1003
0000
0100
0010
1000
0100
0010
0000
0001
0000
0100
0010
0100
0010
,
1001
0100
0011
0100
1010
0100
1001
0100
,
0210
0310
1001
0120
0130
1001
0210
0310
,
1001
1001
1100
0010
0101
0010
1001
0010
,
0120
0000
0130
0000
0100
0010
0001
0100
0010
0000
0001
0000
0110
0000
1001
0000
,
1000
0100
1000
0001
0100
0010
1000
0100
0010
0100
1000
0010
0100
0001
0010
0100
,
1000
0010
0100
0001
0010
0100
0010
0001
1000
0010
1000
0001
0010
0100
1000
0001
,
1000
0100
0010
0100
0010
0001
0100
0010
1000
0001
0010
0100
1000
0010
0100
0010
,
1000
0100
0010
0100
1000
0100
0010
0001
1000
0001
0010
0001
0100
0010
1000
0100
,
1000
0010
0100
0010
1000
0100
0010
0100
0010
0001
0100
0010
0100
0001
0010
0100
,
1000
0010
1000
0001
0010
0100
1000
0010
0100
0010
0100
0001
0010
0100
0010
0001
,
0100
0001
0010
0100
0010
0100
1000
0010
0100
0001
1000
0100
1000
0001
0100
0001
,
1000
0100
0010
0001
0100
0010
1000
0010
0100
0001
0010
0100
1000
0010
0100
0001
,
10M1
0000
0011
0011
0000
0010
0100
1000
,
10M1
0000
0000
0000
0110
0000
0000
0000
M011
0001
0100
0000
0110
0000
0001
0000
,
1M10
0000
0110
0000
0011
0000
1001
0000
000M
0000
0110
0000
0110
0000
0001
0100
,
10M1
0000
0000
0000
0000
0000
0011
0000
0000
0000
0000
0000
1010
0000
0000
0000
0000
0000
0100
0000
0000
0001
0000
0000
10M0
0000
0000
0100
0000
0000
0010
0000
0000
0001
0000
0000
1000
0000
0100
0000
0010
0000
0001
0000
0000
0000
0000
0000
,
M110
0000
0000
0000
1010
0000
1010
0000
0000
0000
0100
0001
1100
0000
0010
0000
,
M101
0000
0000
0000
0110
0000
0000
0000
1M00
0010
0001
0010
0101
0000
0010
0000
,
1M01
0000
0000
0000
0110
0000
0011
0000
0000
0000
0100
0010
1000
0100
0010
0001
,
0110
0000
0000
0000
0100
1M1M
MM11
M11M
,
1MM1
0000
0100
0001
1000
0100
0010
0100
0010
0000
0001
0010
0100
0000
0010
0000
,
1000
0000
0001
0000
0100
0010
0100
0001
0010
0100
1000
0010
0001
0010
0100
0010
,
1000
0000
0100
0010
0100
0000
0001
0010
0100
0000
1000
0010
0100
0001
0010
0100
,
1000
0100
1000
0000
0001
0100
0001
0000
1000
0010
1000
0000
0001
0010
0001
0000
,
1000
0000
0100
0000
0010
0000
0001
1000
0001
0000
0010
0100
0010
0000
0100
0000
,
1000
0000
0010
0000
0100
0000
0001
0000
1000
0010
1000
0010
1000
0000
0001
0000
,
1000
0100
0010
0100
1000
0100
0010
0001
0010
0100
0010
0001
1000
0100
1000
0001
,
0010
0000
0000
0100
0000
0000
0010
0000
0000
0100
0000
0000
1000
0000
0000
0010
0000
0000
0100
0000
0000
0001
0000
0000
0010
0000
0000
0100
0000
0000
0010
0000
0000
0001
0000
0000
1000
0000
0010
0000
0100
0000
0001
0000
0010
0000
0100
0000
,
1000
0000
0100
0000
0001
0000
1000
0000
0010
0000
0001
0000
1000
0100
0010
0001
,
1000
0100
1000
0001
0100
0010
0100
0001
0010
0100
1000
0000
0001
0000
0010
0000
,
0100
0000
0000
0000
0000
0000
0000
0000
0000
0000
0000
0000
0000
0000
0000
0000
0000
0000
0000
0000
0000
0000
0000
0000
0010
0000
0000
0000
0000
0000
0000
0000
0000
0000
0000
0000
0000
0000
0000
0000
0000
0000
0000
0000
0000
0000
0000
0000
1000
0000
0000
0000
0000
0000
0000
0000
0000
0000
0000
0000
0000
0000
0000
0000
0000
0000
0000
0000
0000
0000
0000
0000
0001
0000
0000
0000
0000
0000
0000
0000
0000
0000
0000
0000
0000
0000
0000
0000
0000
0000
0000
0000
0000
0000
0000
0000
1000
0000
0000
0000
0000
0000
0000
0000
0000
0000
0100
0000
0000
0000
0000
0000
0000
0000
0000
0010
0000
0000
0000
0000
0000
0000
0000
0000
0000
0001
0000
0000
0000
0000
0000
0000
0000
0000
0010
0000
0000
0000
0000
0000
0000
0000
0000
0000
0100
0000
0000
0000
0000
0000
0000
0000
0000
0000
1000
0000
0000
0000
0000
0000
0000
0000
0000
0100
0000
0000
0000
0000
0000
0000
0000
0000
0000
0010
0000
0000
0000
0000
0000
0000
0000
0000
0001
0000
0000
0000
0000
0000
0000
0000
0000
0000
,
1000
0000
0100
0000
0001
0000
0100
0000
1000
0000
0001
0010
0100
0010
1000
0010
,
1000
0100
1000
0001
0010
0100
0010
0001
0100
0010
1000
0100
0010
0100
0010
0001
,
0100
0010
1000
0100
0010
0100
1000
0001
0100
0010
0100
0001
0010
0001
1000
0100
,
0010
0001
0010
0100
0010
0001
0010
0100
1000
0100
0010
0100
1000
0100
0010
0001
,
1000
0000
0000
0100
0000
0000
1000
0000
0000
0001
0000
0000
0100
0000
0000
0001
0000
0000
1000
0000
0000
0010
0000
0000
1000
0000
0000
0001
0000
0000
0010
0000
0000
0001
0000
0000
1000
0000
0100
0000
0010
0000
0001
0000
0100
0000
0010
0000
,
1001
0100
0011
1000
0110
0001
1001
0010
,
1100
0000
0010
0000
0101
0000
1000
0000
0110
0000
0001
0000
1010
0000
0100
0010
,
1001
0010
1100
0001
0110
1000
1001
0100
,
0011
0000
0000
0000
0000
0000
0000
0000
0000
0000
0000
0000
0000
0000
0000
0000
0000
0000
0000
0000
0000
0000
0000
0000
0100
0000
0000
0000
0000
0000
0000
0000
0000
0000
0000
0000
0000
0000
0000
0000
0000
0000
0000
0000
0000
0000
0000
0000
1000
0000
0000
0000
0000
0000
0000
0000
0000
0000
0100
0000
0000
0000
0000
0000
0000
0000
0000
1000
0000
0000
0000
0000
0000
0000
0000
0000
0000
0100
0000
0000
0000
0000
0000
0000
0000
0000
1000
0000
0000
0000
0000
0000
0000
0000
0000
0000
0100
0000
0000
0000
0000
0000
0000
0000
0000
0000
0010
0000
0000
0000
0000
0000
0000
0000
0000
0100
0000
0000
0000
0000
0000
0000
0000
0000
0000
0010
0000
0000
0000
0000
0000
0000
0000
0000
0100
0000
0000
0000
0000
0000
0000
0000
0000
0000
0010
0000
0000
0000
0000
0000
0000
0000
0000
0000
0001
0000
0000
0000
0000
0000
0000
0000
0000
0010
0000
0000
0000
0000
0000
0000
0000
0000
0000
0001
0000
0000
0000
0000
0000
0000
0000
0000
0010
0000
0000
0000
0000
0000
0000
0000
0000
0000
,
1001
0010
0101
1000
0110
0001
1001
0100
,
1010
0000
0100
0000
0011
0000
1000
0000
0110
0000
0001
0000
1100
0000
0010
0100
,
1001
0100
1010
0001
0110
1000
1001
0100
,
0011
0000
0000
0000
0000
0000
0000
0000
0000
0000
0000
0000
0000
0000
0000
0000
0000
0000
0000
0000
0000
0000
0000
0000
0100
0000
0000
0000
0000
0000
0000
0000
0000
0000
0000
0000
0000
0000
0000
0000
0000
0000
0000
0000
0000
0000
0000
0000
1000
0000
0000
0000
0000
0000
0000
0000
0000
0000
0010
0000
0000
0000
0000
0000
0000
0000
0000
1000
0000
0000
0000
0000
0000
0000
0000
0000
0000
0010
0000
0000
0000
0000
0000
0000
0000
0000
1000
0000
0000
0000
0000
0000
0000
0000
0000
0000
0010
0000
0000
0000
0000
0000
0000
0000
0000
0000
0100
0000
0000
0000
0000
0000
0000
0000
0000
0010
0000
0000
0000
0000
0000
0000
0000
0000
0000
0100
0000
0000
0000
0000
0000
0000
0000
0000
0010
0000
0000
0000
0000
0000
0000
0000
0000
0000
0100
0000
0000
0000
0000
0000
0000
0000
0000
0000
0001
0000
0000
0000
0000
0000
0000
0000
0000
0100
0000
0000
0000
0000
0000
0000
0000
0000
0000
0001
0000
0000
0000
0000
0000
0000
0000
0000
0100
0000
0000
0000
0000
0000
0000
0000
0000
0000
,
1001
0100
0011
0100
1010
0001
0110
1000
,
2001
3001
0110
1002
1003
0110
2001
3001
,
0110
0110
1100
0010
0101
1000
0110
0001
,
1002
0000
1003
0000
0100
0010
1000
0100
0010
0000
0001
0000
0100
0010
0100
0010
,
1001
0100
0011
0100
1010
0100
1001
0100
,
0210
0310
1001
0120
0130
1001
0210
0310
,
1001
1001
1100
0010
0101
0010
1001
0010
,
0120
0000
0130
0000
0100
0010
0001
0100
0010
0000
0001
0000
0110
0000
1001
0000
,
1000
0100
1000
0001
0100
0010
1000
0100
0010
0001
0100
0010
1000
0100
0001
0100
,
1000
0010
0100
0001
0010
0100
0010
0001
0100
0010
1000
0100
0001
0100
1000
0010
,
0100
0001
0010
0001
0100
0010
1000
0100
0010
1000
0010
0001
0100
0010
1000
0001
,
0010
0001
0010
0100
0010
1000
0010
0001
1000
0010
0100
0001
0010
0100
0010
0100
,
1000
0010
1000
0001
0010
0100
0001
0100
1000
0010
0100
0010
0100
0001
0010
0100
,
1000
0010
0100
0001
0010
0001
0100
1000
0100
0001
0010
0100
1000
0010
0100
0001
,
0010
0001
0100
0010
1000
0100
0001
0100
1000
0010
0100
0001
0010
0001
0100
0010
,
1000
0100
1000
0010
0100
0001
0010
1000
0010
0001
0100
0010
1000
0100
0010
0001
,
1M01
0000
1100
1100
0000
0100
0010
0001
,
1M01
0000
0000
0000
0110
0000
0000
0000
110M
1000
0010
0000
0110
0000
1000
0000
,
01M1
0000
0110
0000
1100
0000
1001
0000
M000
0000
0110
0000
0110
0000
1000
0010
,
1M01
0000
0000
0000
0000
0000
1100
0000
0000
0000
0000
0000
0101
0000
0000
0000
0000
0000
0010
0000
0000
1000
0000
0000
0M01
0000
0000
0010
0000
0000
0100
0000
0000
1000
0000
0000
0001
0000
0010
0000
0100
0000
1000
0000
0000
0000
0000
0000
,
011M
0000
0000
0000
0101
0000
0101
0000
0000
0000
0010
1000
0011
0000
0100
0000
,
101M
0000
0000
0000
0110
0000
0000
0000
00M1
0100
1000
0100
1010
0000
0100
0000
,
10M1
0000
0000
0000
0110
0000
1100
0000
0000
0000
0010
0100
0001
0010
0100
1000
,
0110
0000
0000
0000
0010
M1M1
11MM
M11M
,
1MM1
0000
0100
0001
1000
0100
0010
0100
0010
0000
0001
0010
0100
0000
0010
0000
,
1000
0000
0001
0000
0010
0100
0010
0001
0100
0010
1000
0010
0001
0010
0100
0010
,
1000
0000
0100
0010
0100
0000
0001
0010
0100
0000
1000
0010
0100
0001
0010
0100
,
1000
0100
1000
0000
0001
0100
0001
0000
1000
0010
1000
0000
0001
0010
0001
0000
,
1000
0000
0100
0000
0010
0000
0001
1000
0001
0000
0010
0100
0010
0000
0100
0000
,
1000
0000
0010
0000
0100
0000
0001
0000
1000
0010
1000
0010
1000
0000
0001
0000
,
1000
0010
0100
0010
0001
0100
0010
0100
1000
0100
0010
0100
0001
0010
0100
0010
,
1000
0000
0000
0100
0000
0000
0001
0000
0000
0100
0000
0000
0001
0000
0000
0010
0000
0000
1000
0000
0000
0010
0000
0000
1000
0000
0000
0100
0000
0000
0010
0000
0000
0001
0000
0000
1000
0000
0010
0000
0100
0000
0001
0000
0010
0000
0100
0000
,
1000
0000
0100
0000
0001
0000
1000
0000
0010
0000
0001
0000
1000
0100
0010
0001
,
1000
0100
1000
0001
0100
0010
0100
0001
0010
0100
1000
0000
0001
0000
0010
0000
,
0100
0000
0000
0000
0000
0000
0000
0000
0000
0000
0000
0000
0000
0000
0000
0000
0000
0000
0000
0000
0000
0000
0000
0000
0010
0000
0000
0000
0000
0000
0000
0000
0000
0000
0000
0000
0000
0000
0000
0000
0000
0000
0000
0000
0000
0000
0000
0000
1000
0000
0000
0000
0000
0000
0000
0000
0000
0000
0000
0000
0000
0000
0000
0000
0000
0000
0000
0000
0000
0000
0000
0000
0001
0000
0000
0000
0000
0000
0000
0000
0000
0000
0000
0000
0000
0000
0000
0000
0000
0000
0000
0000
0000
0000
0000
0000
1000
0000
0000
0000
0000
0000
0000
0000
0000
0000
0100
0000
0000
0000
0000
0000
0000
0000
0000
0010
0000
0000
0000
0000
0000
0000
0000
0000
0000
0100
0000
0000
0000
0000
0000
0000
0000
0000
0010
0000
0000
0000
0000
0000
0000
0000
0000
0000
0001
0000
0000
0000
0000
0000
0000
0000
0000
0000
0010
0000
0000
0000
0000
0000
0000
0000
0000
0100
0000
0000
0000
0000
0000
0000
0000
0000
0000
0010
0000
0000
0000
0000
0000
0000
0000
0000
0100
0000
0000
0000
0000
0000
0000
0000
0000
0000
,
1000
0000
0000
0000
0000
0000
0000
0000
0000
0000
0000
0000
0000
0000
0000
0000
0000
0000
0000
0000
0000
0000
0000
0000
0100
0000
0000
0000
0000
0000
0000
0000
0000
0000
0000
0000
0000
0000
0000
0000
0000
0000
0000
0000
0000
0000
0000
0000
0001
0000
0000
0000
0000
0000
0000
0000
0000
0000
0000
0000
0000
0000
0000
0000
0000
0000
0000
0000
0000
0000
0000
0000
0100
0000
0000
0000
0000
0000
0000
0000
0000
0000
0000
0000
0000
0000
0000
0000
0000
0000
0000
0000
0000
0000
0000
0000
1000
0000
0000
0000
0000
0000
0000
0000
0000
0000
0000
0000
0000
0000
0000
0000
0000
0000
0000
0000
0000
0000
0000
0000
1000
0000
0000
0000
0000
0000
0000
0000
0000
0000
0000
0000
0001
0000
0000
0000
0000
0000
0000
0000
0000
0000
0000
0000
0100
0000
0000
0000
0000
0000
0000
0000
0000
0000
0010
0000
0000
0000
0000
0000
0000
0000
0000
0100
0000
0000
0000
0000
0000
0000
0000
0000
0000
0010
0000
0000
0000
0000
0000
0000
0000
0000
0100
0000
0000
0000
0000
0000
0000
0000
0000
0000
,
1000
0100
0010
0100
0001
0100
0010
0100
1000
0100
0001
0100
0010
0100
0001
0100
,
1000
0010
0100
0010
0001
0010
0100
0010
1000
0010
0001
0010
0100
0010
1000
0100
,
0010
0001
0010
0100
0010
0001
0010
0100
1000
0100
0010
0100
1000
0100
0010
0001
,
1000
0000
0000
0100
0000
0000
0010
0000
0000
0001
0000
0000
0100
0000
0000
0010
0000
0000
1000
0000
0000
0010
0000
0000
0100
0000
0000
0001
0000
0000
0010
0000
0000
0100
0000
0000
1000
0000
0100
0000
0010
0000
0001
0000
0100
0000
0010
0000
,
1001
0000
0000
0000
;

//--------------- dance-single - ----------------
#NOTES:
     dance-single:
     :
     Challenge:
     17:
     0,0,0,0,0:
1001
0100
0011
1000
0110
0001
1001
0010
,
1100
0000
0010
0000
0101
0000
1000
0000
0110
0000
0001
0000
1010
0000
0100
0010
,
1001
0010
1100
0001
0110
1000
1001
0100
,
0011
0000
0000
0000
0000
0000
0000
0000
0000
0000
0000
0000
0000
0000
0000
0000
0000
0000
0000
0000
0000
0000
0000
0000
0100
0000
0000
0000
0000
0000
0000
0000
0000
0000
0000
0000
0000
0000
0000
0000
0000
0000
0000
0000
0000
0000
0000
0000
1000
0000
0000
0000
0000
0000
0000
0000
0000
0000
0100
0000
0000
0000
0000
0000
0000
0000
0000
1000
0000
0000
0000
0000
0000
0000
0000
0000
0000
0100
0000
0000
0000
0000
0000
0000
0000
0000
1000
0000
0000
0000
0000
0000
0000
0000
0000
0000
0001
0000
0000
0000
0000
0000
0000
0000
0000
0000
0100
0000
0000
0000
0000
0000
0000
0000
0000
0001
0000
0000
0000
0000
0000
0000
0000
0000
0000
0100
0000
0000
0000
0000
0000
0000
0000
0000
0001
0000
0000
0000
0000
0000
0000
0000
0000
0000
0010
0000
0000
0000
0000
0000
0000
0000
0000
0000
0100
0000
0000
0000
0000
0000
0000
0000
0000
0010
0000
0000
0000
0000
0000
0000
0000
0000
0000
0100
0000
0000
0000
0000
0000
0000
0000
0000
0010
0000
0000
0000
0000
0000
0000
0000
0000
0000
,
1001
0010
0101
1000
0110
0001
1001
0100
,
1010
0000
0100
0000
0011
0000
1000
0000
0110
0000
0001
0000
1100
0000
0010
0100
,
1001
0100
1010
0001
0110
1000
1001
0100
,
0011
0000
0000
0000
0000
0000
0000
0000
0000
0000
0000
0000
0000
0000
0000
0000
0000
0000
0000
0000
0000
0000
0000
0000
0100
0000
0000
0000
0000
0000
0000
0000
0000
0000
0000
0000
0000
0000
0000
0000
0000
0000
0000
0000
0000
0000
0000
0000
1000
0000
0000
0000
0000
0000
0000
0000
0000
0000
0010
0000
0000
0000
0000
0000
0000
0000
0000
1000
0000
0000
0000
0000
0000
0000
0000
0000
0000
0010
0000
0000
0000
0000
0000
0000
0000
0000
1000
0000
0000
0000
0000
0000
0000
0000
0000
0000
0001
0000
0000
0000
0000
0000
0000
0000
0000
0000
0010
0000
0000
0000
0000
0000
0000
0000
0000
0001
0000
0000
0000
0000
0000
0000
0000
0000
0000
0010
0000
0000
0000
0000
0000
0000
0000
0000
0001
0000
0000
0000
0000
0000
0000
0000
0000
0000
0100
0000
0000
0000
0000
0000
0000
0000
0000
0000
0010
0000
0000
0000
0000
0000
0000
0000
0000
0100
0000
0000
0000
0000
0000
0000
0000
0000
0000
0010
0000
0000
0000
0000
0000
0000
0000
0000
0100
0000
0000
0000
0000
0000
0000
0000
0000
0000
,
1001
0100
0011
0100
1010
0001
0110
1000
,
2001
3001
0110
1002
1003
0110
2001
3001
,
0110
0110
1100
0010
0101
1000
0110
0001
,
1002
0000
1003
0000
0100
0010
1000
0100
0010
0000
0001
0000
0100
0010
0100
0010
,
1001
0100
0011
0100
1010
0100
1001
0100
,
0210
0310
1001
0120
0130
1001
0210
0310
,
1001
1001
1100
0010
0101
0010
1001
0010
,
0120
0000
0130
0000
0100
0010
0001
0100
0010
0000
0001
0000
0110
0000
1001
0000
,
1000
0100
1000
0001
0100
0010
1000
0100
0010
0100
1000
0010
0100
0001
0010
0100
,
1000
0010
0100
0001
0010
0100
0010
0001
1000
0010
1000
0001
0010
0100
1000
0001
,
1000
0100
0010
0100
0010
0001
0100
0010
1000
0001
0010
0100
1000
0010
0100
0010
,
1000
0100
0010
0100
1000
0100
0010
0001
1000
0001
0010
0001
0100
0010
1000
0100
,
1000
0010
0100
0010
1000
0100
0010
0100
0010
0001
0100
0010
0100
0001
0010
0100
,
1000
0010
1000
0001
0010
0100
1000
0010
0100
0010
0100
0001
0010
0100
0010
0001
,
0100
0001
0010
0100
0010
0100
1000
0010
0100
0001
1000
0100
1000
0001
0100
0001
,
1000
0100
0010
0001
0100
0010
1000
0010
0100
0001
0010
0100
1000
0010
0100
0001
,
1001
0000
0011
0011
0000
0010
0100
1000
,
1001
0000
0000
0000
0110
0000
0000
0000
0011
0001
0100
0000
0110
0000
0001
0000
,
1010
0000
0110
0000
0011
0000
1001
0000
0000
0000
0110
0000
0110
0000
0001
0100
,
1001
0000
0000
0000
0000
0000
0011
0000
0000
0000
0000
0000
1010
0000
0000
0000
0000
0000
0100
0000
0000
0001
0000
0000
1000
0000
0000
0100
0000
0000
0010
0000
0000
0001
0000
0000
1000
0000
0100
0000
0010
0000
0001
0000
0000
0000
0000
0000
,
0110
0000
0000
0000
1010
0000
1010
0000
0000
0000
0100
0001
1100
0000
0010
0000
,
0101
0000
0000
0000
0110
0000
0000
0000
1000
0010
0001
0010
0101
0000
0010
0000
,
1001
0000
0000
0000
0110
0000
0011
0000
0000
0000
0100
0010
1000
0100
0010
0001
,
0110
0000
0000
0000
0100
1M1M
MM11
M11M
,
1MM1
0000
0100
0001
1000
0100
0010
0100
0010
0000
0001
0010
0100
0000
0010
0000
,
1000
0000
0000
0000
0000
0000
0001
0000
0000
0000
0000
0000
0100
0000
0010
0000
0100
0000
0001
0000
0010
0000
0100
0000
1000
0000
0100
0000
0010
0000
0001
0000
0000
1000
0000
0000
0001
0000
0000
0010
0000
0000
0100
0000
0000
0010
0000
0000
,
1000
0000
0100
0010
0100
0000
0001
0010
0100
0000
1000
0010
0100
0001
0010
0100
,
1000
0100
1000
0000
0001
0100
0001
0000
1000
0010
1000
0000
0001
0010
0001
0000
,
1000
0000
0100
0000
0010
0000
0001
1000
0001
0000
0010
0100
0010
0000
0100
0000
,
1000
0000
0010
0000
0100
0000
0001
0000
1000
0010
1000
0010
1000
0000
0001
0000
,
1000
0100
0010
0100
1000
0100
0010
0001
0010
0100
0010
0001
1000
0100
1000
0001
,
0010
0000
0000
0100
0000
0000
0010
0000
0000
0100
0000
0000
1000
0000
0000
0010
0000
0000
0100
0000
0000
0001
0000
0000
0010
0000
0000
0100
0000
0000
0010
0000
0000
0001
0000
0000
1000
0000
0010
0000
0100
0000
0001
0000
0010
0000
0100
0000
,
1000
0000
0100
0000
0001
0000
1000
0000
0010
0000
0001
0000
1000
0100
0010
0001
,
1000
0100
1000
0001
0100
0010
0100
0001
0010
0100
1000
0000
0001
0000
0010
0000
,
0100
0000
0000
0010
0000
0000
1000
0000
0000
0001
0000
0000
1000
0100
0010
0100
0010
0001
1000
0100
0010
0100
0010
0001
,
1000
0000
0000
0100
0000
0000
0001
0000
0000
0100
0000
0000
1000
0000
0000
0001
0010
0100
1000
0010
0100
0010
0100
0001
,
1000
0100
1000
0001
0010
0100
0010
0001
0100
0010
1000
0100
0010
0100
0010
0001
,
0100
0010
1000
0100
0010
0100
1000
0001
0100
0010
0100
0001
0010
0001
1000
0100
,
0010
0001
0010
0100
0010
0001
0010
0100
1000
0100
0010
0100
1000
0100
0010
0001
,
1000
0000
0000
0100
0000
0000
1000
0000
0000
0001
0000
0000
0100
0000
0000
0001
0000
0000
1000
0000
0000
0010
0000
0000
1000
0000
0000
0001
0000
0000
0010
0000
0000
0001
0000
0000
1000
0000
0100
0000
0010
0000
0001
0000
0100
0000
0010
0000
,
1001
0100
0011
1000
0110
0001
1001
0010
,
1100
0000
0010
0000
0101
0000
1000
0000
0110
0000
0001
0000
1010
0000
0100
0010
,
1001
0010
1100
0001
0110
1000
1001
0100
,
0011
0000
0000
0100
0000
0000
1000
0100
1000
0100
1000
0100
0010
0001
0010
0001
0010
0001
0100
0010
0100
0010
0100
0010
,
1001
0010
0101
1000
0110
0001
1001
0100
,
1010
0000
0100
0000
0011
0000
1000
0000
0110
0000
0001
0000
1100
0000
0010
0100
,
1001
0100
1010
0001
0110
1000
1001
0100
,
0011
0000
0000
0100
0000
0000
1000
0010
1000
0010
1000
0010
0100
0001
0100
0001
0100
0001
0010
0100
0010
0100
0010
0100
,
1001
0100
0011
0100
1010
0001
0110
1000
,
2001
3001
0110
1002
1003
0110
2001
3001
,
0110
0110
1100
0010
0101
1000
0110
0001
,
1002
0000
1003
0000
0100
0010
1000
0100
0010
0000
0001
0000
0100
0010
0100
0010
,
1001
0100
0011
0100
1010
0100
1001
0100
,
0210
0310
1001
0120
0130
1001
0210
0310
,
1001
1001
1100
0010
0101
0010
1001
0010
,
0120
0000
0130
0000
0100
0010
0001
0100
0010
0000
0001
0000
0110
0000
1001
0000
,
1000
0100
1000
0001
0100
0010
1000
0100
0010
0001
0100
0010
1000
0100
0001
0100
,
1000
0010
0100
0001
0010
0100
0010
0001
0100
0010
1000
0100
0001
0100
1000
0010
,
0100
0001
0010
0001
0100
0010
1000
0100
0010
1000
0010
0001
0100
0010
1000
0001
,
0010
0001
0010
0100
0010
1000
0010
0001
1000
0010
0100
0001
0010
0100
0010
0100
,
1000
0010
1000
0001
0010
0100
0001
0100
1000
0010
0100
0010
0100
0001
0010
0100
,
1000
0010
0100
0001
0010
0001
0100
1000
0100
0001
0010
0100
1000
0010
0100
0001
,
0010
0001
0100
0010
1000
0100
0001
0100
1000
0010
0100
0001
0010
0001
0100
0010
,
1000
0100
1000
0010
0100
0001
0010
1000
0010
0001
0100
0010
1000
0100
0010
0001
,
1001
0000
1100
1100
0000
0100
0010
0001
,
1001
0000
0000
0000
0110
0000
0000
0000
1100
1000
0010
0000
0110
0000
1000
0000
,
0101
0000
0110
0000
1100
0000
1001
0000
0000
0000
0110
0000
0110
0000
1000
0010
,
1001
0000
0000
0000
0000
0000
1100
0000
0000
0000
0000
0000
0101
0000
0000
0000
0000
0000
0010
0000
0000
1000
0000
0000
0001
0000
0000
0010
0000
0000
0100
0000
0000
1000
0000
0000
0001
0000
0010
0000
0100
0000
1000
0000
0000
0000
0000
0000
,
0110
0000
0000
0000
0101
0000
0101
0000
0000
0000
0010
1000
0011
0000
0100
0000
,
1010
0000
0000
0000
0110
0000
0000
0000
0001
0100
1000
0100
1010
0000
0100
0000
,
1001
0000
0000
0000
0110
0000
1100
0000
0000
0000
0010
0100
0001
0010
0100
1000
,
0110
0000
0000
0000
0010
M1M1
11MM
M11M
,
1MM1
0000
0100
0001
1000
0100
0010
0100
0010
0000
0001
0010
0100
0000
0010
0000
,
1000
0000
0000
0000
0000
0000
0001
0000
0000
0000
0000
0000
0100
0000
0010
0000
0100
0000
0001
0000
0010
0000
0100
0000
1000
0000
0100
0000
0010
0000
0001
0000
0000
1000
0000
0000
0001
0000
0000
0010
0000
0000
0100
0000
0000
0010
0000
0000
,
1000
0000
0100
0010
0100
0000
0001
0010
0100
0000
1000
0010
0100
0001
0010
0100
,
1000
0100
1000
0000
0001
0100
0001
0000
1000
0010
1000
0000
0001
0010
0001
0000
,
1000
0000
0100
0000
0010
0000
0001
1000
0001
0000
0010
0100
0010
0000
0100
0000
,
1000
0000
0010
0000
0100
0000
0001
0000
1000
0010
1000
0010
1000
0000
0001
0000
,
1000
0000
0100
0000
0010
0000
0100
0000
0000
0010
0000
0000
0001
0000
0010
0000
0100
0000
0010
0000
0000
0100
0000
0000
1000
0000
0010
0000
0100
0000
0010
0000
0000
0100
0000
0000
0001
0000
0100
0000
0010
0000
0100
0000
0000
0010
0000
0000
,
1000
0000
0100
0000
0010
0000
0001
0000
0000
0100
0000
0000
0001
0000
0010
0000
0100
0000
1000
0000
0000
0010
0000
0000
1000
0000
0000
0100
0000
0000
0010
0000
0000
0001
0000
0000
1000
0000
0010
0000
0100
0000
0001
0000
0010
0000
0100
0000
,
1000
0000
0100
0000
0001
0000
1000
0000
0010
0000
0001
0000
1000
0100
0010
0001
,
1000
0100
1000
0001
0100
0010
0100
0001
0010
0100
1000
0000
0001
0000
0010
0000
,
0100
0000
0000
0010
0000
0000
1000
0000
0000
0001
0000
0000
1000
0100
0010
0100
0010
0001
1000
0100
0010
0100
0010
0001
,
1000
0000
0000
0100
0000
0000
0001
0000
0000
0100
0000
0000
1000
0000
0000
0001
0010
0100
1000
0010
0100
0010
0100
0001
,
1000
0000
0000
0000
0000
0000
0000
0000
0000
0000
0100
0000
0000
0000
0000
0000
0000
0000
0000
1000
0000
0000
0000
0000
0000
0000
0000
0000
0000
0001
0000
0000
0000
0000
0000
0000
0000
0000
0100
0000
0000
0000
0000
0000
0000
0000
0000
0000
0001
0000
0000
0000
0000
0000
0000
0000
0000
0000
1000
0000
0000
0000
0000
0000
0000
0000
0000
0010
0000
0000
0000
0000
0000
0000
0000
0000
0000
1000
0000
0000
0000
0000
0000
0000
0000
0000
0001
0000
0000
0000
0000
0000
0000
0000
0000
0000
0010
0000
0000
0000
0000
0000
0000
0000
0000
0000
0001
0000
0000
0000
0000
0000
0000
0000
0000
1000
0000
0000
0000
0000
0000
0000
0000
0000
0000
0100
0000
0000
0000
0000
0000
0000
0000
0000
0010
0000
0000
0000
0000
0000
0000
0000
0000
0000
0001
0000
0000
0000
0000
0000
0000
0000
0000
0000
0100
0000
0000
0000
0000
0000
0000
0000
0000
0010
0000
0000
0000
0000
0000
0000
0000
0000
0000
1000
0000
0000
0000
0000
0000
0000
0000
0000
0100
0000
0000
0000
0000
0000
0000
0000
0000
0000
,
0010
0000
0000
0000
0000
0000
0000
0000
0000
0000
0100
0000
0000
0000
0000
0000
0000
0000
0000
1000
0000
0000
0000
0000
0000
0000
0000
0000
0000
0001
0000
0000
0000
0000
0000
0000
0000
0000
0100
0000
0000
0000
0000
0000
0000
0000
0000
0000
1000
0000
0000
0000
0000
0000
0000
0000
0000
0000
0100
0000
0000
0000
0000
0000
0000
0000
0000
0001
0000
0000
0000
0000
0000
0000
0000
0000
0000
0010
0000
0000
0000
0000
0000
0000
0000
0000
0100
0000
0000
0000
0000
0000
0000
0000
0000
0000
1000
0000
0000
0000
0000
0000
0000
0000
0000
0000
0100
0000
0000
0000
0000
0000
0000
0000
0000
1000
0000
0000
0000
0000
0000
0000
0000
0000
0000
0100
0000
0000
0000
0000
0000
0000
0000
0000
0001
0000
0000
0000
0000
0000
0000
0000
0000
0000
0100
0000
0000
0000
0000
0000
0000
0000
0000
0000
0001
0000
0000
0000
0000
0000
0000
0000
0000
0100
0000
0000
0000
0000
0000
0000
0000
0000
0000
1000
0000
0000
0000
0000
0000
0000
0000
0000
0100
0000
0000
0000
0000
0000
0000
0000
0000
0000
,
0010
0000
0001
0000
0010
0000
0100
0000
0000
0010
0000
0000
0001
0000
0010
0000
0100
0000
0010
0000
0000
0001
0000
0000
1000
0000
0100
0000
0010
0000
0100
0000
0000
1000
0000
0000
0100
0000
0010
0000
0100
0000
1000
0000
0000
0100
0000
0000
,
0010
0000
0001
0000
0010
0000
0100
0000
0000
1000
0000
0000
0100
0000
0010
0000
0001
0000
1000
0000
0000
0010
0000
0000
1000
0000
0100
0000
0010
0000
0001
0000
0100
0000
0010
0000
1000
0000
0100
0000
0010
0000
0001
0000
0100
0000
0010
0000
,
1001
0000
0000
0000
;
