#TITLE:Square Missile;
#SUBTITLE:;
#ARTIST:Raxxo;
#TITLETRANSLIT:;
#SUBTITLETRANSLIT:;
#ARTISTTRANSLIT:;
#GENRE:;
#CREDIT:;
#MUSIC:Square Missile.ogg;
#BANNER:Square Missile-bn.png;
#BACKGROUND:Square Missile-bg.png;
#CDTITLE:;
#SAMPLESTART:16.083;
#SAMPLELENGTH:10.583;
#SELECTABLE:YES;
#OFFSET:-0.083;
#BPMS:0.000=360.000;
#STOPS:;
#BGCHANGES:;
#FGCHANGES:;

//--------------- dance-single - ----------------
#NOTES:
     dance-single:
     :
     Beginner:
     4:
     0,0,0,0,0:
0000
0000
0000
0000
,
0000
0000
0000
0000
,
0000
0000
0000
0000
,
0000
0000
0000
0000
,
0000
0000
0000
0000
,
0000
0000
0000
0000
,
0000
0000
0000
0000
,
0000
0000
0000
0000
,
1000
0000
0100
0000
,
1000
0000
0100
0000
,
0010
0000
0001
0000
,
0010
0000
0001
0000
,
1000
0000
0010
0000
,
1000
0000
0010
0000
,
0100
0000
0001
0000
,
0100
0000
0001
0000
,
1000
0000
0100
0000
,
0010
0000
0001
0000
,
1000
0000
0010
0000
,
0100
0000
0001
0000
,
1000
0000
0100
0000
,
0010
0000
0001
0000
,
1000
0000
1000
0000
,
0010
0000
0000
0000
,
1000
0000
0000
0000
,
0000
0000
0000
0000
,
0100
0000
0000
0000
,
0000
0000
0000
0000
,
0010
0000
0000
0000
,
0000
0000
0000
0000
,
0001
0000
0000
0000
,
0000
0000
0000
0000
,
1000
0000
0000
0000
,
0100
0000
0000
0000
,
0010
0000
0000
0000
,
0001
0000
0000
0000
,
1000
0000
0000
0000
,
0100
0000
0000
0000
,
0010
0000
0000
0000
,
0001
0000
0000
0000
,
1000
0000
0000
0000
,
0000
0000
0000
0000
,
0001
0000
0000
0000
,
0010
0000
0000
0000
,
0100
0000
0000
0000
,
0000
0000
0000
0000
,
1000
0000
0000
0000
,
0000
0000
0000
0000
,
0001
0000
0000
0000
,
0000
0000
0000
0000
,
1000
0000
0000
0000
,
0100
0000
0000
0000
,
0010
0000
0000
0000
,
0000
0000
0000
0000
,
0001
0000
0000
0000
,
0000
0000
0000
0000
,
1000
0000
0000
0000
,
0000
0000
0000
0000
,
0100
0000
0000
0000
,
0000
0000
0000
0000
,
0010
0000
0000
0000
,
0000
0000
0000
0000
,
0001
0000
0000
0000
,
0000
0000
0000
0000
,
1000
0000
0000
0000
,
1000
0000
0000
0000
,
0010
0000
0000
0000
,
0010
0000
0000
0000
,
0100
0000
0000
0000
,
0100
0000
0000
0000
,
0001
0000
0000
0000
,
0001
0000
0000
0000
,
1000
0000
0000
0000
,
1000
0000
0000
0000
,
0100
0000
0000
0000
,
0100
0000
0000
0000
,
0010
0000
0000
0000
,
0010
0000
0000
0000
,
0001
0000
0000
0000
,
0001
0000
0000
0000
,
1000
0000
1000
0000
,
0100
0000
0100
0000
,
0010
0000
0010
0000
,
0001
0000
0001
0000
,
1000
0000
1000
0000
,
0010
0000
0010
0000
,
0100
0000
0100
0000
,
0001
0000
0001
0000
,
1000
0000
0100
0000
,
1000
0000
0100
0000
,
0010
0000
0001
0000
,
0010
0000
0001
0000
,
1000
0000
0010
0000
,
1000
0000
0010
0000
,
0100
0000
0001
0000
,
0100
0000
0001
0000
,
1000
0000
0000
0000
,
0000
0000
0000
0000
,
0001
0000
0000
0000
,
0000
0000
0000
0000
,
1000
0000
0000
0000
,
0000
0000
0000
0000
,
0001
0000
0000
0000
,
0000
0000
0000
0000
,
0100
0000
0000
0000
,
0000
0000
0000
0000
,
0010
0000
0000
0000
,
0000
0000
0000
0000
,
0100
0000
0000
0000
,
0000
0000
0000
0000
,
0010
0000
0000
0000
,
0000
0000
0000
0000
,
1000
0000
0000
0000
,
0000
0000
0000
0000
,
0100
0000
0000
0000
,
0000
0000
0000
0000
,
0010
0000
0000
0000
,
0000
0000
0000
0000
,
0001
0000
0000
0000
,
0000
0000
0000
0000
,
1000
0000
0000
0000
,
0000
0000
0000
0000
,
0010
0000
0000
0000
,
0000
0000
0000
0000
,
0100
0000
0000
0000
,
0000
0000
0000
0000
,
0001
0000
0000
0000
,
0000
0000
0000
0000
,
1000
0000
0100
0000
,
1000
0000
0000
0000
,
0000
0000
0000
0000
,
0000
0000
0000
0000
,
0001
0000
0100
0000
,
0001
0000
0000
0000
,
0000
0000
0000
0000
,
0000
0000
0000
0000
,
1000
0000
0000
0000
,
1000
0000
0000
0000
,
0100
0000
0000
0000
,
0100
0000
0000
0000
,
0010
0000
0000
0000
,
0010
0000
0000
0000
,
0001
0000
0000
0000
,
0001
0000
0000
0000
,
1000
0000
0000
0000
,
1000
0000
0000
0000
,
0010
0000
0000
0000
,
0010
0000
0000
0000
,
0100
0000
0000
0000
,
0100
0000
0000
0000
,
0001
0000
0000
0000
,
0001
0000
0000
0000
,
1000
0000
1000
0000
,
0100
0000
0100
0000
,
0010
0000
0010
0000
,
0001
0000
0001
0000
,
1000
0000
1000
0000
,
0010
0000
0010
0000
,
0100
0000
0100
0000
,
0001
0000
0001
0000
,
1000
0000
0100
0000
,
0010
0000
0001
0000
,
1000
0000
0100
0000
,
0010
0000
0001
0000
,
1000
0000
0010
0000
,
0100
0000
0001
0000
,
1000
0000
0010
0000
,
0100
0000
0001
0000
,
1000
0000
0000
0000
,
0100
0000
0000
0000
,
0010
0000
0000
0000
,
0001
0000
0000
0000
,
1000
0000
0000
0000
,
0010
0000
0000
0000
,
0100
0000
0000
0000
,
0001
0000
0000
0000
,
1000
0000
0100
0000
,
1000
0000
0100
0000
,
0010
0000
0001
0000
,
0010
0000
0001
0000
,
1000
0000
0010
0000
,
1000
0000
0010
0000
,
0100
0000
0001
0000
,
0100
0000
0001
0000
,
1000
0000
0100
0000
,
1000
0100
1000
0000
,
0010
0000
0001
0000
,
0010
0001
0010
0000
,
1000
0000
0001
0000
,
1000
0001
1000
0000
,
1000
0000
0001
0000
,
1000
0100
0010
0002
,
0003
0000
0000
0000
;

//--------------- dance-single - ----------------
#NOTES:
     dance-single:
     :
     Easy:
     9:
     0,0,0,0,0:
0000
0000
0000
0000
,
0000
0000
0000
0000
,
0000
0000
0000
0000
,
0000
0000
0000
0000
,
0000
0000
0000
0000
,
0000
0000
0000
0000
,
0000
0000
0000
0000
,
0000
0000
0000
0000
,
1000
0100
1000
0100
,
1000
0100
1000
0100
,
0010
0001
0010
0001
,
0010
0001
0010
0001
,
1000
0010
1000
0010
,
1000
0010
1000
0010
,
0100
0001
0100
0001
,
0100
0001
0100
0001
,
1000
0100
0010
0001
,
1000
0100
0010
0001
,
1000
0010
0100
0001
,
1000
0010
0100
0001
,
1000
0100
0010
0001
,
1000
0010
0100
0001
,
1000
0001
1000
0001
,
0010
0000
0000
0000
,
1001
0100
0010
1001
,
0000
0100
0100
0100
,
0011
0001
0010
0001
,
1100
1000
0100
1000
,
0110
0001
1000
0110
,
0000
0010
0010
0010
,
0101
0100
0001
0100
,
1010
0010
1000
0010
,
1001
0010
0100
1001
,
0000
0010
0010
0010
,
1100
0100
1000
0100
,
0011
0010
0001
0010
,
0110
1000
0001
0110
,
0000
0100
0100
0100
,
1001
1000
0001
2002
,
3003
0000
0000
0000
,
1000
0100
0010
0001
,
0000
0001
0000
0001
,
0001
0010
0100
1000
,
0001
0100
0010
1000
,
1000
0010
0100
0001
,
0000
0001
0000
0001
,
0001
0100
0010
1000
,
0001
0010
0100
1000
,
1000
0100
0010
0001
,
0000
1000
0000
1000
,
0001
0100
0010
1000
,
0001
0010
0100
1000
,
1000
0010
0100
0001
,
0000
1000
0000
1000
,
0001
0010
0100
2000
,
0000
0000
0000
3000
,
1100
0100
0000
0100
,
0000
0100
0000
0100
,
0011
0010
0010
0000
,
1010
0010
0010
0000
,
0101
0100
0000
0100
,
0000
0100
0000
0100
,
0110
0010
1000
0001
,
2002
0000
0000
3003
,
2000
0000
3200
0000
,
0320
0000
0032
0000
,
2003
0000
3020
0000
,
0230
0000
0302
0000
,
2003
0000
3200
0000
,
2300
0000
3200
0000
,
0320
0000
0032
0000
,
0023
0000
0032
0000
,
2003
0000
3020
0000
,
2030
0000
3020
0000
,
0230
0000
0302
0000
,
0203
0000
0302
0000
,
2003
0000
3020
0000
,
0230
0000
0302
0000
,
2003
0000
3200
0000
,
0320
0000
0032
0000
,
1003
0100
1000
0000
,
0001
0100
0001
0000
,
1000
0010
1000
0000
,
0001
0010
0001
0000
,
0100
1000
0100
0000
,
0100
0001
0100
0000
,
0010
1000
0010
0000
,
0010
0001
0010
0000
,
1000
0100
0010
0000
,
0100
0010
0001
0000
,
0001
0010
0100
0000
,
0010
0100
1000
0000
,
1000
0010
0100
0000
,
0001
0100
0010
0000
,
0100
0001
0010
0000
,
0010
1000
0100
0000
,
1000
0000
0100
0000
,
0010
0000
0001
0000
,
1000
0000
0000
0100
0000
0000
0000
0000
,
0001
0000
0000
0010
0000
0000
0000
0000
,
1000
0000
0010
0000
,
0100
0000
0001
0000
,
1000
0000
0000
0010
0000
0000
0000
0000
,
0001
0000
0000
0100
0000
0000
0000
0000
,
0001
0000
0010
0000
,
0100
0000
1000
0000
,
0001
0000
0000
0010
0000
0000
0000
0000
,
1000
0000
0000
0100
0000
0000
0000
0000
,
0001
0000
0100
0000
,
0010
0000
1000
0000
,
0001
0000
0000
0100
0000
0000
0000
0000
,
1000
0000
0000
0000
,
0001
0000
0001
0000
,
0001
0000
0000
0000
,
1000
0000
1000
0000
,
1000
0000
0000
0000
,
0010
0000
0010
0000
,
0010
0000
0000
0000
,
0100
0000
0100
0000
,
0100
0000
0000
0000
,
0001
0000
0010
0000
,
0100
0000
1000
0000
,
0001
0000
0010
0000
,
0100
0000
1000
0000
,
0001
0000
0100
0000
,
0010
0000
1000
0000
,
0001
0000
0100
0000
,
0010
0000
1000
0000
,
0001
0000
0000
0001
,
0000
0001
0000
0000
,
1000
0000
0000
0000
,
1000
0000
0000
0000
,
0010
0000
0000
0010
,
0000
0010
0000
0000
,
0100
0000
0000
0000
,
0100
0000
0000
0000
,
0001
0000
0001
0000
,
1000
0000
1000
0000
,
0010
0000
0010
0000
,
0100
0000
0100
0000
,
1000
0000
1000
0000
,
0001
0000
0001
0000
,
0100
0000
0100
0000
,
0010
0000
0010
0000
,
1000
0000
1000
0000
,
0100
0000
0100
0000
,
0010
0000
0010
0000
,
0001
0000
0001
0000
,
1000
0000
1000
0000
,
0010
0000
0010
0000
,
0100
0000
0100
0000
,
0001
0000
0001
0000
,
0001
0010
0001
0000
,
1000
0010
1000
0000
,
0001
0100
0001
0000
,
1000
0100
1000
0000
,
0010
0001
0010
0000
,
0010
1000
0010
0000
,
0100
0001
0100
0000
,
0100
1000
0100
0000
,
0001
0010
0100
0000
,
0010
0100
1000
0000
,
1000
0100
0010
0000
,
0100
0010
0001
0000
,
0001
0100
0010
0000
,
1000
0010
0100
0000
,
0100
0001
0010
0000
,
0010
1000
0100
0000
,
1000
0000
0100
0000
,
1000
0000
0100
0000
,
0010
0000
0001
0000
,
0010
0000
0001
0000
,
1000
0000
0010
0000
,
1000
0000
0010
0000
,
0100
0000
0001
0000
,
0100
0000
0001
0000
,
1000
0100
1000
0100
,
1000
0100
1000
0100
,
0010
0001
0010
0001
,
0010
0001
0010
0001
,
1000
0010
1000
0010
,
1000
0010
1000
0010
,
0100
0001
0100
0001
,
0100
0001
0100
0001
,
1000
0100
0010
0001
,
1000
0100
0010
0001
,
1000
0010
0100
0001
,
1000
0010
0100
0001
,
1000
0100
0010
0001
,
1000
0010
0100
0001
,
1000
0100
0010
0001
,
0010
0100
1000
0002
,
0003
0000
0000
0000
;

//--------------- dance-single - ----------------
#NOTES:
     dance-single:
     :
     Medium:
     12:
     0,0,0,0,0:
0000
0000
0000
0000
,
0000
0000
0000
0000
,
0000
0000
0000
0000
,
0000
0000
0000
0000
,
0000
0000
0000
0000
,
0000
0000
0000
0000
,
0000
0000
0000
0000
,
0000
0000
0000
0000
,
1000
0100
1000
0100
1000
0100
1000
0100
,
1000
0100
1000
0100
2000
0000
0000
0000
,
3001
0010
0001
0010
0001
0010
0001
0010
,
0001
0010
0001
0010
0002
0000
0000
0000
,
1003
0010
1000
0010
1000
0010
1000
0010
,
1000
0010
1000
0010
2000
0000
0000
0000
,
3001
0100
0001
0100
0001
0100
0001
0100
,
0001
0100
0001
0100
0002
0000
0000
0000
,
1003
0100
1000
0000
0100
0000
0100
0000
,
0001
0100
0001
0000
0100
0000
0100
0000
,
1000
0010
1000
0000
0010
0000
0010
0000
,
0001
0010
0001
0000
0010
0000
0010
0000
,
1000
0100
0010
0000
0100
0000
0100
0000
,
0001
0010
0100
0000
0010
0000
0010
0000
,
1000
0100
0010
0001
0010
0100
1000
0000
,
2002
3003
2002
3003
,
1000
0100
0010
0001
,
0000
0010
0010
0010
,
0001
0010
0100
1000
,
0001
0100
0010
1000
,
1000
0010
0100
0001
,
0000
0100
0100
0100
,
0001
0100
0010
1000
,
0000
1000
1000
1000
,
0001
0010
0100
1000
,
0000
0100
0100
0100
,
1000
0100
0010
0001
,
1000
0010
0100
0001
,
0001
0100
0010
1000
,
0000
0010
0010
0010
,
1000
0010
0100
0002
,
0000
0000
0003
0000
,
1000
0100
0001
0010
,
1000
0100
0100
0100
,
1000
0010
0100
0001
,
1000
0100
0010
0001
,
0001
0010
1000
0100
,
0001
0010
0010
0010
,
0001
0100
0010
1000
,
0001
0010
0100
1000
,
1000
0010
0001
0100
,
1000
0010
0010
0010
,
1000
0100
0010
0001
,
1000
0010
0100
0001
,
0001
0100
1000
0010
,
0001
0100
0100
0100
,
0001
0010
0100
2000
,
0000
0000
3000
0000
,
1000
0001
1000
0001
1000
0000
0001
0000
,
0000
1000
0000
0001
,
0010
0010
0010
0010
,
0100
0100
0100
0100
,
0001
1000
0001
1000
0001
0000
1000
0000
,
0000
0001
0000
1000
,
0100
0100
0010
0010
,
2002
0000
0000
3003
,
1000
0100
0001
0100
,
1000
0100
0001
0100
,
1000
0010
0001
0010
,
1000
0010
0001
0010
,
1000
0100
0001
0100
,
1000
0100
0001
0100
,
1000
0010
0001
0010
,
1000
0010
0001
0010
,
1000
0100
0001
0010
,
1000
0100
0001
0010
,
1000
0010
0001
0100
,
1000
0010
0001
0100
,
1000
0100
0010
0001
,
1000
0010
0100
0001
,
1000
0100
0001
0010
,
1000
0010
0001
0100
,
1000
0100
0010
0000
0001
0000
0001
0000
,
1000
0100
0010
0000
0001
0000
0001
0000
,
1000
0010
0100
0000
0001
0000
0001
0000
,
1000
0010
0100
0000
0001
0000
0001
0000
,
0001
0010
0100
0000
1000
0000
1000
0000
,
0001
0010
0100
0000
1000
0000
1000
0000
,
0001
0100
0010
0000
1000
0000
1000
0000
,
0001
0100
0010
0000
1000
0000
1000
0000
,
1000
0100
0001
0000
0010
0000
0010
0000
,
1000
0100
0001
0000
0010
0000
0010
0000
,
1000
0010
0001
0000
0100
0000
0100
0000
,
1000
0010
0001
0000
0100
0000
0100
0000
,
0001
0010
1000
0000
0100
0000
0100
0000
,
0001
0100
1000
0000
0010
0000
0010
0000
,
0001
1000
0001
0000
1000
0001
1000
0000
,
0010
0100
0010
0000
0100
0010
0100
0000
,
1000
0100
0010
0001
,
1000
0000
0001
1000
,
0001
0000
0000
0010
0000
0000
0100
0000
,
1000
0000
0000
0100
0000
0000
0010
0000
,
0001
0000
0000
0001
0000
0000
0001
0000
,
0001
0000
0001
0000
1000
0001
1000
0001
,
1000
0000
0000
0010
0000
0000
0100
0000
,
0001
0000
0000
0100
0000
0000
0010
0000
,
1000
0010
0100
0001
,
1000
0000
0001
1000
,
0001
0000
0000
0100
0000
0000
0010
0000
,
1000
0000
0000
0010
0000
0000
0100
0000
,
0001
0000
0000
0001
0000
0000
0001
0000
,
0001
0000
0001
0000
1000
0001
1000
0001
,
1000
0000
0000
0100
0000
0000
0010
0000
,
2002
0000
0000
3003
,
1000
0100
1000
0100
,
0010
0001
0010
0001
,
1000
0000
0000
0100
0000
0000
0010
0000
,
0001
0000
0000
0010
0000
0000
0100
0000
,
1000
0000
0000
1000
0000
0000
1000
0000
,
1000
0000
1000
0000
0001
1000
0001
1000
,
0001
0000
0000
0100
0000
0000
0010
0000
,
1000
0000
0000
0010
0000
0000
0100
0000
,
0001
0010
0001
0010
,
0100
1000
0100
1000
,
0001
0000
0000
0010
0000
0000
0100
0000
,
1000
0000
0000
0100
0000
0000
0010
0000
,
0001
0000
0000
0001
0000
0000
0001
0000
,
0001
0000
0001
0000
1000
0001
1000
0001
,
1000
0000
0000
0001
,
2000
0000
3000
0000
,
0001
0010
0001
0000
0000
0000
0020
0000
,
0000
0130
0000
0001
,
1000
0010
1000
0000
0010
0000
0010
0000
,
0001
0100
0001
0000
0100
0000
0100
0000
,
1000
0100
1000
0000
0000
0000
0200
0000
,
0000
0310
0000
1000
,
0001
0010
0100
1000
,
2002
0000
3003
0000
,
0001
0010
1000
0010
,
0001
0010
1000
0010
,
0001
0100
1000
0100
,
0001
0100
1000
0100
,
0001
0010
1000
0010
,
0001
0010
1000
0010
,
0001
0100
1000
0100
,
0001
0100
1000
0100
,
0001
0010
1000
0100
,
0001
0010
1000
0100
,
0001
0100
1000
0010
,
0001
0100
1000
0010
,
0001
0010
0100
1000
,
0001
0100
0010
1000
,
0001
0010
1000
0100
,
0001
0100
1000
0010
,
0001
0010
0100
0000
1000
0000
1000
0000
,
0001
0010
0100
0000
1000
0000
1000
0000
,
0001
0100
0010
0000
1000
0000
1000
0000
,
0001
0100
0010
0000
1000
0000
1000
0000
,
1000
0100
0010
0000
0001
0000
0001
0000
,
1000
0100
0010
0000
0001
0000
0001
0000
,
1000
0010
0100
0000
0001
0000
0001
0000
,
1000
0010
0100
0000
0001
0000
0001
0000
,
0001
0010
1000
0000
0100
0000
0100
0000
,
0001
0010
1000
0000
0100
0000
0100
0000
,
0001
0100
1000
0000
0010
0000
0010
0000
,
0001
0100
1000
0000
0010
0000
0010
0000
,
1000
0100
0001
0000
0010
0000
0010
0000
,
1000
0010
0001
0000
0100
0000
0100
0000
,
1000
0001
1000
0000
0001
1000
0001
0000
,
0100
0010
0100
0000
0010
0100
0010
0000
,
1000
0100
1000
0000
0100
1000
0100
0000
,
1000
0100
1000
0000
0100
1000
0100
0000
,
1000
0010
1000
0000
0010
1000
0010
0000
,
1000
0010
1000
0000
0010
1000
0010
0000
,
0100
0001
0100
0000
0001
0100
0001
0000
,
0100
0001
0100
0000
0001
0100
0001
0000
,
0010
0001
0010
0000
0001
0010
0001
0000
,
0010
0001
0010
0000
0001
0010
0001
0000
,
2000
3010
1000
0010
1000
0010
1000
0010
,
1000
0010
1000
0010
2000
0000
0000
0000
,
3002
0103
0001
0100
0001
0100
0001
0100
,
0001
0100
0001
0100
0002
0000
0000
0000
,
2003
3100
1000
0100
1000
0100
1000
0100
,
1000
0100
1000
0100
2000
0000
0000
0000
,
3002
0013
0001
0010
0001
0010
0001
0010
,
0001
0010
0001
0010
0002
0000
0000
0000
,
1003
0001
1000
0001
1000
0001
1000
0001
,
1000
0001
1000
0001
1000
0001
1000
0001
,
0100
0010
0100
0010
0100
0010
0100
0010
,
0100
0010
0100
0010
0100
0010
0100
0010
,
1000
0001
1000
0001
1000
0001
1000
0001
,
1000
0001
1000
0001
1000
0001
1000
0001
,
0010
0100
0010
0100
0010
0100
0010
0100
,
0010
0100
0010
0100
0010
0100
2000
0000
,
3000
0000
0000
0000
;

//--------------- dance-single - ----------------
#NOTES:
     dance-single:
     :
     Hard:
     13:
     0,0,0,0,0:
0000
0000
0000
0000
,
0000
0000
0000
0000
,
0000
0000
0000
0000
,
0000
0000
0000
0000
,
0000
0000
0000
0000
,
0000
0000
0000
0000
,
0000
0000
0000
0000
,
0000
0000
0000
0000
,
1000
0100
1000
0100
1000
0100
1000
0100
,
1000
0100
1000
0100
1000
0100
1000
0100
,
0010
0001
0010
0001
0010
0001
0010
0001
,
0010
0001
0010
0001
0010
0001
0010
0001
,
1000
0010
1000
0010
1000
0010
1000
0010
,
1000
0010
1000
0010
1000
0010
1000
0010
,
0100
0001
0100
0001
0100
0001
0100
0001
,
0100
0001
0100
0001
0100
0001
0100
0001
,
1000
0100
1000
0100
1000
0100
1000
0100
,
0010
0001
0010
0001
0010
0001
0010
0001
,
1000
0010
1000
0010
1000
0010
1000
0010
,
0100
0001
0100
0001
0100
0001
0100
0001
,
1000
0001
1000
0001
1000
0001
1000
0001
,
0100
0010
0100
0010
0100
0010
0100
0010
,
1000
0100
1000
0100
0010
0001
0010
0001
,
1000
0010
1000
0010
0100
0001
0100
0001
,
1000
0100
0010
0000
0001
0000
1000
0000
,
0000
0001
0010
0100
,
1000
0010
0100
0000
0001
0000
1000
0000
,
0001
0100
0010
0000
1000
0000
0001
0000
,
1000
0100
1000
0000
0100
0000
0010
0000
,
0000
0001
0010
0100
,
1000
0010
1000
0000
0010
0000
0100
0000
,
0000
0001
0100
0010
,
1000
0100
1000
0100
1000
0000
0100
0000
,
0000
0010
0001
0010
,
0001
0100
0001
0100
0001
0000
0100
0000
,
1000
0010
1000
0010
1000
0000
0010
0000
,
0001
0010
0001
0010
0001
0000
0010
0000
,
0000
0100
1000
0100
,
1000
0100
0010
0001
1000
0000
2002
0000
,
3003
0000
0000
0000
,
0001
0001
0010
0100
,
0000
1000
0010
0010
,
1000
0001
0010
0100
,
1000
0001
0100
0010
,
1000
1000
0100
0010
,
0000
0001
0100
0100
,
0001
1000
0100
0010
,
0001
1000
0010
0100
,
0001
0010
0001
0010
0001
0010
0001
0010
,
0001
0010
0001
0010
0001
0000
0000
0000
,
1001
1000
0001
0001
,
0110
0100
0010
0010
,
1000
0100
1000
0100
1000
0100
1000
0100
,
1000
0100
1000
0100
1000
0000
0000
0000
,
1001
1000
0001
0220
,
0330
0000
0000
0000
,
1000
0100
0010
0100
1000
0000
0200
0000
,
0300
1000
0100
0010
,
0001
0010
0001
0010
0001
0000
0010
0000
,
1000
0100
1000
0100
1000
0000
0100
0000
,
0001
0010
0100
0010
0001
0000
0020
0000
,
0030
0001
0010
0100
,
1000
0001
1000
0000
0001
1000
0001
0000
,
2002
0000
3003
0000
,
1000
1000
1000
1000
,
0001
0001
0001
0001
,
0100
0100
0100
0100
,
0010
0010
0010
0010
,
0001
0001
0001
0001
,
1000
1000
1000
1000
,
0010
0010
0010
0010
,
0100
0100
0100
0100
,
1000
1000
1000
1000
,
0100
0100
0100
0100
,
0010
0010
0010
0010
,
0001
0001
0001
0001
,
1000
1000
1000
1000
,
0010
0010
0010
0010
,
0100
0100
0100
0100
,
0001
0001
0001
0001
,
1000
0100
0010
0001
1000
0000
0000
0000
,
0001
0010
0100
1000
0001
0000
0000
0000
,
1000
0010
0100
0001
1000
0000
0000
0000
,
0001
0100
0010
1000
0001
0000
0000
0000
,
1000
0001
0010
0100
1000
0000
0000
0000
,
0001
1000
0100
0010
0001
0000
0000
0000
,
1000
0001
0100
0010
1000
0000
0000
0000
,
0001
1000
0010
0100
0001
0000
0000
0000
,
1000
0100
0010
0001
1000
0000
0000
0000
,
1000
0001
0010
0100
1000
0000
0000
0000
,
0001
0100
0010
1000
0001
0000
0000
0000
,
0001
1000
0010
0100
0001
0000
0000
0000
,
1000
0010
0100
0001
1000
0000
0000
0000
,
0001
0010
0100
1000
0001
0000
0000
0000
,
1000
0001
1000
0001
1000
0001
1000
0001
,
0010
0100
0010
0100
0010
0100
0010
0000
,
1000
0100
0010
0001
,
1000
0000
0001
0010
,
0100
0000
0000
1000
0000
0000
0010
0000
,
0100
0000
0000
0001
0000
0000
1000
0000
,
0001
0000
0000
0010
0000
0000
0010
0000
,
0010
0000
0010
0000
0001
0010
0100
1000
,
0001
0000
0000
0100
0000
0000
0010
0000
,
1000
0000
0000
0100
0000
0000
0010
0000
,
0001
0010
0001
0000
0010
1000
0010
0000
,
1000
0100
1000
0000
0100
0001
0100
0000
,
0001
0000
0000
0001
0000
0000
1000
0000
,
1000
0000
0000
0010
0000
0000
0010
0000
,
0100
0000
0000
0100
0000
0000
0010
0000
,
0010
0000
1000
0000
0001
1000
0100
0010
,
0001
0000
0000
0010
0000
0000
0100
0000
,
2000
0000
0000
3000
,
1001
0010
0100
0010
,
1001
0100
0010
0100
,
0011
0000
0000
0001
0000
0000
0010
0000
,
1100
0000
0000
1000
0000
0000
0100
0000
,
0010
0000
0000
0010
0000
0000
0010
0000
,
0010
0000
0010
0000
0001
0010
0100
1000
,
0010
0000
0000
0100
0000
0000
0001
0000
,
0001
0000
0000
0010
0000
0000
0100
0000
,
0110
1000
0001
1000
,
0110
0001
1000
0001
,
1010
0000
0000
0010
0000
0000
1000
0000
,
0101
0000
0000
0100
0000
0000
0001
0000
,
1000
0000
0000
0100
0000
0000
0010
0000
,
0001
0000
0001
0000
0010
0100
1000
0001
,
0100
0000
0000
0002
,
2003
0000
0000
3000
,
0001
0010
0001
0010
0001
0000
0010
0000
,
0000
0010
0000
0100
,
1000
0010
1000
0010
1000
0000
0010
0000
,
0001
0100
0001
0100
0001
0000
0100
0000
,
1000
0100
1000
0100
1000
0000
0100
0000
,
0000
0100
0000
0010
,
0001
0010
0100
1000
,
2002
3003
0000
0000
,
1000
1000
0001
0001
,
0100
0100
0010
0010
,
0001
0001
1000
1000
,
0010
0010
0100
0100
,
1000
1000
0100
0100
,
0010
0010
0001
0001
,
0100
0100
0010
0010
,
1000
1000
0001
0001
,
1000
1000
0010
0010
,
0100
0100
0001
0001
,
0010
0010
0100
0100
,
1000
1000
0001
0001
,
1000
0100
0010
0001
,
1000
0010
0100
0001
,
1000
1000
0001
0001
,
1000
0100
0010
0001
,
1000
0001
0010
0100
1000
0000
0000
0000
,
0001
1000
0100
0010
0001
0000
0000
0000
,
1000
0001
0100
0010
1000
0000
0000
0000
,
0001
1000
0010
0100
0001
0000
0000
0000
,
1000
0100
0010
0001
1000
0000
0000
0000
,
0001
0010
0100
1000
0001
0000
0000
0000
,
1000
0010
0100
0001
1000
0000
0000
0000
,
0001
0100
0010
1000
0001
0000
0000
0000
,
1000
0001
0010
0100
1000
0000
0000
0000
,
0001
0010
0100
1000
0001
0000
0000
0000
,
0001
1000
0010
0100
0001
0000
0000
0000
,
1000
0010
0100
0001
1000
0000
0000
0000
,
1000
0001
0100
0010
1000
0000
0000
0000
,
0001
1000
0100
0010
0001
0000
0000
0000
,
0001
1000
0001
1000
0001
1000
0001
1000
,
0100
0010
0100
0010
0100
0010
0100
0000
,
1000
0100
1000
0100
1000
0100
1000
0100
,
1000
0100
1000
0100
1000
0100
1000
0100
,
0010
0001
0010
0001
0010
0001
0010
0001
,
0010
0001
0010
0001
0010
0001
0010
0001
,
1000
0010
1000
0010
1000
0010
1000
0010
,
1000
0010
1000
0010
1000
0010
1000
0010
,
0100
0001
0100
0001
0100
0001
0100
0001
,
0100
0001
0100
0001
0100
0001
0100
0001
,
2000
3100
1000
0100
1000
0100
1000
0100
,
1000
0100
1000
0100
1000
0100
1000
0100
,
1000
0010
1000
0010
1000
0010
1000
0010
,
1000
0010
1000
0010
1000
0010
1000
0010
,
0200
0301
0100
0001
0100
0001
0100
0001
,
0100
0001
0100
0001
0100
0001
0100
0001
,
0010
0001
0010
0001
0010
0001
0010
0001
,
0010
0001
0010
0001
0010
0001
0010
0001
,
1000
0100
1000
0100
1000
0100
1000
0100
,
0010
0001
0010
0001
0010
0001
0010
0001
,
1000
0010
1000
0010
1000
0010
1000
0010
,
0100
0001
0100
0001
0100
0001
0100
0001
,
1000
0100
1000
0100
0010
0001
0010
0001
,
1000
0010
1000
0010
0100
0001
0100
0001
,
1000
0100
0010
0001
1000
0010
0100
0001
,
1000
0100
0010
0001
0010
0100
2000
0000
,
3000
0000
0000
0000
;

//--------------- dance-single - ----------------
#NOTES:
     dance-single:
     :
     Challenge:
     14:
     0,0,0,0,0:
0000
0000
0000
0000
,
0000
0000
0000
0000
,
0000
0000
0000
0000
,
0000
0000
0000
0000
,
0000
0000
0000
0000
,
0000
0000
0000
0000
,
0000
0000
0000
0000
,
0000
0000
0000
0000
,
1000
0100
1000
0100
1000
0100
1000
0100
,
0010
0001
0010
0001
0010
0001
0010
0001
,
1000
0010
1000
0010
1000
0010
1000
0010
,
0100
0001
0100
0001
0100
0001
0100
0001
,
1000
0100
1000
0100
1000
0100
1000
0100
,
1000
0010
1000
0010
1000
0010
1000
0010
,
0100
0001
0100
0001
0100
0001
0100
0001
,
0010
0001
0010
0001
0010
0001
0010
0001
,
1000
0100
1000
0100
0010
0001
0010
0001
,
1000
0010
1000
0010
0100
0001
0100
0001
,
1000
0100
1000
0100
1000
0010
1000
0010
,
0100
0001
0100
0001
0010
0001
0010
0001
,
1000
0100
1000
0100
0010
0001
1000
0100
,
0010
0001
0010
0001
1000
0001
1000
0001
,
1000
0100
0010
0001
1000
0010
0100
0001
,
1000
0100
0010
0001
1000
0010
0100
0001
,
1001
0000
1000
0100
0001
0100
1000
0000
,
0110
0001
1010
0100
,
0001
0100
0010
1000
0100
0000
0100
0000
,
1000
0100
0010
0001
0100
0000
0100
0000
,
0001
0010
0100
1000
0010
0100
0001
0000
,
1001
0100
0110
0100
,
1000
0010
0001
0010
1000
0000
0001
0000
,
1001
0010
0110
0010
,
1001
0000
0001
0100
1000
0100
0001
0000
,
0110
1000
0101
0010
,
1000
0010
0100
0001
0010
0000
0010
0000
,
0001
0010
0100
1000
0010
0000
0010
0000
,
1000
0100
0010
0001
0100
0010
1000
0000
,
1001
0010
0110
0010
,
0001
0010
1000
0010
0001
0000
2002
0000
,
0000
0000
3003
0000
,
1000
0010
0100
0001
0010
0100
1000
0000
,
1001
0010
0010
0010
,
0001
0100
1000
0100
0001
0000
1001
0000
,
1000
0100
0001
0100
1000
0000
1001
0000
,
0001
0100
0010
1000
0100
0010
0001
0000
,
1001
0100
0100
0100
,
1000
0010
0001
0010
1000
0000
1001
0000
,
0001
0010
1000
0010
0001
0000
1001
0000
,
1000
0100
1000
0100
0010
0001
0010
0001
,
1000
0100
0010
0001
1000
0100
0010
0001
,
1010
0000
0010
1000
0100
1000
0010
0000
,
0101
0000
0100
0001
0010
0001
0100
0000
,
1000
0010
1000
0010
0100
0001
0100
0001
,
1000
0010
0100
0001
1000
0010
0100
0001
,
1100
0000
1000
0100
0010
0100
1000
0000
,
0011
0000
0001
0010
0100
0010
0001
0000
,
1001
0001
0100
0010
1000
0100
0020
0000
,
0031
0011
0001
0001
,
1000
0010
0100
0010
1000
0000
1010
0000
,
0001
0100
0010
0100
0001
0000
0101
0000
,
1001
1000
0010
0100
0001
0010
0200
0000
,
1300
1100
1000
1000
,
1000
0100
0010
0001
0100
0010
1000
0000
,
2002
3003
0010
0000
,
1000
0000
0100
0000
1000
0100
1000
0100
,
0010
0001
0010
0100
1000
0000
0001
0000
,
1000
0000
0010
0000
1000
0010
1000
0010
,
0100
0001
0100
0010
1000
0000
0001
0000
,
0001
0000
0010
0000
0001
0010
0001
0010
,
0100
1000
0100
0010
0001
0000
1000
0000
,
0001
0000
0100
0000
0001
0100
0001
0100
,
0010
1000
0010
0100
0001
0000
1000
0000
,
1000
0000
0100
0000
1000
0010
1000
0100
,
0010
0001
0100
0010
1000
0000
0001
0000
,
1000
0000
0010
0000
1000
0100
1000
0010
,
0100
0001
0010
0100
1000
0000
0001
0000
,
0001
0000
0010
0000
0001
0100
0001
0010
,
0100
1000
0010
0100
0001
0000
1000
0000
,
0001
0000
0100
0000
0001
0010
0001
0100
,
0010
1000
0100
0010
0001
0000
1000
0000
,
1000
0000
0100
0000
0010
0000
0001
0000
0000
0010
0000
0000
0100
0000
0000
1000
0000
0000
0001
0000
0000
0000
0000
0000
,
1000
0000
0010
0000
0100
0000
0001
0000
0000
0100
0000
0000
0010
0000
0000
1000
0000
0000
0001
0000
0000
0000
0000
0000
,
0001
0000
0010
0000
0100
0000
1000
0000
0000
0100
0000
0000
0010
0000
0000
0001
0000
0000
1000
0000
0000
0000
0000
0000
,
0001
0000
0100
0000
0010
0000
1000
0000
0000
0010
0000
0000
0100
0000
0000
0001
0000
0000
1000
0000
0000
0000
0000
0000
,
1000
0000
0100
0000
0010
0000
0100
0000
0000
1000
0000
0000
0100
0000
0000
0010
0000
0000
0001
0000
0000
0000
0000
0000
,
0001
0000
0010
0000
0100
0000
0010
0000
0000
0001
0000
0000
0010
0000
0000
0100
0000
0000
1000
0000
0000
0000
0000
0000
,
1000
0000
0010
0000
0100
0000
0010
0000
0000
1000
0000
0000
0010
0000
0000
0100
0000
0000
0001
0000
0000
0000
0000
0000
,
0001
0000
0100
0000
0010
0000
0100
0000
0000
0001
0000
0000
0100
0000
0000
0010
0000
0000
1000
0000
0000
0000
0000
0000
,
1000
0000
0100
0000
1000
0000
0100
0000
0000
0010
0000
0000
0001
0000
0000
0010
0000
0000
0001
0000
0000
0000
0000
0000
,
0001
0000
0010
0000
0001
0000
0010
0000
0000
0100
0000
0000
1000
0000
0000
0100
0000
0000
1000
0000
0000
0000
0000
0000
,
1000
0000
0010
0000
1000
0000
0010
0000
0000
0100
0000
0000
0001
0000
0000
0100
0000
0000
0001
0000
0000
0000
0000
0000
,
0001
0000
0100
0000
0001
0000
0100
0000
0000
0010
0000
0000
1000
0000
0000
0010
0000
0000
1000
0000
0000
0000
0000
0000
,
1000
0000
0100
0000
0001
0000
0100
0000
0000
1000
0000
0000
0100
0000
0000
0010
0000
0000
0001
0000
0000
0000
0000
0000
,
0001
0000
0010
0000
1000
0000
0010
0000
0000
0001
0000
0000
0010
0000
0000
0100
0000
0000
1000
0000
0000
0000
0000
0000
,
1000
0100
1000
0100
1000
0100
0010
0001
0010
0001
0010
0001
,
1000
0010
1000
0010
1000
0010
0100
0001
0100
0001
0100
0001
,
1001
1000
1010
0010
,
0110
0100
0101
1000
,
1010
0000
0000
0110
0000
0000
0101
0000
,
0011
0000
0000
0110
0000
0000
1100
0000
,
1001
0000
0010
0000
0000
0010
0000
0000
,
0100
0000
0100
0000
1000
0010
0100
0001
,
0010
0000
0000
0011
0000
0000
1100
0000
,
1010
0000
0000
0101
0000
0000
0110
0000
,
1001
0001
0101
0100
,
0110
0010
1010
0001
,
0101
0000
0000
0110
0000
0000
1100
0000
,
1010
0000
0000
0110
0000
0000
0011
0000
,
1001
0000
0110
0000
0000
0110
0000
0000
,
0110
0000
0110
0000
0001
0010
0100
1000
,
0010
0100
0001
1000
,
2002
0000
3003
0000
,
1000
0100
1000
0001
0100
0001
1000
0010
,
1000
0100
0010
0001
,
0011
0000
0000
0011
0000
0000
0101
0000
,
1100
0000
0000
1100
0000
0000
1010
0000
,
1001
0000
0000
0110
0000
0000
1001
0000
,
0110
0000
0100
0000
0010
0001
0100
0010
,
1000
0000
0000
0100
0000
0000
0010
0000
,
0010
0000
0000
0001
0000
0000
0010
0000
,
1000
0010
1000
0001
0010
0001
1000
0100
,
1000
0010
0100
0001
,
0101
0000
0000
0101
0000
0000
0011
0000
,
1010
0000
0000
1010
0000
0000
1100
0000
,
0110
0000
0000
1001
0000
0000
0110
0000
,
1001
0000
0001
0000
1000
0100
0010
0001
,
0100
0000
0010
0000
0110
0000
0001
0010
,
0001
1000
0001
1000
0010
0100
0010
0000
,
1000
0010
0100
0001
0010
0001
0100
0010
,
0100
0010
0100
0000
0010
0000
1000
0000
,
1000
0100
0010
0001
0010
0001
0010
0100
,
0010
0100
0010
0000
0100
0000
0001
0000
,
0001
0010
0100
1000
0001
0100
0010
1000
,
0001
1000
0010
0010
,
1000
0100
0010
0001
0010
0100
1000
0001
,
2002
0000
3003
0000
,
1000
0100
1000
0000
0100
0001
0100
0000
,
0001
0010
0001
0000
0010
1000
0010
0000
,
0100
1000
0100
0000
1000
0010
1000
0000
,
0010
0001
0010
0000
0001
0100
0001
0000
,
1000
0100
0010
0000
0001
0010
0100
0000
,
0010
0100
1000
0000
0100
0010
0001
0000
,
1000
0010
0100
0000
0001
0100
0010
0000
,
0010
1000
0100
0000
0100
0001
0010
0000
,
1000
0100
0010
0000
0001
0010
0100
0000
,
1000
0010
0100
0000
0001
0100
0010
0000
,
0010
0100
1000
0000
0100
0010
0001
0000
,
0100
0001
0010
0000
0010
1000
0100
0000
,
1000
0100
1000
0000
0100
0010
0001
0000
,
0010
0001
0010
0000
0010
1000
0100
0000
,
0100
1000
0100
0000
0100
0001
0010
0000
,
0001
0010
0001
0000
0010
0100
1000
0000
,
1000
0000
0100
0000
0010
0000
0001
0000
0010
0000
0100
0000
1000
0000
0000
0001
0000
0000
1000
0000
0000
0000
0000
0000
,
0001
0000
0010
0000
0100
0000
1000
0000
0100
0000
0010
0000
0001
0000
0000
1000
0000
0000
0001
0000
0000
0000
0000
0000
,
1000
0000
0010
0000
0100
0000
0001
0000
0100
0000
0010
0000
1000
0000
0000
0001
0000
0000
1000
0000
0000
0000
0000
0000
,
0001
0000
0100
0000
0010
0000
1000
0000
0010
0000
0100
0000
0001
0000
0000
1000
0000
0000
0001
0000
0000
0000
0000
0000
,
1000
0000
0100
0000
0010
0000
0001
0000
0100
0000
0010
0000
1000
0000
0000
0001
0000
0000
1000
0000
0000
0000
0000
0000
,
0001
0000
0010
0000
0100
0000
1000
0000
0010
0000
0100
0000
0001
0000
0000
1000
0000
0000
0001
0000
0000
0000
0000
0000
,
1000
0000
0010
0000
0100
0000
0001
0000
0010
0000
0100
0000
1000
0000
0000
0001
0000
0000
1000
0000
0000
0000
0000
0000
,
0001
0000
0100
0000
0010
0000
1000
0000
0100
0000
0010
0000
0001
0000
0000
1000
0000
0000
0001
0000
0000
0000
0000
0000
,
1000
0000
0100
0000
1000
0000
0001
0000
0100
0000
0001
0000
1000
0000
0000
0010
0000
0000
0100
0000
0000
0000
0000
0000
,
0001
0000
0010
0000
0001
0000
1000
0000
0010
0000
1000
0000
0001
0000
0000
0100
0000
0000
0010
0000
0000
0000
0000
0000
,
1000
0000
0010
0000
1000
0000
0001
0000
0010
0000
0001
0000
1000
0000
0000
0100
0000
0000
0010
0000
0000
0000
0000
0000
,
0001
0000
0100
0000
0001
0000
1000
0000
0100
0000
1000
0000
0001
0000
0000
0010
0000
0000
0100
0000
0000
0000
0000
0000
,
1000
0000
0100
0000
0001
0000
0100
0000
1000
0000
0100
0000
0010
0000
0000
0001
0000
0000
1000
0000
0000
0000
0000
0000
,
0001
0000
0100
0000
1000
0000
0100
0000
0001
0000
0010
0000
0100
0000
0000
1000
0000
0000
0001
0000
0000
0000
0000
0000
,
1000
0100
0010
0001
0100
0010
1000
0100
0010
0001
0100
0010
,
1000
0010
0100
0001
0010
0100
1000
0010
0100
0001
0010
0100
,
1000
0100
0010
0001
1000
0100
0010
0001
,
1000
0010
0100
0001
1000
0010
0100
0001
,
1000
0100
1000
0100
0010
0001
0010
0001
,
1000
0010
1000
0010
0100
0001
0100
0001
,
1000
0100
0010
0001
1000
0100
0010
0001
,
1000
0010
1000
0010
0100
0001
0100
0001
,
1000
0100
1000
0100
0010
0001
0010
0001
,
1000
0010
0100
0001
1000
0010
0100
0001
,
2000
3100
1000
0100
1000
0100
1000
0100
,
1000
0100
1000
0100
1000
0100
1000
0100
,
0020
0031
0010
0001
0010
0001
0010
0001
,
0010
0001
0010
0001
0010
0001
0010
0001
,
2000
3010
1000
0010
1000
0010
1000
0010
,
1000
0010
1000
0010
1000
0010
1000
0010
,
0200
0301
0100
0001
0100
0001
0100
0001
,
0100
0001
0100
0001
0100
0001
0100
0001
,
1000
0100
0010
0100
1000
0001
0100
0010
,
0100
0001
1000
0010
0100
0010
1000
0001
,
0010
0100
0010
0001
1000
0100
0010
0001
,
0100
0010
0100
0001
0010
0100
1000
0001
,
1000
0010
0100
0001
0010
0100
0010
0001
,
0100
0010
1000
0001
1000
0100
0010
0001
,
0100
0010
0100
0001
0100
0010
1000
0100
,
0001
0100
1000
0100
0010
0001
2002
0000
,
3003
0000
0000
0000
;
