#TITLE:Sol Cosine Job 2;
#SUBTITLE:;
#ARTIST:DJ TECHNORCH;
#TITLETRANSLIT:;
#SUBTITLETRANSLIT:;
#ARTISTTRANSLIT:;
#GENRE:;
#CREDIT:;
#MUSIC:Sol Cosine Job 2.ogg;
#BANNER:Sol Cosine Job 2-bn.png;
#BACKGROUND:Sol Cosine Job 2-bg.png;
#CDTITLE:;
#SAMPLESTART:21.941;
#SAMPLELENGTH:20.211;
#SELECTABLE:YES;
#OFFSET:-0.309;
#BPMS:0.000=1520.000
,36.000=190.000
,68.000=760.000
,84.000=47.500
,85.000=95.000
,95.000=760.000
,111.000=190.000
,175.000=380.000
,183.000=190.000
,247.000=11.875
,248.000=47.500
,251.000=95.000
,253.000=390.000
,285.000=400.000
,312.500=50.000
,312.938=25.000
,313.000=200.000
,315.000=400.000
,319.000=800.000
,327.000=3200.000
,359.000=200.000
,387.000=800.000
,403.000=200.000
,433.000=100.000
,434.000=200.000
,437.000=400.000
,439.000=200.000
,441.000=400.000
,442.000=200.000
,442.500=100.000
,443.000=200.000
,447.000=50.000
,448.000=200.000
,450.000=800.000
,454.000=200.000
,455.500=400.000
,456.500=200.000
,457.000=400.000
,458.000=200.000
,459.000=1600.000
,467.000=200.000
,468.000=400.000
,469.000=200.000
,469.500=800.000
,471.500=200.000
,474.000=800.000
,476.000=200.000
,476.500=800.000
,478.500=200.000
,479.000=800.000
,480.875=50.000
,481.000=200.000
,483.000=800.000
,484.000=200.000
,484.750=800.000
,485.750=200.000
,487.500=800.000
,488.500=200.000
,489.250=800.000
,490.250=200.000
,491.000=800.000
,492.000=200.000
,492.750=25.000
,493.438=9999.999
,540.000=200.000
;
#STOPS:493.438=0.250;
#DISPLAYBPM:*;
#BGCHANGES:;
#FGCHANGES:;

//--------------- dance-single - ----------------
#NOTES:
     dance-single:
     :
     Beginner:
     7:
     0,0,0,0,0:
0000
0000
0000
0000
,
0000
0000
0000
0000
,
0000
0000
0000
0000
,
0000
0000
0000
0000
,
0000
0000
0000
0000
,
0000
0000
0000
0000
,
0000
0000
0000
0000
,
0000
0000
0000
0000
,
0000
0000
0000
0000
,
1000
0100
0010
0001
,
1000
0010
0100
0001
,
1000
0100
0010
0001
,
1000
0010
0100
0001
,
1000
0100
0010
0001
,
1000
0010
0100
0001
,
1000
0100
0010
0001
,
1000
0010
0100
0001
,
1000
0000
0000
0000
,
0000
0000
0000
0000
,
0000
0000
0000
0000
,
0000
0000
0000
0000
,
0001
1000
0010
0100
,
0001
1000
0100
0010
,
0001
1000
0001
1000
,
0000
0000
0000
0100
,
0000
0000
0000
0010
,
0000
0000
0000
0001
,
0000
0000
0000
1000
,
0100
0010
0100
1000
,
0010
0100
0010
1000
,
0100
0010
0100
1000
,
0010
0100
0010
1000
,
0100
0010
0001
1000
,
0010
0100
0001
1000
,
0100
0010
0001
1000
,
0010
0100
0001
1000
,
0010
0100
0010
1000
,
0100
0010
0100
1000
,
0010
0100
0010
1000
,
0100
0010
0100
1000
,
0010
0100
0001
1000
,
0100
0010
0001
1000
,
0010
0100
0001
1000
,
0100
0010
0001
1000
,
0000
0000
0000
0000
,
0000
0000
0000
1000
,
0100
0010
0001
1000
,
0010
0100
0010
1000
,
0100
0010
0001
1000
,
0010
0100
0010
1000
,
0010
0100
0001
1000
,
0100
0010
0100
1000
,
0010
0100
0001
1000
,
0100
0010
0100
1000
,
0010
0100
0010
1000
,
0100
0010
0001
1000
,
0010
0100
0010
1000
,
0100
0010
0001
1000
,
0100
0010
0100
1000
,
0010
0100
0001
1000
,
0100
0010
0100
1000
,
0010
0100
0001
1000
,
1000
0100
0010
0001
,
0001
1000
0000
0100
,
0000
0010
0000
0001
,
0000
1000
0000
0100
,
0000
0010
0000
0001
,
0000
1000
0000
0010
,
0000
0100
0000
0001
,
0000
1000
0000
0010
,
0000
0100
0000
0001
,
0000
1000
0000
0100
,
0000
0010
0000
0100
,
0000
1000
0000
0010
,
0000
0100
0000
0010
,
0000
1000
0000
0100
,
0000
0010
0000
0100
,
0000
1000
0000
0001
,
0000
1000
1000
0000
0001
0000
1000
0000
,
0000
0001
0000
1000
,
0000
0000
0000
0001
,
0000
0000
0000
1000
,
0000
0000
0000
0000
,
0000
0000
0000
0000
,
0000
0000
0000
0000
,
0000
0000
0000
0000
,
0000
0000
0000
0000
,
0000
0000
0000
0000
,
0000
0000
0000
0000
,
0000
0000
0000
0001
,
0000
0000
0000
0000
,
0000
0000
0000
0000
,
0000
0000
0000
0000
,
0000
0000
0000
0000
,
0000
0000
0000
0000
,
0000
0000
0000
0000
,
0000
0000
0000
1000
,
0000
0000
0000
0100
,
0000
0000
0000
0010
,
0000
0000
0000
0001
,
0000
0000
0000
1000
,
0100
0010
0100
1000
,
0010
0100
0010
1000
,
0100
0010
0001
1000
,
0010
0100
0001
1000
,
0100
0010
0100
1000
,
0010
0100
0010
1000
,
0100
0010
0001
1000
,
0001
1000
1000
0100
,
0010
0001
1000
0001
,
0010
0100
1000
0100
,
0010
0001
1000
0001
,
1000
0010
0100
0000
,
0001
0000
1000
0100
,
0010
0001
1000
0001
,
0000
0000
0000
0000
,
0000
0000
0000
1000
,
0100
0010
0000
0001
,
0010
0100
1000
0001
,
1000
0001
1000
0001
,
1000
0001
0000
1000
,
0000
0000
0000
0001
0000
0000
0000
0000
0000
0000
0000
0000
0000
0000
1000
0000
,
0000
0000
0000
0000
0000
0001
0000
0000
0000
0000
0000
0000
1000
0000
0000
0000
,
0000
0000
0000
0000
0000
0000
0000
0000
0000
0000
0000
0000
0001
0000
0000
0000
0000
0000
0000
0000
0000
0000
0000
1000
0000
0000
0000
0000
0000
0000
0000
0000
0000
0000
0000
0000
0000
0000
0000
0000
0000
0000
0000
0000
0000
0000
0000
0000
0000
0000
0000
0000
0000
0000
0000
0000
0000
0000
0000
0000
0000
0000
0000
0000
;

//--------------- dance-single - ----------------
#NOTES:
     dance-single:
     :
     Easy:
     5:
     0,0,0,0,0:
0000
0000
0000
0000
,
0000
0000
0000
0000
,
0000
0000
0000
0000
,
0000
0000
0000
0000
,
0000
0000
0000
0000
,
0000
0000
0000
0000
,
0000
0000
0000
0000
,
0000
0000
0000
0000
,
0000
0000
0000
0000
,
2000
3000
0200
0300
,
0020
0030
0002
0003
,
2000
3000
0020
0030
,
0200
0300
0002
0003
,
2000
3000
0200
0300
,
0020
0030
0002
0003
,
2000
3000
0020
0030
,
0200
0300
0002
0003
,
2002
0000
0000
0000
,
0000
0000
0000
0000
,
0000
0000
0000
0000
,
0000
0000
0000
3003
,
2000
3002
0000
0023
,
0000
0230
0000
2300
,
0000
3002
0000
2003
,
0000
0000
0000
0000
,
0000
0000
0000
0000
,
0000
0000
0000
0000
,
0000
0000
0000
3002
,
0003
0020
0030
0200
,
0300
2000
3000
0002
,
0003
0200
0300
0020
,
0030
2000
3000
2000
,
3000
0200
0300
0020
,
0030
0002
0003
2000
,
3000
0020
0030
0200
,
0300
0002
0003
2000
,
3000
0200
0300
0020
,
0030
0200
0300
2000
,
3000
0020
0030
0200
,
0300
0020
0030
2000
,
3000
0200
0300
0020
,
0030
0002
0003
2000
,
3000
0020
0030
0200
,
0300
0002
0003
2000
,
0000
0000
0000
0000
,
0000
0000
0000
3002
,
0003
0020
0030
0200
,
0300
2000
3000
0002
,
0003
0200
0300
0020
,
0030
2000
3000
0002
,
0003
0020
0030
0200
,
0300
0020
0030
0002
,
0003
0200
0300
0020
,
0030
0200
0300
0002
,
0000
0000
0000
0023
,
0000
0000
0000
0230
,
0000
0000
0000
2300
,
0000
0000
3000
2000
,
0000
0000
0000
3020
,
0000
0000
0000
0230
,
0000
0000
0000
0302
,
0000
0000
0000
0000
0000
0000
0000
0000
0000
0000
0000
0000
0000
0000
0000
0000
0000
0000
0000
0000
0000
0000
0000
0000
0000
0000
0000
0000
0000
0000
0000
0000
0003
0000
0000
0000
0000
0000
0000
0000
0000
0000
0000
0000
0000
0000
0000
0000
2002
0000
0000
0000
0000
0000
0000
0000
0000
0000
0000
0000
0000
0000
0000
3003
,
2000
0000
3002
2003
,
0000
3002
0000
0003
,
0000
0020
0000
0030
,
0000
0200
0000
0300
,
0000
2000
0000
3000
,
0000
0020
0000
0030
,
0000
0200
0000
0300
,
0000
0002
0000
0003
,
0000
2000
0000
3000
,
0000
0200
0000
0300
,
0000
0020
0000
0030
,
0000
0002
0000
0003
,
0000
2000
0000
3000
,
0000
0020
0000
0030
,
0000
0200
0000
0300
,
0000
0002
0000
0003
,
0000
2000
3002
0000
0003
0000
2000
0000
,
0000
3000
0000
0002
,
0000
0000
0000
0003
,
0000
0000
0000
2000
,
0000
0000
0000
0000
,
0000
0000
0000
0000
,
0000
0000
0000
0000
,
0000
0000
0000
0000
,
0000
0000
0000
0000
,
0000
0000
0000
0000
,
0000
0000
0000
0000
,
0000
0000
3000
2002
,
0000
0000
0000
0000
,
0000
0000
0000
0000
,
0000
0000
0000
0000
,
0000
0000
0000
0000
,
0000
0000
0000
0000
,
0000
0000
0000
0000
,
0000
0000
3003
2000
,
0000
0000
0000
0000
,
0000
0000
0000
0000
,
0000
0000
0000
0000
,
0000
0000
3000
2000
,
3000
0200
0300
0020
,
0030
0002
0003
2000
,
3000
0020
0030
0200
,
0300
0002
0003
2000
,
3000
0200
0300
0020
,
0030
0200
0300
2000
,
3000
0002
0003
2000
,
3000
0002
1003
0100
,
0010
0001
0000
0001
,
0010
0000
0100
0000
0000
1000
1000
0000
,
0100
0000
0000
0000
0010
0000
0000
0000
0001
0000
0000
0000
1000
0010
0100
0001
,
1000
0100
0010
0000
,
0000
0000
0001
0001
,
0000
0010
0000
0000
0100
0000
1000
0000
,
0000
0000
0000
0000
,
0000
0000
0000
1000
,
0100
0000
0000
0010
0000
0000
0000
0000
,
0001
0010
0100
0000
,
0000
1000
0000
0000
0000
0000
0001
0000
,
0000
2002
3003
2002
,
3003
0000
0000
2002
0000
0000
0000
0000
0000
0000
0000
3003
0000
0000
2002
0000
,
0000
0000
3003
0000
0000
2002
0000
0000
0000
3003
0000
0000
2002
0000
0000
0000
,
3003
0000
0000
0000
0000
0000
0000
0000
0000
0000
0000
0000
2002
0000
0000
0000
3003
0000
0000
0000
0000
0000
0000
2002
0000
0000
0000
0000
0000
0000
0000
0000
0000
0000
0000
0000
0000
0000
0000
0000
0000
0000
0000
0000
0000
0000
0000
0000
0000
0000
0000
0000
0000
0000
0000
0000
0000
0000
0000
0000
0000
0000
0000
0000
,
0000
0000
0000
0000
,
0000
0000
0000
0000
,
0000
0000
0000
0000
,
0000
0000
0000
0000
,
0000
0000
0000
0000
,
0000
0000
0000
0000
,
0000
0000
0000
0000
,
0000
0000
0000
0000
,
0000
0000
0000
0000
,
0000
0000
0000
0000
,
0000
0000
0000
0000
,
3003
0000
0000
0000
;

//--------------- dance-single - ----------------
#NOTES:
     dance-single:
     :
     Medium:
     16:
     0,0,0,0,0:
0000
0000
0000
0000
,
0000
0000
0000
0000
,
0000
0000
0000
0000
,
0000
0000
0000
0000
,
0000
0000
0000
0000
,
0000
0000
0000
0000
,
0000
0000
0000
0000
,
0000
0000
0000
0000
,
0000
0000
0000
0000
,
1000
0001
1000
0001
,
1000
0001
1000
0001
,
1000
0001
1000
0001
,
1000
0001
1000
0001
,
1000
0001
1000
0001
,
1000
0001
1000
0001
,
1000
0001
1000
0001
,
1000
0001
1000
0001
,
2000
0000
0000
0000
,
0000
0000
0000
0000
,
0000
0000
0000
0000
,
0000
0000
0000
0000
,
3002
0000
0000
0000
1003
0100
0010
0001
1000
0100
0010
0001
1000
0010
0100
0001
,
1000
0010
0100
0001
1000
0100
0010
0100
1000
0100
0010
0100
1000
0010
0100
0010
,
1000
0010
0100
0010
1000
0100
0010
0001
1000
0010
0100
0001
1000
0000
0000
0000
,
0100
0010
0100
1000
,
0100
0010
0100
1000
,
0100
0010
0100
1000
,
0100
0000
0000
0000
0010
0000
0000
0000
0100
0000
0000
0000
1000
0100
1000
0100
,
1000
0100
1000
0100
1000
0100
1000
0100
1000
0100
1000
0100
0010
0001
0010
0001
,
0010
0001
0010
0001
0010
0001
0010
0001
0010
0001
0010
0001
1000
0010
1000
0010
,
1000
0010
1000
0010
1000
0010
1000
0010
1000
0010
1000
0010
0100
0001
0100
0001
,
0100
0001
0100
0001
0100
0001
0100
0001
0100
0001
0100
0001
1000
0001
1000
0001
,
1000
0001
1000
0001
1000
0001
1000
0001
1000
0001
1000
0001
0010
0100
0010
0100
,
0010
0100
0010
0100
0010
0100
0010
0100
0010
0100
0010
0100
1000
0001
1000
0001
,
1000
0001
1000
0001
1000
0001
1000
0001
1000
0001
1000
0001
0100
0010
0100
0010
,
0100
0010
0100
0010
0100
0010
0100
0010
0100
0010
0100
0010
1000
0100
1000
0100
,
1000
0100
1000
0100
0010
0001
0010
0001
0010
0001
0010
0001
1000
0010
1000
0010
,
1000
0010
1000
0010
0100
0001
0100
0001
0100
0001
0100
0001
1000
0001
1000
0001
,
1000
0001
1000
0001
0010
0100
0010
0100
0010
0100
0010
0100
1000
0001
1000
0001
,
1000
0001
1000
0001
0100
0010
0100
0010
0100
0010
0100
0010
1000
0100
1000
0100
,
0010
0001
0010
0001
1000
0010
1000
0010
0100
0001
0100
0001
1000
0001
1000
0001
,
0010
0100
0010
0100
1000
0001
1000
0001
0100
0010
0100
0010
1000
0100
0010
0001
,
1000
0010
0100
0001
1000
0001
0010
0100
1000
0001
0100
0010
1000
0100
0010
0100
,
1000
0010
0100
0010
1000
0100
0010
0001
1000
0010
0100
0001
1000
0000
0000
0000
,
0100
0010
0001
1000
,
0010
0000
0000
0000
0100
0000
0000
0000
0001
0000
0000
0000
1000
0100
1000
0100
,
1000
0100
1000
0100
1000
0100
1000
0100
1000
0100
1000
0100
0010
0100
1000
0100
,
0010
0100
1000
0100
0010
0100
1000
0100
0010
0100
1000
0100
0010
0001
0010
0001
,
0010
0001
0010
0001
0010
0001
0010
0001
0010
0001
0010
0001
0100
0001
0010
0001
,
0100
0001
0010
0001
0100
0001
0010
0001
0100
0001
0010
0001
1000
0010
1000
0010
,
1000
0010
1000
0010
1000
0010
1000
0010
1000
0010
1000
0010
0100
0010
1000
0010
,
0100
0010
1000
0010
0100
0010
1000
0010
0100
0010
1000
0010
0100
0001
0100
0001
,
0100
0001
0100
0001
0100
0001
0100
0001
0100
0001
0100
0001
0010
0001
0100
0001
,
0010
0001
0100
0001
0010
0001
0100
0001
0010
0001
0100
0001
1000
0100
0010
0100
,
1000
0100
0010
0100
1000
0100
0010
0100
1000
0100
0010
0001
0100
0010
0001
0010
,
0100
0010
0001
0010
0100
0010
0001
0010
0100
0010
1000
0001
1000
0010
0100
0010
,
1000
0010
0100
0010
1000
0010
0100
0010
1000
0010
0100
0001
0100
0001
0010
0001
,
0100
0001
0010
0001
0100
0001
0010
0001
0100
0001
1000
0010
1000
0100
0010
0001
,
1000
0100
0010
0001
1000
0100
0010
0001
1000
0100
0010
0001
1000
0010
0100
0001
,
1000
0010
0100
0001
1000
0010
0100
0001
1000
0010
0100
0001
1000
0100
0010
0100
,
1000
0100
0010
0100
1000
0010
0100
0010
1000
0010
0100
0010
1000
0100
0010
0001
,
1000
0000
0000
0000
0010
0000
0000
0000
0100
0000
0000
0000
0001
0000
0000
0000
1000
0000
0000
0000
0100
0000
0000
0000
0010
0000
0000
0000
0001
0000
0000
0000
1000
0000
0000
0000
0010
0000
0000
0000
0100
0000
0000
0000
0001
0000
0000
0000
2000
0000
0000
0000
0000
0000
0000
0000
0000
0000
0000
0000
0000
0000
0000
3000
,
1000
0100
0010
0001
1000
0010
0100
0001
1000
0100
0010
0001
1000
0000
0000
1000
,
0000
1000
1000
0100
1000
0100
1000
0100
,
1000
0100
0010
0001
0010
0001
0010
0001
,
0010
0001
1000
0010
1000
0010
1000
0010
,
1000
0010
0100
0001
0100
0001
0100
0001
,
0100
0001
1000
0001
1000
0001
1000
0001
,
1000
0001
0010
0100
0010
0100
0010
0100
,
0010
0100
1000
0001
1000
0001
1000
0001
,
1000
0001
0100
0010
0100
0010
0100
0010
,
0100
0010
1000
0100
1000
0100
1000
0100
,
1000
0100
0010
0001
0010
0001
0010
0001
,
0010
0001
1000
0010
1000
0010
1000
0010
,
1000
0010
0100
0001
0100
0001
0100
0001
,
0100
0001
1000
0001
1000
0001
1000
0001
,
1000
0001
0010
0100
0010
0100
0010
0100
,
0010
0100
1000
0001
1000
0001
0100
0010
,
0100
0000
0010
1000
1000
0000
0000
0001
0000
0000
1000
0000
0001
0000
0000
0000
,
0000
1000
0000
0000
0001
0000
1000
0000
,
0000
0000
0001
0000
,
0000
1000
0000
0002
,
0000
0000
0000
0000
,
0000
0000
0000
0000
,
0000
0000
0000
0000
,
0000
0000
0000
0000
,
0000
0000
0000
0000
,
0000
0000
0000
0000
,
0000
0000
0000
0000
,
0000
0000
0000
0000
0000
0000
1003
0100
,
0010
0001
1000
0010
0100
0001
1000
0100
,
0010
0001
1000
0010
0100
0001
1000
0100
,
0010
0100
1000
0010
0100
0010
1000
0100
,
0010
0100
1000
0010
0100
0010
1000
0100
,
0010
0001
1000
0010
0100
0010
1000
0100
,
0010
0100
1000
0010
0100
0001
1000
0100
,
0010
0001
1000
0010
0100
0001
1000
0000
,
0010
0100
0010
1000
,
0010
0100
0010
1000
,
0010
0100
0010
1000
,
0010
0000
0000
0000
0100
0000
0000
0000
0010
0000
0000
0000
1000
0100
1000
0100
,
0010
0001
0010
0001
1000
0010
1000
0010
0100
0001
0100
0001
1000
0001
1000
0001
,
0010
0100
0010
0100
1000
0001
1000
0001
0100
0010
0100
0010
1000
0100
1000
0100
,
0010
0001
0010
0001
1000
0010
1000
0010
0100
0001
0100
0001
1000
0001
1000
0001
,
0100
0010
0100
0010
1000
0001
1000
0001
0010
0100
0010
0100
1000
0100
0010
0001
,
1000
0010
0100
0001
1000
0100
0010
0100
1000
0010
0100
0010
1000
0100
0010
0001
,
1000
0010
0100
0010
1000
0100
0010
0100
1000
0010
0100
0001
1000
0100
0010
0100
,
1000
0010
0100
0001
1000
0100
0010
0001
1000
0010
0100
0010
1000
0100
0010
0001
,
1000
0010
0100
0001
1000
0100
0010
0001
1000
0100
1000
0001
0100
0010
1000
0001
,
0010
0100
0010
0001
1000
0000
0010
0000
0100
0000
0001
0000
1000
0010
1000
0001
,
0010
0000
0100
0000
1000
0000
0001
0000
0100
0000
0000
0000
0010
0000
0000
0000
0100
0000
0001
0000
1000
0100
0010
0001
1000
0000
0100
0000
0010
0000
0100
0000
,
1000
0000
0000
0000
0001
0000
0000
0000
0100
0000
0000
0000
0010
0000
0000
0000
1000
0000
0000
0000
0001
0000
0000
0000
0010
0000
0000
0000
0001
0000
0000
0000
1000
0000
0000
0000
0010
0000
0000
0000
0100
0000
0000
0000
0001
0000
0000
0000
1000
0010
0100
0010
1000
0001
0010
0100
1000
0001
0100
0001
1000
0100
0010
0001
,
1000
0100
1000
0001
0100
0010
1000
0001
0010
0000
0000
0000
0001
0000
0000
0000
,
1000
0000
0000
0000
0010
0000
0000
0000
0100
0010
1000
0001
0010
0100
0010
0000
,
0001
0000
1000
0010
0100
0000
0001
0000
1000
0010
1000
0001
0010
0000
0000
0000
,
0000
0100
0000
1000
,
0000
0000
0000
0000
0001
0000
0000
0000
0000
0000
0000
0000
0100
0001
1000
0100
,
0010
0000
0100
0000
1000
0001
0100
0000
0000
0000
0010
0000
0000
0000
0100
0001
,
1000
0100
0010
0001
1000
0100
0010
0001
1000
0000
0000
0000
0010
0000
0000
0000
,
0100
0001
1000
0000
0000
0000
0100
0000
0000
0000
0010
0001
1000
0000
0000
0000
,
0001
1000
0000
0001
,
0000
0000
0000
1000
0000
0000
0000
0000
0000
0000
0000
0000
0000
0000
0001
0000
,
0000
0000
0000
0000
0000
1000
0000
0000
0000
0000
0000
0000
0001
0000
0000
0000
,
0000
0000
0000
0000
0000
0000
0000
0000
0000
0000
0000
0000
2000
0000
0000
0000
3000
0000
0000
0000
0000
0000
0000
0002
0000
0000
0000
0000
0000
0000
0000
0000
0000
0000
0000
0000
0000
0000
0000
0000
0000
0000
0000
0000
0000
0000
0000
0000
0000
0000
0000
0000
0000
0000
0000
0000
0000
0000
0000
0000
0000
0000
0000
0000
,
0000
0000
0000
0000
,
0000
0000
0000
0000
,
0000
0000
0000
0000
,
0000
0000
0000
0000
,
0000
0000
0000
0000
,
0000
0000
0000
0000
,
0000
0000
0000
0000
,
0000
0000
0000
0000
,
0000
0000
0000
0000
,
0000
0000
0000
0000
,
0000
0000
0000
0000
,
0003
0000
0000
0000
;

//--------------- dance-single - ----------------
#NOTES:
     dance-single:
     :
     Hard:
     14:
     0,0,0,0,0:
0000
0000
0000
0000
,
0000
0000
0000
0000
,
0000
0000
0000
0000
,
0000
0000
0000
0000
,
0000
0000
0000
0000
,
0000
0000
0000
0000
,
0000
0000
0000
0000
,
0000
0000
0000
0000
,
0000
0000
0000
0000
,
1001
1001
1001
1001
,
1001
0000
1001
0000
1001
0000
1001
1001
,
1001
1001
1001
1001
,
1001
0000
1001
0000
1001
0000
1001
1001
,
1001
1001
1001
1001
,
1001
1001
1001
1001
,
1001
1001
1001
1001
,
1001
0000
1001
0000
1001
0000
1001
1001
,
2002
0000
0000
0000
,
0000
0000
0000
0000
,
0000
0000
0000
0000
,
0000
0000
0000
3003
,
2000
3200
0320
0032
1003
0000
0100
0000
0010
0000
0001
0000
1000
0000
0010
0000
,
0100
0001
1000
0100
0010
0001
1000
0010
,
0100
0001
1000
0100
0010
0001
1000
0000
,
0100
0010
0001
1000
,
0100
0010
0001
1000
,
0100
0010
0001
1000
,
0100
0000
0010
0000
0001
0000
1000
0100
,
0010
0100
1000
0010
0100
0010
1000
0100
,
0010
0100
1000
0010
0100
0010
1000
0100
,
0010
0001
1000
0010
0100
0001
1000
0100
,
0010
0001
1000
0010
0100
0001
1000
0010
,
0100
0010
1000
0100
0010
0100
1000
0010
,
0100
0010
1000
0100
0010
0100
1000
0010
,
0100
0001
1000
0100
0010
0001
1000
0010
,
0100
0001
1000
0100
0010
0001
1000
0100
,
0010
1000
0010
0001
1000
0001
1000
0100
,
0001
0100
0010
0001
1000
0001
1000
0100
,
0001
0010
1000
0010
0001
0100
2000
0000
,
3200
0000
0320
0000
0032
0000
1003
0100
,
0010
1000
0100
0001
1000
0010
0001
0100
,
0010
0001
0010
0100
0001
0010
1000
0001
,
0100
0000
1000
0000
0010
0000
0100
0000
1000
0000
0001
0000
1000
0100
1000
0100
,
0010
0001
0010
0001
1000
0010
1000
0010
0100
0001
0100
0001
1000
0000
0100
0000
,
0010
1000
0100
0001
1000
0010
0001
0100
,
0010
0001
0100
0010
1000
0001
1001
0000
,
1001
1001
1001
0110
,
0110
0110
0110
1010
,
1010
1010
1010
0011
,
0011
0011
0011
1100
,
1100
1100
1100
0101
,
0101
0101
0101
0110
,
0110
0110
0110
1001
,
1001
1001
1001
1100
,
0101
0011
1010
1100
,
1010
0011
0101
1100
,
1010
0011
0101
1100
,
0101
0000
0011
0000
1010
0000
1100
1000
,
1010
0010
0011
0001
0101
0100
1100
0100
,
0101
0001
0011
0010
1010
1000
1100
1000
,
0110
0000
0010
0000
1001
0000
0001
0000
0110
0000
0100
0000
1000
0100
1000
0100
,
0010
0000
0000
0000
0001
0000
0000
0000
0010
0000
0000
0000
0001
0000
0000
0000
1000
0000
0000
0000
0010
0000
0000
0000
1000
0000
0000
0000
0010
0000
0000
0000
0100
0000
0000
0000
0001
0000
0000
0000
0100
0000
0000
0000
0001
0000
0000
0000
2002
0000
0000
0000
0000
0000
0000
0000
0000
0000
0000
0000
0000
0000
0000
3003
,
1000
0000
0100
0000
0010
0000
0001
0000
0100
0000
0010
0000
1000
0000
0000
0001
,
0000
1000
1000
0100
0010
0100
1000
0010
,
0100
0010
1000
0100
0010
0100
1000
0010
,
0100
0010
1000
0100
0010
0100
1000
0010
,
0100
0010
1000
0100
0010
0100
1000
0010
,
0100
0010
1000
0100
0010
0001
1000
0010
,
0100
0001
1000
0100
0010
0001
1000
0010
,
0100
0001
1000
0100
0010
0001
1000
0010
,
0100
0001
1000
0100
0010
0001
1000
0010
,
0100
0001
1000
0010
0100
0010
1000
0100
,
0010
0100
1000
0010
0100
0010
1000
0100
,
0010
0100
1000
0010
0100
0010
1000
0100
,
0010
0100
1000
0010
0100
0010
1000
0100
,
0010
0100
1000
0010
0100
0001
1000
0100
,
0010
0001
1000
0010
0100
0001
1000
0100
,
0010
0001
1000
0010
0100
0001
1000
0100
,
0010
0000
0001
1000
1001
0000
0000
1001
0000
0000
1001
0000
1001
0000
0000
0000
,
0000
1001
0000
0000
1001
0000
1001
0000
,
0000
0000
1001
0000
,
0000
1001
0000
2002
,
0000
0000
0000
0000
,
0000
0000
0000
0000
,
0000
0000
0000
0000
,
0000
0000
0000
0000
,
0000
0000
0000
0000
,
0000
0000
0000
0000
,
0000
0000
0000
0000
,
0000
0000
3003
1001
,
0000
0000
0000
0000
,
0000
0000
0000
0000
,
0000
0000
0000
0000
,
0000
0000
0000
0000
,
0000
0000
0000
0000
,
0000
0000
0000
0000
,
0000
0000
0000
1000
,
0010
0100
0001
1000
,
0010
0100
0001
1000
,
0010
0100
0001
1000
,
0010
0000
0100
0000
0001
0000
1001
1000
,
1010
0010
0110
0100
0101
0001
1001
1000
,
1100
0100
0110
0010
0011
0001
1001
1000
,
1010
0010
0110
0010
0011
0001
1001
1000
,
1100
0100
0110
0100
0101
0001
1001
1000
,
0101
0010
0110
0100
1010
0001
1001
1000
,
0011
0100
0110
0010
1100
0001
1001
1000
,
0011
0100
0110
0100
1010
0001
1001
1000
,
1001
0001
1001
0001
1000
0100
0010
0001
,
0100
0010
1000
0001
1000
0001
1000
0010
,
0100
0001
1000
0001
1000
0001
1000
0100
,
0010
0001
1000
0010
0100
0001
1000
0001
,
1000
0100
0001
0010
1000
0000
0100
0000
,
0010
0000
0001
0000
1000
0001
1000
0001
,
0010
0100
0010
0100
1000
0001
1000
0000
,
0001
1000
0001
1000
,
0001
0000
1000
0000
0001
0000
1000
0100
,
0010
0001
1000
0001
1000
0001
1000
0001
,
0010
0100
1000
0010
0100
0010
0100
0010
,
0100
0010
0100
0010
0100
0010
0100
0010
,
0100
0010
2002
0000
3003
0000
2002
0000
,
3003
0000
0000
2002
0000
0000
0000
0000
0000
0000
0000
3003
0000
0000
2002
0000
,
0000
0000
3003
0000
0000
2002
0000
0000
0000
3003
0000
0000
2002
0000
0000
0000
,
3003
0000
0000
0000
0000
0000
0000
0000
0000
0000
0000
0000
2002
0000
0000
0000
3003
0000
0000
0000
0000
0000
0000
2002
0000
0000
0000
0000
0000
0000
0000
0000
0000
0000
0000
0000
0000
0000
0000
0000
0000
0000
0000
0000
0000
0000
0000
0000
0000
0000
0000
0000
0000
0000
0000
0000
0000
0000
0000
0000
0000
0000
0000
0000
,
0000
0000
0000
0000
,
0000
0000
0000
0000
,
0000
0000
0000
0000
,
0000
0000
0000
0000
,
0000
0000
0000
0000
,
0000
0000
0000
0000
,
0000
0000
0000
0000
,
0000
0000
0000
0000
,
0000
0000
0000
0000
,
0000
0000
0000
0000
,
0000
0000
0000
0000
,
3003
0000
0000
0000
;

//--------------- dance-single - ----------------
#NOTES:
     dance-single:
     :
     Challenge:
     20:
     0,0,0,0,0:
0000
0000
0000
0000
,
0000
0000
0000
0000
,
0000
0000
0000
0000
,
0000
0000
0000
0000
,
0000
0000
0000
0000
,
0000
0000
0000
0000
,
0000
0000
0000
0000
,
0000
0000
0000
0000
,
0000
0000
0000
0000
,
1001
0110
0011
1010
,
0101
0000
0100
0000
1100
0000
0000
0000
1001
0000
0000
0010
0110
0000
0110
0000
,
1001
0110
1100
0101
,
0011
0000
1010
0000
0110
0011
0101
1100
,
1001
0100
0110
0001
1001
0010
0110
1000
,
1001
0010
0110
0001
1001
0100
0110
1000
,
1001
1001
0110
0110
1001
1001
0110
0110
,
1100
0101
0011
1010
1100
1010
0011
0101
,
2002
0000
0000
0000
,
0000
0000
0000
0000
,
0000
0000
0000
0000
,
0000
0000
0000
3003
,
2000
0000
0000
0000
0000
0000
0000
0000
0000
0000
0000
0000
3200
0000
0000
0000
0000
0000
0000
0000
0000
0000
0000
0000
0320
0000
0000
0000
0000
0000
0000
0000
0000
0000
0000
0000
0032
0000
0000
0000
0000
0000
0000
0000
0000
0003
0000
0000
1001
0000
0000
0000
0000
0000
0000
0000
0000
0000
0000
0000
0010
0000
0000
0000
0000
0000
0100
0000
0000
0000
0000
0000
0000
0000
0000
0000
0000
0000
0000
0000
0000
0000
0000
0000
1001
0000
0000
0000
0000
0000
0000
0000
0000
0000
0000
0000
0100
0000
0000
0000
0000
0000
0010
0000
0000
0000
0000
0000
0000
0000
0000
0000
0000
0000
0000
0000
0000
0000
0000
0000
0001
0000
0000
0000
0000
0000
0000
0000
0000
0000
0000
0000
0001
0000
0000
0000
0000
0000
0000
0000
0000
0000
0000
0000
1001
0000
0000
0000
0000
0000
0000
0000
0000
0000
0000
0000
0100
0000
0000
0000
0000
0000
0010
0000
0000
0000
0000
0000
0000
0000
0000
0000
0000
0000
0000
0000
0000
0000
0000
0000
1000
0000
0000
0000
0100
0000
0000
0000
0010
0000
0000
0000
,
0001
0000
0000
0000
0000
0000
0001
0000
0010
0000
0100
0000
1000
0000
0000
0000
0000
0000
0001
0000
0000
0000
0000
0000
1001
0000
0000
0000
0000
0000
0001
0000
0000
0010
0000
0000
0000
0000
0000
0000
0000
0000
0110
0000
0000
0000
0000
0000
1000
0000
0000
0100
0000
0000
0000
0000
0000
0000
0000
0000
0010
0000
0000
0000
0000
0000
0010
0000
0000
0000
0000
0000
1001
0000
0000
0000
0000
0000
0100
0000
0000
0000
0000
0000
0010
0000
0000
0000
0000
0000
1001
0000
0000
0000
0000
0000
,
0010
0000
0100
0000
1001
0000
1001
0000
1001
0000
0100
0000
0010
0000
0101
0001
0000
1000
1100
0000
0000
0000
0001
0000
2000
0000
0000
0000
0000
0000
0000
0000
,
0000
0000
0000
0000
0200
0000
0000
0000
0000
0000
0000
0000
0000
0000
0000
0000
0000
0000
0000
3000
0002
0000
0000
0000
0000
0000
0000
0000
0000
0000
0000
0000
0000
0000
0000
0300
2000
0000
0000
0000
0000
0000
0000
0000
0000
0000
0000
0000
,
0000
0000
0000
0003
0020
0000
0000
0000
0000
0000
0000
0000
0000
0000
0000
0000
0000
0000
0000
3000
0002
0000
0000
0000
0000
0000
0000
0000
0000
0000
0000
0000
0000
0000
0000
0030
2000
0000
0000
0000
0000
0000
0000
0000
0000
0000
0000
0000
,
0000
0000
0000
0003
0200
0000
0000
0000
0000
0000
0000
0000
0000
0000
0000
0000
0000
0000
0000
3000
0002
0000
0000
0000
0000
0000
0000
0000
0000
0000
0000
0000
0000
0000
0000
0300
2000
0000
0000
0000
0000
0000
0000
0000
0000
0000
0000
0000
,
0000
0000
0000
0003
0020
0000
0000
0000
0000
0000
0000
0000
0000
0000
0000
0000
0000
0000
0000
3000
0002
0000
0000
0000
0000
0000
0000
0000
0000
0000
0000
0000
0000
0000
0000
0033
1001
0000
0000
0000
0000
0000
0001
0000
0000
1000
0000
0000
,
0001
0000
1001
0000
1000
0100
0010
0001
0100
0000
0100
0000
0011
0000
1000
0010
,
0001
0000
0101
0000
0001
0010
0100
0000
1001
1000
0110
0010
1001
0100
0010
0000
,
0001
0000
0000
0000
0000
0000
0010
0000
0100
0000
0010
0000
1000
0000
0000
0000
0000
0000
0100
0000
0010
0000
0001
0000
0100
0000
0000
0000
0000
0000
0001
0000
0000
0000
0000
0000
1000
0000
0000
0100
0000
0000
1000
0000
0000
0100
0000
0000
,
0010
0000
0000
0001
0000
0000
0010
0000
0000
0001
0000
0000
1000
0000
0000
0010
0000
0000
0100
0000
0000
0001
0000
0000
1000
0000
0001
0000
1000
0000
0001
0000
1000
0000
0001
0000
1001
0000
0000
0000
0000
0000
0000
0000
0000
0100
0000
0000
,
0010
0000
1001
0000
0000
0010
0100
0000
1001
0000
0110
0000
1010
0000
0000
0010
,
0001
0000
0101
0000
0000
0100
1000
0000
0110
0000
1001
0000
1010
0100
0001
0000
,
0010
0000
0000
0000
0000
0000
1000
0000
0100
0000
0010
0000
1000
0000
0000
0000
0000
0000
0001
0000
0010
0000
0100
0000
0001
0000
0000
0000
0000
0000
0010
0000
0000
0000
0000
0000
1000
0000
0100
0000
1000
0000
0100
0000
0000
1000
0000
0000
,
0010
0000
1000
0000
0010
0000
1000
0000
0000
0010
0000
0000
1000
0000
0001
0000
1000
0000
0001
0000
1000
0000
0001
0000
1000
0000
0000
0100
0000
0000
0010
0000
0000
0001
0000
0000
1001
0000
0000
0000
0000
0000
0100
0000
0000
0000
0000
0000
,
0011
0000
0000
0000
0000
0000
1000
0000
0000
0000
0000
0000
0110
0000
0000
0010
0000
0000
0001
0000
0000
0100
0000
0000
1000
0000
0001
0000
1000
0000
0001
0000
1000
0000
0001
0000
1001
0000
0000
0000
0000
0000
0010
0000
0000
0000
0000
0000
,
1100
0000
0001
0000
1000
0010
0001
0010
1000
0100
0001
0100
1000
0100
0010
1000
,
0100
0001
1000
0010
0001
0100
0010
0001
1000
0000
0001
0000
2000
0000
0000
0000
,
3200
0000
0000
0000
0000
0000
0000
0000
0000
0000
0000
0000
0000
0000
0000
0000
0000
0000
0000
0000
0000
0000
0000
0000
0320
0000
0000
0000
0000
0000
0000
0000
0000
0000
0000
0000
0000
0000
0000
0000
0000
0000
0000
0000
0000
0000
0000
0000
0031
0000
0000
0000
1000
0000
0000
0000
0001
0000
0000
0000
1000
0000
0000
0001
0000
0000
1000
0000
0000
0001
0000
0000
1001
0000
0000
0000
0000
0000
0000
0000
0000
0000
0000
0000
0000
0000
0000
0000
0000
0000
0100
0000
0000
0000
0000
0000
,
0110
0000
0000
0000
1001
0000
0000
0000
0010
0000
0001
0000
0100
0000
1000
0000
0010
0100
0010
0100
0010
0100
0010
0100
0010
0000
0000
0000
0000
0000
0001
0000
,
1010
0000
0000
0000
0000
0000
0011
0000
0000
0000
0000
0000
1000
0000
0000
0100
0000
0000
0010
0000
0000
0001
0000
0000
1000
0000
0100
0000
0010
0000
1000
0000
0010
0000
0001
0000
1000
0000
0000
0000
0000
0000
0100
0000
0000
0010
0000
0000
,
0001
0000
0000
0000
0010
0000
0000
0000
1000
0001
1000
0001
1000
0000
0000
0000
0010
0100
0010
0100
0010
0000
0000
0000
1000
0000
0100
0000
0010
0000
1000
0000
,
0100
0000
0000
0001
0000
0000
1000
0000
0000
0010
0000
0000
0001
0000
0000
0100
0000
0000
0010
0000
0000
0001
0000
0000
1000
0000
0000
0010
0000
0000
0100
0000
0000
0001
0000
0000
2000
0000
0000
0000
0100
0000
0000
0000
3010
0000
0000
0000
,
0002
0100
0013
2000
0010
3100
0002
0010
0103
2000
0100
3010
,
0002
0000
0000
0000
0100
0000
0000
0000
0013
0000
0000
0000
2000
0000
0000
0000
0010
0000
0000
0000
3100
0000
0000
0000
0002
0000
0000
0000
0010
0000
0000
0000
0103
0000
0000
0000
1000
0000
0000
0000
0000
0000
1000
0000
0000
0100
0000
0000
,
0000
0100
0010
0000
0010
0001
0000
0001
1000
0000
0001
0000
1000
0010
1000
0010
,
0100
0001
0100
0001
1000
0100
0010
0001
1000
0100
0001
0100
1000
0000
1000
0010
,
0000
0010
0100
0000
0100
0001
0000
0001
1000
0000
0001
0000
1000
0100
1000
0100
,
0010
0001
0010
0001
1000
0010
0100
0001
1000
0010
0001
0010
1000
0000
0000
0100
,
0010
0000
1001
0000
0000
0010
0100
0000
1000
0000
0001
0000
1000
0100
0010
0001
,
1000
0100
0001
0100
1000
0010
0100
0001
1000
0010
0001
0010
1000
0000
0000
0010
,
0100
0000
1001
0000
0000
0100
0010
0000
1000
0000
0001
0000
1000
0010
0100
0001
,
1000
0000
0010
0000
0001
0000
0010
0000
1000
0000
0100
0000
0010
0000
0001
0000
1000
0000
0100
0000
0001
0000
0100
0000
1000
0100
1000
0000
0000
0000
0001
0100
,
0001
0000
0000
0000
1000
0010
1000
0000
0000
0000
0001
0010
0001
0000
0000
0000
1001
0000
0000
0000
1001
0000
0000
0000
1000
0000
0100
0000
0010
0000
0100
0000
,
1000
0000
0010
0000
0100
0000
0001
0000
1000
0000
0100
0000
0010
0000
0001
0000
1000
0000
0010
0000
0100
0000
0010
0000
1000
0010
1000
0000
0000
0000
0001
0010
,
0001
0000
0000
0000
1000
0100
1000
0000
0000
0000
0001
0100
0001
0000
0000
0000
0110
0000
0000
0000
0110
0000
0000
0000
1000
0000
0010
0000
0100
0000
0010
0000
,
1000
0000
0000
0100
0000
0000
0010
0000
0000
0001
0000
0000
1000
0000
0000
0010
0000
0000
0100
0000
0000
0001
0000
0000
1000
0000
0000
0100
0000
0000
0010
0000
0000
0100
0000
0000
1000
0100
1000
0100
0000
0000
0000
0000
0000
0010
0001
0010
,
0001
0000
0000
0000
0000
0000
0000
0000
0000
0000
0000
0000
1000
0000
0010
0000
1000
0000
0010
0000
0000
0000
0000
0000
0000
0000
0000
0000
0000
0000
0100
0000
0001
0000
0100
0000
0001
0000
0000
0000
0000
0000
0000
0000
0000
0000
0000
0000
1000
0000
0000
0001
0000
0000
1000
0000
0000
0001
0000
0000
1000
0000
0000
0000
0000
0000
0001
0000
0000
0000
0000
0000
1000
0000
0000
0000
0000
0000
0100
0000
0000
0000
0000
0000
0010
0000
0000
0000
0000
0000
1000
0000
0000
0000
0000
0000
,
0100
0000
0000
0000
0000
0000
0001
0000
0000
0000
0000
0000
1000
0000
0000
0000
0000
0000
0010
0000
0000
0000
0000
0000
0001
0000
0000
0000
0000
0000
0100
0000
0000
0000
0000
0000
0010
0000
0000
0000
0000
0000
0001
0000
0000
0000
0000
0000
1000
0000
0000
0000
0000
0000
0001
0000
0000
0000
0000
0000
1000
0000
0000
0001
0000
0000
1000
0000
0000
0001
0000
0000
1000
0000
0010
0000
1000
0000
0010
0000
0000
0000
0000
0000
0000
0000
0000
0000
0000
0000
0001
0000
0010
0000
0001
0000
,
0010
0000
0000
0000
0000
0000
1000
0100
1000
0100
0000
0000
0000
0000
0000
0001
0100
0001
0100
0000
0000
0000
0000
0000
1001
0000
0000
0000
0000
0000
0110
0000
0000
0000
0000
0000
1000
0000
0000
0100
0000
0000
0010
0000
0000
1000
0000
0000
,
0010
0000
0000
0000
0000
0000
0000
0000
0000
0000
0000
0000
0001
0000
0000
0000
0000
0000
0000
0000
0000
0000
0000
0000
1000
0000
0000
0000
0000
0000
0000
0000
0000
0000
0000
0000
0100
0000
0000
0000
0000
0000
0000
0000
0000
0000
0000
0000
0001
0000
0000
0000
0000
0000
0000
0000
0000
0000
0000
0000
0100
0000
0000
0000
0000
0000
0000
0000
0000
0000
0000
0000
0010
0000
0000
0000
0000
0000
0000
0000
0000
0000
0000
0000
0001
0000
0000
0000
0000
0000
0000
0000
0000
0000
0000
0000
1000
0000
0000
0000
0000
0000
0000
0000
0000
0000
0000
0000
0010
0000
0000
0000
0000
0000
0000
0000
0000
0000
0000
0000
0001
0000
0000
0000
0000
0000
0000
0000
0000
0000
0000
0000
0100
0000
0000
0000
0000
0000
0000
0000
0000
0000
0000
0000
2002
0000
0000
0000
0000
0000
0000
0000
0000
0000
0000
0000
0000
0000
0000
0000
0000
0000
0000
0000
0000
0000
0000
0000
0000
0000
0000
0000
0000
0000
0000
0000
0000
0000
0000
0000
0000
0000
0000
0000
0000
0000
0000
0000
0000
3003
0001
0000
,
1000
0100
1000
0100
0010
0001
0010
0001
1000
0010
1000
0010
0100
0001
0100
0001
1000
0100
0010
0001
1000
0010
0100
0010
1000
0100
0010
0100
1000
0010
0100
0001
1000
0100
0001
0100
1000
0010
0001
0010
1000
0100
0001
0100
1000
0010
0100
0001
1001
0000
0000
0000
0000
0000
1001
0000
0000
0000
0000
0000
1001
0000
0000
0000
,
0000
1001
0000
0000
1001
0000
1001
0000
1000
0000
0000
0000
0100
0000
0000
0000
0010
0000
0000
0000
0100
0000
0000
0000
1000
0000
0000
0000
0010
0000
0000
0000
,
0001
0010
1000
0100
0010
0001
1000
0010
,
0100
0001
1000
0010
0100
0010
1000
0100
,
0001
0100
1000
0010
0100
0001
1000
0100
,
0010
0001
1000
0010
0100
0001
1000
0100
,
0001
0100
1000
0010
0001
0010
1000
0100
,
0010
0001
1000
0010
0001
0010
1000
0100
,
0010
0001
1000
0010
0100
0001
1000
0100
,
0001
0100
1000
0100
0010
1000
0010
0001
,
1000
0010
0100
0001
1000
0100
0001
0100
,
0010
0001
1000
0100
0010
1000
0100
0001
,
1000
0010
0001
0100
0010
0001
1000
0010
,
0100
0001
1000
0100
0001
0100
1000
0010
,
0001
0010
1000
0100
0001
0100
1000
0010
,
0001
0010
1000
0100
0001
0100
1000
0001
,
1000
0000
2002
3003
2002
0000
3003
2002
0000
3003
2002
3003
2002
0000
0000
0000
,
3003
2002
0000
3003
2002
3003
2002
0000
,
0000
3003
2002
0000
,
3003
2002
3003
2002
,
0000
0000
0000
0000
,
0000
0000
0000
0000
,
0000
0000
0000
0000
,
0000
0000
0000
0000
,
0000
0000
0000
0000
,
0000
0000
0000
0000
,
0000
0000
0000
0000
,
0000
0000
3003
2002
,
0000
0000
0000
0000
,
3003
0000
0000
0000
0000
0000
0000
0000
0000
0000
0000
0000
0000
0000
0000
0000
0000
0000
0000
0000
0000
0000
0000
0000
0200
0000
0000
0000
0310
0000
0000
0000
0100
0000
0000
0000
0010
0000
0000
0000
0100
0000
0000
0000
0010
0000
0000
0000
0200
0000
0000
0310
0000
0000
0100
0000
0000
0010
0000
0000
0100
0000
0000
0010
0000
0000
0100
0000
0000
0010
0000
0000
0220
0000
0000
0000
0000
0000
0000
0000
0000
0000
0000
0000
0330
0000
0000
0000
0000
0000
0000
0000
0000
0000
0000
0000
,
0000
0000
0000
0000
,
0000
0000
0000
0000
2000
0000
3200
0000
0320
0000
0032
0003
2002
0000
3003
0000
,
0000
0000
0000
2002
3003
0000
2002
3003
,
0000
0000
2002
0000
3003
0000
2002
0000
3003
0000
0002
0003
1001
0000
0000
1000
,
1100
0000
0110
0000
0000
0001
0101
0000
1001
0000
0110
0000
0002
0000
0000
0000
,
0000
0000
0000
0000
0020
0000
0000
0000
0000
0000
0000
0000
0000
0000
0000
0000
0000
0000
0000
0003
2000
0000
0000
0000
0000
0000
0000
0000
0000
0000
0000
0000
0000
0000
0000
0030
0002
0000
0000
0000
0000
0000
0000
0000
0000
0000
0000
0000
,
0000
0000
0000
3000
0200
0000
0000
0000
0000
0000
0000
0000
0000
0000
0000
0000
0000
0000
0000
0003
2000
0000
0000
0000
0000
0000
0000
0000
0000
0000
0000
0000
0000
0000
0000
0300
0002
0000
0000
0000
0000
0000
0000
0000
0000
0000
0000
0000
,
0000
0000
0000
3000
0020
0000
0000
0000
0000
0000
0000
0000
0000
0000
0000
0000
0000
0000
0000
0003
2000
0000
0000
0000
0000
0000
0000
0000
0000
0000
0000
0000
0000
0000
0000
0030
0002
0000
0000
0000
0000
0000
0000
0000
0000
0000
0000
0000
,
0000
0000
0000
3000
0200
0000
0000
0000
0000
0000
0000
0000
0000
0000
0000
0000
0000
0000
0000
0003
2000
0000
0000
0000
0000
0000
0000
0000
0000
0000
0000
0000
0000
0000
0000
3300
1001
0000
0000
0000
0000
0000
1000
0000
0000
0010
0000
0000
,
0100
0000
0001
0010
1000
0100
0010
0000
0002
0000
2003
0000
3001
0000
0100
1000
,
0001
0000
0010
1000
0001
0010
0100
0000
2000
0000
3020
0000
1030
0100
0001
0100
,
1000
0000
0000
0010
0000
0000
0002
0000
0023
0000
0230
0000
2300
0000
3000
0000
0000
0000
2000
0000
3020
0000
0230
0000
0320
0000
0030
0000
0000
0000
0002
0000
0000
0000
0000
0000
1003
0000
0000
0000
0000
0000
0100
0000
0000
0000
0000
0000
,
0010
0000
0000
0000
0000
0000
0000
0000
0000
0000
0000
0000
0001
0000
0000
0000
0000
0000
0000
0000
0000
0000
0000
0000
0100
0000
0000
0000
0000
0000
0000
0000
0000
0000
0000
0000
0010
0000
0000
0000
0000
0000
0000
0000
0000
0000
0000
0000
1000
0000
0000
0000
0001
0000
0000
0000
1000
0000
0000
0000
0001
0000
0000
1000
0000
0000
0001
0000
0000
1000
0000
0000
1001
0000
0000
0000
0000
0000
0000
0000
0000
0000
0000
0000
0100
0000
0000
0000
0000
0000
0010
0000
0000
0000
0000
0000
,
0100
0000
0001
0000
1000
0100
0001
0010
2000
0000
3002
0000
1003
0000
0100
0001
,
1000
0100
0001
0100
2000
0000
3002
0000
0103
0010
0100
0001
1000
0000
0010
0001
,
1000
0010
0100
0010
0001
0010
0100
0010
2000
0000
3002
0000
1003
0100
0010
0001
,
1000
0000
0010
0000
0100
0000
0001
0000
2000
3200
0302
0023
2030
3020
0032
0203
1300
0000
0100
0000
0010
0000
0001
0000
1000
0000
0010
0000
0100
0000
0001
0000
,
1000
0000
0000
0100
0000
0000
0010
0000
0000
0001
0000
0000
1000
0000
0000
0000
0001
0000
0000
0000
1000
0000
0000
0000
0001
0000
0000
0000
1000
0000
0000
0000
0001
0000
0000
0000
2000
0000
0000
0100
0000
0000
0020
0000
0000
3031
0000
0000
,
2000
0010
0200
3301
1000
0001
1000
0001
1000
0001
2000
3002
1003
0000
0100
0000
,
0010
0000
0001
0000
1000
0100
0010
0001
2000
0000
3002
0000
2003
3200
0320
0032
,
2003
0000
0100
0010
3001
0000
0001
0000
2000
0000
0000
0000
3200
0000
0000
0000
,
0320
0000
0000
0000
0000
0000
0000
0000
0000
0000
0000
0000
0032
0000
0000
0000
0000
0000
0000
0000
0000
0000
0000
0000
1003
0000
0000
0000
0000
0000
0001
0000
0000
0000
0000
0000
1000
0000
0000
0100
0000
0000
0002
0000
0000
0000
0023
0000
,
0000
0000
0230
0000
0000
0000
1300
0000
0000
0010
0000
0000
0002
0000
0000
0000
0203
0000
0000
0000
0320
0000
0000
0000
1030
0000
0000
0100
0000
0000
0010
0000
0000
0001
0000
0000
1000
0000
0000
0000
0000
0000
0000
0000
0000
0000
0000
0000
,
0001
1000
0001
1000
,
0001
0000
0000
0000
1000
0000
0000
0000
0001
0000
0000
0000
1000
0010
0001
0100
,
2000
0000
0000
0000
3200
0000
0000
0000
0320
0000
0000
0000
0001
0000
0000
0031
0000
0000
1000
0000
0000
0000
0000
0000
0001
0000
0000
0000
0000
0000
1000
0000
0000
0000
0000
0000
0001
0000
0000
0000
0000
0000
2000
0000
0000
3002
0000
0000
,
2003
0000
0000
3200
0000
0000
0302
0000
2003
0000
3002
0000
2003
0000
0000
3020
0000
0000
0230
0000
0000
0320
0000
0000
1030
0000
0000
0000
0000
0000
0000
0000
0000
0000
0000
0000
0100
0000
0000
0000
0000
0000
0000
0000
0000
0000
0000
0000
,
0020
0230
0301
0000
0000
0000
0100
0000
0000
0000
0020
0230
1300
0000
0000
0000
,
0001
0000
0000
0000
0000
0000
0000
0000
0000
0000
0000
0000
2000
3002
2003
3002
0003
0000
0000
0000
0000
0000
0000
0000
0000
0000
0000
0000
0000
0000
0000
0000
0000
0000
0000
0000
2000
0000
0000
0000
3200
0000
0000
0000
0320
0000
0000
0000
,
0032
0000
0000
0000
0003
0000
0000
0000
0000
0002
0000
0000
0000
0023
0000
0000
0000
0230
0000
0000
0000
2300
0000
0000
0000
3000
0000
0000
0000
0000
0000
0000
0000
0000
0000
0000
0000
0000
0000
0000
0000
0000
2000
0000
0000
0000
3020
0000
,
0000
0000
0230
0000
0000
0000
0302
0000
0000
0000
0003
0000
0000
0000
0000
0002
0000
0000
0000
0203
0000
0000
0000
0320
0000
0000
0000
2030
0000
0000
0000
3000
0000
0000
0000
0000
0200
0000
0000
0320
0000
0000
0230
0000
0000
0320
0000
0000
,
0230
0000
0000
0000
0300
0000
0000
0000
0000
0000
0000
0000
2002
0000
0000
0000
3003
0000
0000
0000
0000
0000
0000
2002
0000
0000
0000
0000
0000
0000
0000
0000
0000
0000
0000
0000
0000
0000
0000
0000
0000
0000
0000
0000
0000
0000
0000
0000
0000
0000
0000
0000
0000
0000
0000
0000
0000
0000
0000
0000
0000
0000
0000
0000
,
0000
0000
0000
0000
,
0000
0000
0000
0000
,
0000
0000
0000
0000
,
0000
0000
0000
0000
,
0000
0000
0000
0000
,
0000
0000
0000
0000
,
3003
0000
0000
0000
;
