#TITLE:Smug Rug;
#SUBTITLE:;
#ARTIST:Raxxo;
#TITLETRANSLIT:;
#SUBTITLETRANSLIT:;
#ARTISTTRANSLIT:;
#GENRE:;
#CREDIT:;
#MUSIC:Smug Rug.ogg;
#BANNER:Smug Rug-bn.png;
#BACKGROUND:Smug Rug-bg.png;
#CDTITLE:;
#SAMPLESTART:16.200;
#SAMPLELENGTH:10.728;
#SELECTABLE:YES;
#OFFSET:-0.107;
#BPMS:0.000=89.483
,24.000=178.965
,104.000=89.483
,120.000=178.965
,152.000=44.741
,160.000=89.483
,176.000=357.930
;
#STOPS:;
#BGCHANGES:;
#FGCHANGES:;

//--------------- dance-single - ----------------
#NOTES:
     dance-single:
     :
     Beginner:
     2:
     0,0,0,0,0:
0000
0000
0000
0000
,
0000
0000
0000
0000
,
1001
0000
0000
0000
,
1001
0000
0000
0000
,
0000
0000
0000
0000
,
0000
0000
0000
0000
,
1000
0000
0000
0000
,
0100
0000
0000
0000
,
0010
0000
0000
0000
,
0001
0000
0000
0000
,
1000
0000
0000
0000
,
0010
0000
0000
0000
,
0100
0000
0000
0000
,
0001
0000
0000
0000
,
1000
0000
0100
0000
,
0010
0000
0001
0000
,
1000
0000
0010
0000
,
0100
0000
0001
0000
,
1000
0000
0000
0000
,
0100
0000
0000
0000
,
0010
0000
0000
0000
,
0100
0000
0000
0000
,
1000
0000
0000
0000
,
0010
0000
0000
0000
,
0100
0000
0000
0000
,
0010
0000
0000
0000
,
2002
0000
0000
0000
,
0000
0000
0000
0000
,
0000
0000
0000
0000
,
0000
0000
3000
0000
,
2003
0000
3000
0000
,
0200
0000
0300
0000
,
0020
0000
0030
0000
,
0200
0000
0300
0000
,
1100
0000
0000
0000
,
1010
0000
0000
0000
,
0011
0000
0000
0000
,
0101
0000
0000
0000
,
1002
0000
0000
0000
,
0000
0000
0000
0000
,
0003
1100
0000
0101
,
0000
0011
0000
1010
,
0000
0110
0000
1001
,
0000
0110
0000
0000
,
1000
0000
0000
0000
,
0100
0000
0000
0000
,
0010
0000
0000
0000
,
0001
0000
0000
0000
,
0100
0000
0000
0000
,
0010
0000
0000
0000
,
1000
0000
0000
0000
,
0100
0000
0000
0000
,
0010
0000
0000
0000
,
0100
0000
0000
0000
,
1000
0000
0000
0000
,
0010
0000
0000
0000
,
0100
0000
0000
0000
,
0010
0000
0000
0000
,
1000
0000
0100
0000
,
0010
0000
0001
0000
,
0100
0000
0010
0000
,
1000
0000
0100
0000
,
0010
0000
0001
0000
,
0100
0000
0010
0000
,
2002
0000
0000
0000
,
3003
0000
0000
0000
;

//--------------- dance-single - ----------------
#NOTES:
     dance-single:
     :
     Easy:
     6:
     0,0,0,0,0:
0000
0000
0000
0000
,
0000
0000
0000
0000
,
1000
0100
0010
0001
,
1000
0010
0100
0001
,
0000
0000
0000
0000
,
0000
0000
0000
0000
,
1000
0000
0000
0000
,
0100
0000
0010
0000
,
0001
0000
0000
0000
,
0010
0000
0100
0000
,
1000
0000
0100
0000
,
0010
0000
0100
0000
,
1000
0000
0010
0000
,
0100
0000
0010
0000
,
1000
0100
0010
0001
,
1000
0010
0100
0001
,
1000
0100
0010
0100
,
1000
0010
0100
0010
,
1000
0000
0100
0000
,
0010
0000
0001
0000
,
0100
0000
0010
0000
,
1000
0000
0001
0000
,
1000
0000
0010
0000
,
0100
0000
0001
0000
,
0010
0000
0100
0000
,
1000
0000
0001
0000
,
1000
0000
0100
0000
,
0010
0000
0001
0000
,
1000
0000
0010
0000
,
0100
0000
0001
0000
,
2000
0000
3200
0000
,
0320
0000
0230
0000
,
2300
0000
3020
0000
,
0230
0000
0000
0000
0000
0000
0000
0000
0000
0000
0000
0000
0000
0000
0000
0000
0320
0000
0000
0000
0000
0000
0000
0000
0000
0000
0000
0000
0000
0000
0000
0030
,
1100
1000
1010
1000
,
0110
0100
0101
0100
,
0011
0010
0110
0010
,
1001
0001
0101
0001
,
1002
0000
0000
0000
,
0000
0000
0000
0000
,
1003
0000
0100
0000
,
0010
0000
0001
0000
,
0100
0000
0010
0000
,
1000
0000
0001
0000
,
1000
0000
0100
0000
,
0010
0000
0001
0000
,
0100
0000
0010
0000
,
1000
0000
0100
0000
,
1000
0000
0010
0000
,
0100
0000
0001
0000
,
0010
0000
0100
0000
,
1000
0000
0010
0000
,
1000
0000
0100
0000
,
1000
0000
0010
0000
,
0100
0000
0001
0000
,
0010
0000
0001
0000
,
0100
0000
0010
0000
,
1000
0000
0100
0000
,
1000
0100
0010
0001
,
1000
0010
0100
0001
,
1000
0100
1000
0010
,
0100
0001
0010
0001
,
0100
0010
1000
0100
,
1000
0010
0100
0001
,
2002
0000
0000
0000
,
3003
0000
0000
0000
;

//--------------- dance-single - ----------------
#NOTES:
     dance-single:
     :
     Medium:
     8:
     0,0,0,0,0:
0000
0000
0000
0000
,
0000
0000
0000
0000
,
1000
0100
0010
0001
1000
1000
0001
0001
,
1000
0010
0100
0001
0010
0010
0100
0100
,
1000
0010
0100
0001
,
0000
0000
0000
0000
0000
0000
0000
0000
0000
0000
1001
0000
0000
0000
1000
0001
,
1000
0100
0010
0001
,
0100
0010
0100
0010
,
1000
0010
0100
0001
,
0010
0100
0010
0100
,
1000
0100
0010
0001
,
0100
0010
0100
0010
,
1000
0010
0100
0001
,
0010
0100
0010
0100
,
1000
0100
0010
0100
1000
0100
0010
0001
,
0100
0010
0100
0010
1000
0100
0010
0001
,
1000
0010
0100
0010
1000
0010
0100
0001
,
0010
0100
0010
0100
1000
0010
0100
0001
,
0000
1000
0100
1000
0000
0001
0100
0001
,
0000
1000
0010
1000
0000
0001
0010
0001
,
0000
1000
0100
0010
0000
0001
0010
0100
,
0000
1000
0010
0100
0000
0001
0100
0010
,
1000
0100
0010
0001
,
0100
0010
1000
0100
,
0010
0001
0100
0010
,
1000
0100
0010
0001
0001
0010
0100
1000
,
1000
0100
0010
0001
,
0100
0010
1000
0001
,
1000
0010
0100
0001
,
0010
0000
0000
0000
0100
0000
0000
0000
1000
0100
0010
0001
1000
0100
0010
0001
,
2000
0000
3200
0000
,
0320
0000
0032
0000
,
0203
0000
0320
0000
,
2030
0000
0000
0000
0000
0000
0000
0000
0000
0000
0000
0000
0000
0000
0000
0000
3002
0000
0000
0000
0000
0000
0000
0000
0000
0000
0000
0000
0000
0000
0000
0003
,
1100
1100
1010
1010
,
0011
0011
0101
0101
,
0110
0110
1001
1001
,
0110
0110
1001
1001
,
1000
0100
0010
0001
0100
0010
0100
0010
1000
0100
0010
0001
0100
0010
0100
0010
,
1000
0010
0100
0001
0010
0100
0010
0100
1000
0010
0100
0001
0010
0100
0010
0100
,
1000
1100
0100
0110
,
0010
0011
0001
0101
,
0100
0110
0010
1010
,
1000
1001
0001
1001
,
1000
0100
0010
0001
,
1000
0010
0100
0001
,
1000
0100
0010
0100
,
1000
0100
0010
0100
,
1000
0010
0100
0001
,
1000
0100
0010
0001
,
1000
0010
0100
0010
,
1000
0010
0100
0010
,
1000
0100
0010
0001
,
1000
0010
0100
0001
,
1000
0100
0010
0100
,
1000
0010
0100
0010
,
1000
0010
0100
0001
,
1000
0100
0010
0001
,
1000
0100
0010
0100
,
1000
0010
0100
0001
,
0010
0100
0010
0100
,
1000
0010
0100
0001
,
1000
0100
0010
0100
,
1000
0100
0010
0001
,
2002
0000
0000
0000
,
3003
0000
0000
0000
;

//--------------- dance-single - ----------------
#NOTES:
     dance-single:
     :
     Hard:
     10:
     0,0,0,0,0:
0000
0000
0000
0000
,
0000
0000
0000
0000
,
1000
0100
0010
0001
1000
0010
0100
0001
,
1000
0100
0010
0001
1000
0010
0100
0001
,
1000
0001
1000
0001
,
1000
0000
0000
0000
0000
0000
0000
0000
0000
0000
0000
0000
0000
0000
0000
0000
0000
0000
0000
0000
1001
0000
0000
0000
1000
0000
0001
0000
1000
0100
0010
0001
,
1000
0100
0010
0001
1000
0010
0100
0001
,
1000
0100
0010
0100
1000
0010
0100
0010
,
1000
0100
0010
0001
1000
0010
0100
0001
,
1000
0100
0010
0100
1000
0010
0100
0010
,
1000
0010
0100
0001
1000
0100
0010
0001
,
1000
0010
0100
0010
1000
0100
0010
0100
,
1000
0010
0100
0001
1000
0100
0010
0001
,
1000
0010
0100
0010
1000
0100
0010
0100
,
1000
0000
0100
0000
0010
0001
0000
0001
1000
0000
0010
0000
0100
0001
0000
0001
,
1000
0000
0100
0000
0100
0001
0000
0001
1000
0000
0010
0000
0010
0001
0000
0001
,
1000
0000
0001
0000
0100
0010
0000
0010
1000
0000
0100
0000
0010
0100
0000
0100
,
1000
0000
0010
0000
0100
0010
0000
0010
1000
0000
0100
0000
0001
0010
0000
0010
,
1000
0001
0010
0001
0000
1000
0010
1000
,
0000
0001
0100
0001
0000
1000
0100
1000
,
1000
0100
0010
0001
0000
0001
0010
0100
,
0000
1000
0010
0100
0000
0001
0100
0010
,
0000
1000
0100
0010
0000
0001
0010
0100
,
1000
0100
0010
0000
0001
0000
1000
0000
0001
0100
0010
0000
1000
0000
0001
0000
,
1000
0100
0010
0100
1000
0010
0100
0010
,
1000
0100
1000
0000
0001
0000
0001
0000
1000
0010
1000
0000
0001
0000
0001
0000
,
1000
0000
0001
0010
0001
0000
1000
0010
1000
0000
0001
0100
0001
0000
1000
0100
,
1000
0000
0001
1000
0001
0000
1000
0001
1000
0000
0010
0100
0010
0000
0100
0010
,
0100
0000
1000
0100
0010
0000
0001
0010
0100
0000
1000
0010
0100
0000
0001
0100
,
0010
0000
0000
0000
0100
0000
1000
0000
0100
0000
0000
0000
1000
0000
0100
0000
1000
0100
1000
0100
0010
0001
0010
0001
1000
0010
1000
0010
0100
0001
0100
0001
,
1000
0200
0320
0032
0003
0020
0230
2300
,
3000
2000
3020
0230
0300
0002
0203
0320
,
0030
2000
3200
0320
0030
0002
0023
0230
,
0300
0000
0200
0000
0302
0000
0023
0000
0030
0000
0020
0000
2030
0000
3200
0300
,
1100
0011
1010
0101
,
1010
0101
1100
0011
,
1100
0101
0011
1010
,
1100
1010
0011
0101
,
1000
0000
0001
0010
0001
0000
1000
0010
1000
0000
0001
0100
0001
0000
1000
0100
1000
0000
0001
1000
0001
0000
1000
0001
1000
0000
0010
0100
0010
0000
0100
0010
,
0100
0000
0000
0000
1000
0000
0100
0000
0010
0000
0000
0000
0001
0000
0010
0000
0100
0000
0000
0000
1000
0000
0010
0000
0100
0000
0000
0000
0001
0000
0100
0000
0010
0000
0000
0000
0001
0000
1000
0000
0001
0000
0000
0000
1000
0000
0001
0000
1000
0100
1000
0100
0010
0001
0010
0001
1000
0010
1000
0010
0100
0001
0100
0001
,
1000
0000
0100
0010
0001
0010
0100
1000
0001
0000
1000
0100
0010
0000
0001
0010
,
0100
0000
1000
0100
0010
0100
1000
0100
0010
0000
0001
0100
0010
0000
1000
0010
,
0100
0000
0001
0100
0010
1000
0100
0010
0001
0000
1000
0010
0100
0000
0001
0010
,
0100
0000
0000
0000
1000
0000
0100
0000
0010
0000
0001
0000
0100
0000
0010
0000
1000
0000
0000
0000
1000
0000
0001
0000
1000
0100
0010
0001
1000
0100
0010
0001
,
1000
0000
0100
0010
,
0001
0000
0010
0000
,
0100
0000
1000
0010
,
0100
0000
0001
0100
,
0010
0000
1000
0100
,
0010
0000
0001
0010
,
0100
0000
1000
0001
,
1000
0000
0001
1000
,
0001
0000
1000
0100
,
0010
0001
0100
0010
,
1000
0010
0100
0001
,
0010
0100
1000
0001
,
1000
0100
0010
0001
,
1000
0000
1000
0001
,
1000
0100
1000
0100
0010
0001
0010
0001
,
1000
0010
1000
0010
0100
0001
0100
0001
,
1000
0100
0010
0001
1000
0100
0010
0001
,
1000
0010
0100
0001
1000
0010
0100
0001
,
1000
0100
0010
0100
1000
0010
0100
0010
,
1000
0100
0010
0001
0100
0010
1000
0001
,
2002
0000
0000
0000
,
3003
0000
0000
0000
;

//--------------- dance-single - ----------------
#NOTES:
     dance-single:
     :
     Challenge:
     12:
     0,0,0,0,0:
0000
0000
0000
0000
,
0000
0000
0000
0000
,
1000
0100
0010
0001
1000
0100
0010
0001
1000
0010
0100
0001
1000
0010
0100
0001
,
1000
0100
0010
0001
1000
0100
0010
0001
1000
0010
0100
0001
1000
0010
0100
0001
,
1000
0100
0010
0001
1000
0010
0100
0001
,
1000
0000
0000
0000
0001
0000
0000
0000
1000
0000
0000
0000
0001
0000
0000
0000
1000
0000
0000
0000
1001
0000
0000
0000
0010
0000
0100
0000
0010
0100
0010
0100
,
1000
0100
0010
0100
1000
0010
0100
0001
,
1000
0100
0001
0000
0010
0000
0010
0000
1000
0010
0001
0000
0100
0000
0100
0000
,
1000
0100
0001
0000
0010
0000
0010
0000
1000
0000
0100
0000
0010
0000
0001
0000
,
1000
0010
0001
0000
0100
0000
0100
0000
1000
0100
0001
0000
0010
0000
0010
0000
,
1000
0100
0010
0001
1000
0010
0100
0010
,
1000
0100
0001
0000
0010
0000
0100
0000
1000
0010
0001
0000
0100
0000
0010
0000
,
1000
0100
0010
0100
1000
0010
0100
0001
,
1000
0100
0001
0000
0100
0000
0010
0000
1000
0010
0001
0000
0010
0000
0100
0000
,
1000
0100
1000
0100
1000
0000
0100
0000
0001
0100
0001
0100
0001
0000
0100
0000
,
1000
0010
1000
0010
1000
0000
0010
0000
0001
0010
0001
0010
0001
0000
0010
0000
,
1000
0100
0010
0100
1000
0000
0100
0000
0001
0100
0010
0100
0001
0000
0100
0000
,
1000
0010
0100
0010
1000
0000
0010
0000
0001
0010
0100
0010
0001
0000
0010
0000
,
1000
0000
0100
0010
0100
0000
0001
1000
0001
0000
0010
0100
0010
0000
1000
0100
,
0010
0000
0100
0001
0010
0000
0001
0010
0100
0000
0010
1000
0100
0000
1000
0100
,
0010
0000
0010
0100
0001
0000
0001
0010
0100
0000
0100
0010
1000
0000
0100
0000
,
0001
0000
0010
0100
1000
0000
0100
0010
0001
0010
0001
0010
0001
1000
0001
1000
,
0010
0100
1000
0001
1000
0010
0100
0001
,
1000
0010
0100
0001
0010
0000
0010
0000
1000
0100
0010
0001
0100
0000
0100
0000
,
1000
0000
0010
0000
0100
0000
0001
0000
1000
0100
0010
0100
1000
0010
0100
0010
,
1000
0100
1000
0100
0010
0000
0010
0000
0001
0100
0001
0100
0010
0000
0010
0000
,
1000
0000
0100
0010
0001
0000
0010
0100
1000
0000
1000
0100
0010
0000
0001
0010
,
0100
0000
1000
0010
0100
0000
0001
0100
0010
0000
0100
0010
1000
0000
0010
0100
,
0001
0000
0010
0100
1000
0000
0100
0001
1000
0100
1000
0100
0010
0001
0010
0001
,
1000
0000
0000
0000
0100
0000
0010
0000
0001
0000
0000
0000
0010
0000
0100
0000
1000
0100
0010
0001
1000
0100
0010
0001
1000
0010
0100
0001
1000
0010
0100
0001
,
2000
3200
0320
0032
2003
3020
0032
0023
,
2030
3200
0320
0230
2300
3020
0230
0320
,
2030
3020
0230
0302
2003
3200
0302
0203
,
2300
0000
3020
0000
0230
0000
0320
0000
2030
0000
3200
0000
0320
0000
0230
0300
,
1100
0001
0110
1000
0101
0000
1001
0000
,
0011
1000
0110
0001
1010
0000
1001
0000
,
1010
0100
0011
1000
0110
0000
1001
0000
,
0101
0010
1100
0001
0110
0000
1001
0000
,
1000
0000
0100
0010
0001
0000
1000
0100
0010
0000
0001
0010
0100
0000
0010
0100
1000
0000
0100
0001
0010
0000
1000
0010
0100
0000
0001
0100
0010
0000
0010
1000
,
0100
0000
0000
0000
0100
0000
0001
0000
0100
0000
0000
0000
0010
0000
1000
0000
0010
0000
0000
0000
0010
0000
0001
0000
0010
0000
0000
0000
0100
0000
1000
0000
0100
0000
0000
0000
0100
0000
0010
0000
0100
0000
0000
0000
1000
0000
0001
0000
1000
0100
1000
0100
0010
0001
0010
0001
1000
0010
1000
0010
0100
0001
0100
0001
,
1000
0000
0100
0010
0011
0000
0001
0000
1000
0000
0010
0001
0101
0000
0001
0000
,
0001
0000
0010
0100
1100
0000
1000
0000
0001
0000
0100
1000
1010
0000
1000
0000
,
1001
0000
0000
0000
0100
0000
0010
0100
0110
0000
0000
0000
0001
0000
1000
0000
1001
0000
0000
0000
0010
0000
0100
0010
0110
0000
0000
0000
0001
0000
1000
0000
,
1001
0000
0000
0000
1000
0000
0010
0001
0011
0000
0000
0000
0001
0000
1000
0000
1001
0000
0000
0000
0001
0000
0010
0000
1000
0100
0010
0001
1000
0010
0100
0001
,
1000
0100
0010
0001
0010
0100
1000
0000
,
0001
0100
0010
1000
0010
0100
0001
0000
,
0001
0010
0100
1000
0100
0010
0001
0000
,
1000
0010
0100
0001
0100
0010
1000
0000
,
1000
0100
0010
0100
1000
0100
0010
0000
,
1000
0010
0001
0010
1000
0010
0001
0000
,
0001
0010
1000
0010
0001
0010
1000
0000
,
0001
0010
0100
0010
0001
0010
0100
0000
,
1000
0100
0010
0100
1000
0010
0100
0010
,
1000
0100
0010
0100
1000
0000
0100
0000
,
0001
0100
0010
0100
0001
0010
0100
0010
,
0001
0100
0010
0100
0001
0000
1000
0000
,
1000
0100
1000
0010
0100
0001
0010
0000
,
0001
0100
0001
0010
0100
1000
0010
0000
,
1000
0100
0010
0001
1000
0010
0100
0001
,
1000
0100
0010
0001
1000
0010
0100
0001
,
1000
0100
0010
0100
1000
0010
0001
0010
,
1000
0100
0010
0001
1000
0010
0100
0010
,
1000
0100
0001
0100
1000
0010
0100
0001
,
1000
0100
0001
0100
1000
0010
0001
0010
,
2002
0000
0000
0000
,
3003
0000
0000
0000
;
