#TITLE:Sky Funk;
#SUBTITLE:;
#ARTIST:Raxxo;
#TITLETRANSLIT:;
#SUBTITLETRANSLIT:;
#ARTISTTRANSLIT:;
#GENRE:;
#CREDIT:;
#MUSIC:Sky Funk.ogg;
#BANNER:Sky Funk-bn.png;
#BACKGROUND:Sky Funk-bg.png;
#CDTITLE:;
#SAMPLESTART:0.620;
#SAMPLELENGTH:21.333;
#SELECTABLE:YES;
#OFFSET:-0.287;
#BPMS:0.000=180.000;
#STOPS:;
#BGCHANGES:;
#FGCHANGES:;

//--------------- dance-single - ----------------
#NOTES:
     dance-single:
     :
     Beginner:
     3:
     0,0,0,0,0:
0000
1000
0000
1000
,
0000
1000
0000
1000
,
0000
1000
0000
1000
,
0000
1001
0000
1001
,
0000
0110
0000
0110
,
0000
0001
0000
0001
,
0000
0010
0000
0010
,
0000
1010
0000
1010
,
0000
0002
0000
0023
,
0000
0230
0000
2300
,
0000
3200
0000
0320
,
0000
0032
0000
0003
,
0000
1000
0100
1000
,
0100
0010
0001
0010
,
0001
1000
0010
1000
,
0010
0100
0001
0100
,
0001
0001
0000
0001
,
0000
0001
0000
0001
,
0000
0001
0000
0001
,
0000
0101
0000
0101
,
0000
1100
0000
1100
,
0000
1000
0000
1000
,
0000
0001
0000
0001
,
0000
0011
0000
0011
,
0000
1000
0000
0100
,
0000
0010
0000
0100
,
0000
1000
0000
0100
,
0000
0010
0000
0100
,
0000
1000
0000
0010
,
0000
0100
0000
0010
,
0000
1000
0000
0010
,
0000
0100
0000
0010
,
0000
1000
0000
0000
,
0000
0100
0000
0000
,
0000
0010
0000
0000
,
0000
0001
0000
0000
,
0000
1000
0000
0100
,
0000
0010
0000
0001
,
0000
1000
0000
0010
,
0000
0100
0000
0001
,
0000
1000
0000
1000
,
0000
0001
0000
0001
,
0000
0100
0000
0100
,
0000
0010
0000
0000
,
0000
1000
0000
0100
,
0000
0010
0000
0001
,
0000
1000
0000
0001
,
0000
1001
0000
1001
,
0000
2000
0000
3200
,
0000
0320
0000
0032
,
0000
0023
0000
0230
,
0000
2300
0000
3001
,
0000
1000
0100
0010
,
0001
1000
0100
0010
,
0001
1000
0010
0100
,
0001
1000
0010
0100
,
0001
2002
0000
3003
;

//--------------- dance-single - ----------------
#NOTES:
     dance-single:
     :
     Easy:
     8:
     0,0,0,0,0:
0000
1000
1000
1000
,
0001
1000
1000
1000
,
1000
2000
3000
0002
,
0003
0000
0000
0000
0110
0000
0000
0110
0000
0000
0110
0000
0110
0000
0000
0000
,
0010
0000
0000
0000
1001
0000
0000
1001
0000
0000
1001
0000
1001
0000
0000
0000
,
0001
1000
0100
0010
,
0001
2000
3000
0002
,
0003
0000
0000
0000
1010
0000
0000
1010
0000
0000
1010
0000
1010
0000
0000
0000
,
1000
2000
0000
3200
,
0000
0320
0000
0032
,
0000
2003
0000
3200
,
0000
0000
0320
0000
0000
0032
0000
0000
,
0000
1003
1000
0100
,
0100
0010
0010
0001
,
0001
1000
1000
0010
,
0010
0100
0100
0001
,
0001
1000
1000
1000
,
0001
1000
1000
1000
,
1000
0002
0003
0200
,
0300
0000
0000
0000
0101
0000
0000
0101
0000
0000
0101
0000
0101
0000
0000
0000
,
0001
0000
0000
0000
1100
0000
0000
1100
0000
0000
1100
0000
1100
0000
0000
0000
,
1000
1000
0100
0010
,
0001
2000
3000
0002
,
0003
0000
0000
0000
0011
0000
0000
0011
0000
0000
0011
0000
0011
0000
0000
0000
,
0001
1000
0100
0010
,
0001
1000
0100
0010
,
0001
1000
0010
0100
,
0001
1000
0010
0100
,
0001
0000
1000
0100
0010
0001
0000
0000
,
0001
0000
0010
0000
0100
0000
0000
0100
0000
0000
0100
0000
0100
0000
0000
0100
,
0000
0100
0100
0010
0001
1000
0001
0000
,
1000
0001
1000
0000
0100
0000
0010
0000
,
0001
1000
0000
0100
,
0000
0010
0000
0001
,
0000
0100
0000
0010
,
0000
1000
0000
0001
,
0000
1000
1000
1000
,
1000
0100
0100
0100
,
0100
0010
0010
0010
,
0010
0001
0001
0001
,
0001
1000
1000
1000
,
0001
1000
1000
1000
,
0001
1000
0100
0010
,
0001
1000
0000
0001
,
0010
0100
1000
0100
,
0010
0001
0001
1000
,
1000
0002
0003
2000
,
3000
0000
0000
0000
1001
0000
0000
1001
0000
0000
1001
0000
1001
0000
0000
0000
,
0001
2000
0000
3200
,
0000
0320
0000
0032
,
0000
2003
0000
3020
,
0000
0000
0230
0000
0000
0302
0000
0000
,
0000
1003
0100
0010
,
0001
1000
0100
0010
,
0001
1000
0010
0100
,
0001
1000
0010
0100
,
0001
2002
0000
3003
;

//--------------- dance-single - ----------------
#NOTES:
     dance-single:
     :
     Medium:
     10:
     0,0,0,0,0:
0000
0000
0000
0000
0000
0000
0000
0000
0200
0000
0000
0000
0000
0000
0000
0300
0200
0000
0000
0000
0000
0000
0000
0300
0200
0000
0000
0300
0001
0000
0000
0000
,
0010
0000
0000
0000
0001
0000
0000
0000
0200
0000
0000
0000
0000
0000
0000
0300
0200
0000
0000
0000
0000
0000
0000
0300
0200
0000
0000
0000
0000
0000
0000
0300
,
0200
0000
0000
0300
0001
0000
0010
0000
0200
0000
0000
0000
0000
0000
0000
0000
0000
0000
0000
0300
1000
0000
0010
0000
0200
0000
0000
0000
0000
0000
0000
0000
,
0000
0000
0000
0000
0000
0000
0000
0300
1010
0000
0000
0000
0000
0000
0011
0000
0000
0000
0000
0000
1001
0000
0000
0000
0110
0000
0000
0000
0001
0000
0000
0000
,
0110
0000
1000
0000
0101
0000
0000
1100
0000
0000
1001
0000
0110
0000
1000
0000
,
0110
0000
0000
0000
0001
0000
0000
0000
2000
0000
0000
0000
0000
0000
0000
3000
0200
0000
0000
0000
0000
0000
0000
0300
0020
0000
0000
0000
0000
0000
0000
0030
,
0002
0000
0000
0003
1000
0000
0100
0000
2000
0000
0000
0000
0000
0000
0000
0000
0000
0000
0000
3000
0001
0000
0100
0000
0002
0000
0000
0000
0000
0000
0000
0000
,
0000
0000
0000
0000
0000
0000
0000
0003
1100
0000
0000
0000
0000
0000
0101
0000
0000
0000
0000
0000
0110
0000
0000
0000
1001
0000
0000
0000
0010
0000
0000
0000
,
1001
0100
2000
0000
0000
0000
3200
0000
,
0000
0320
0000
0032
,
0000
0023
0000
0230
,
0000
0000
0000
0000
2300
0000
0000
0000
0000
0000
3001
1000
0001
0000
1000
0001
,
1000
0001
1000
0100
0010
0001
1000
0100
,
0010
0001
1000
0100
0010
0001
1000
0100
,
0010
0001
1000
0010
0100
0001
1000
0010
,
0100
0000
0001
0000
1000
0000
0010
0000
0100
0000
0001
0010
0100
0000
1000
0000
,
0001
0000
0000
0000
0100
0000
0000
0000
0020
0000
0000
0000
0000
0000
0000
0030
0020
0000
0000
0000
0000
0000
0000
0030
0020
0000
0000
0030
1000
0000
0000
0000
,
0100
0000
0000
0000
1000
0000
0000
0000
0020
0000
0000
0000
0000
0000
0000
0030
0020
0000
0000
0000
0000
0000
0000
0030
0020
0000
0000
0000
0000
0000
0000
0030
,
0020
0000
0000
0030
0001
0000
0100
0000
0020
0000
0000
0000
0000
0000
0000
0000
0000
0000
0000
0030
1000
0000
0100
0000
0020
0000
0000
0000
0000
0000
0000
0000
,
0000
0000
0000
0000
0000
0000
0000
0030
1100
0000
0000
0000
0000
0000
0101
0000
0000
0000
0000
0000
0110
0000
0000
0000
1001
0000
0000
0000
0010
0000
0000
0000
,
1001
0000
0100
0000
0011
0000
0000
1010
0000
0000
0110
0000
1001
0000
0100
0000
,
1001
0000
0000
0000
0010
0000
0000
0000
2000
0000
0000
0000
0000
0000
0000
3000
0020
0000
0000
0000
0000
0000
0000
0030
0200
0000
0000
0000
0000
0000
0000
0300
,
0002
0000
0000
0003
1000
0000
0010
0000
2000
0000
0000
0000
0000
0000
0000
0000
0000
0000
0000
3000
0001
0000
0010
0000
0002
0000
0000
0000
0000
0000
0000
0000
,
0000
0000
0000
0000
0000
0000
0000
0003
1010
0000
0000
0000
0000
0000
0011
0000
0000
0000
0000
0000
0101
0000
0000
0000
1100
0000
0000
0000
0010
0000
0000
0000
,
1001
0000
0100
0000
1000
0000
0100
0000
0010
0000
0001
0010
0000
0001
0010
0000
,
0001
0000
0010
0000
0100
0000
0000
0100
0000
0000
0100
0000
1000
0000
0000
1000
,
0000
0000
1000
0000
0010
0000
0100
0001
0000
0100
0001
0000
0010
0000
0100
0000
,
1000
0100
0010
0001
1000
0000
0000
0100
0000
0000
0010
0000
0001
0000
0000
0010
,
0000
0000
0100
0000
1000
0000
0001
0000
0100
0000
0010
0100
0000
0010
0100
0000
,
0010
0000
0001
0000
1000
0000
1000
0100
0000
1000
0100
0000
0001
0000
0001
0100
,
0000
0001
0100
0000
1000
0000
0100
0010
0000
0100
0010
0000
0100
0000
0001
0000
,
1000
0010
0100
0001
1000
0000
0000
0010
0000
0000
0100
0000
0001
0000
0000
0100
,
0000
0000
0010
0000
1000
0000
0000
0100
0000
0000
0010
0000
0100
0000
0000
1000
,
0000
0000
0100
0000
0010
0000
0000
0100
0000
0000
1000
0000
0100
0000
0000
0010
,
0000
0000
0100
0000
1000
0000
0000
0100
0000
0000
0010
0000
0100
0000
0000
1000
,
0000
0000
0100
0000
0010
0000
0000
0100
0000
0000
1000
0000
0100
0000
0010
0000
,
0001
1000
0001
1000
0001
0000
0000
0001
0000
0000
0001
0000
0001
0000
0000
0001
,
0000
0000
0010
0000
0010
0000
0000
0010
0000
0000
0010
0000
0010
0000
0000
0010
,
0000
0000
0100
0000
0100
0000
0000
0100
0000
0000
0100
0000
0100
0000
0100
0000
,
0100
0000
1000
0000
1000
0000
0000
1000
0000
0000
1000
0000
1000
0000
1000
0000
,
1000
0001
1000
0000
1000
0000
1000
0010
,
1000
0010
1000
0000
1000
0000
1000
0100
,
1000
0100
1000
0000
1000
0000
1000
0000
,
1000
0000
1000
0000
0000
0100
0010
0100
,
0010
0000
0100
0000
1000
0000
0000
0100
0000
0000
0010
0000
0001
0000
0100
0000
,
0010
0000
0000
0000
1000
0000
0000
0000
2000
0000
0000
0000
0000
0000
0000
3000
0200
0000
0000
0000
0000
0000
0000
0300
0020
0000
0000
0000
0000
0000
0000
0030
,
0002
0000
0000
0003
1000
0000
0100
0000
2000
0000
0000
0000
0000
0000
0000
0000
0000
0000
0000
3000
0001
0000
0100
0000
0002
0000
0000
0000
0000
0000
0000
0000
,
0000
0000
0000
0000
0000
0000
0000
0003
1001
0000
0000
0000
0000
0000
0110
0000
0000
0000
0000
0000
1001
0000
0000
0000
0110
0000
0000
0000
0001
0000
0000
0000
,
0110
1000
2000
0000
0000
0000
3200
0000
,
0000
0320
0000
0032
,
0000
0203
0000
0320
,
0000
0000
0000
0000
2030
0000
0000
0000
0000
0000
3001
1000
0001
0000
1000
0001
,
1000
0001
1000
0100
0010
0001
1000
0100
,
0010
0001
1000
0010
0100
0001
1000
0010
,
0100
0001
1000
0100
0010
0001
1000
0100
,
0010
0000
0001
0000
1000
0000
0010
0000
0100
0000
0001
1000
0001
0000
0010
0000
,
0100
1000
2002
0000
0000
0000
3003
0000
;

//--------------- dance-single - ----------------
#NOTES:
     dance-single:
     :
     Hard:
     11:
     0,0,0,0,0:
0000
0000
0000
0000
0020
0000
0000
0030
0020
0000
0000
0030
0020
0030
1000
0000
,
0100
0000
0001
0000
0020
0000
0000
0030
0020
0000
0000
0030
0020
0000
0000
0030
,
0020
0030
1000
0100
0020
0000
0000
0000
0000
0030
0001
0010
0200
0000
0000
0000
,
0000
0000
0000
0300
1010
0000
0011
0001
0000
0001
0101
0000
1001
0000
0010
0000
,
0101
0000
1000
0000
0011
0000
1010
1000
0000
1000
1100
0000
1001
0000
0100
0000
,
0010
0001
0200
0000
0302
0000
0023
0000
,
2030
0000
3001
0100
0020
0000
0000
0000
0000
0030
1000
0010
0200
0000
0000
0000
,
0000
0000
0000
0300
0101
0000
1100
1000
0000
1000
1010
0000
1001
0000
0010
0000
,
0101
1000
0002
0000
0000
0000
0023
0000
,
0000
0230
0000
2300
,
0000
3020
0000
0230
,
0000
0000
0000
0000
0302
0000
0000
0000
0000
0000
1003
0100
0010
0000
0001
0100
,
0010
0000
1000
0000
0001
0000
1000
0100
1000
0000
0100
0001
0100
0000
0001
0010
,
0001
0000
0010
1000
0010
0000
0100
1000
0100
0000
0010
1000
0010
0000
0010
0001
,
0010
0000
0100
0001
0100
0000
0010
0100
0010
0000
1000
0001
1000
0000
0010
0100
,
0010
0000
0001
1000
0001
0000
1000
0100
0010
0000
0001
0010
0100
0000
1000
0000
,
0010
0000
0001
0000
0200
0000
0000
0300
0200
0000
0000
0300
0200
0300
0001
0000
,
0010
0000
1000
0000
0200
0000
0000
0300
0200
0000
0000
0300
0200
0000
0000
0300
,
0200
0300
0001
0010
0200
0000
0000
0000
0000
0300
1000
0010
0200
0000
0000
0000
,
0000
0000
0000
0300
1100
0000
0101
0001
0000
0001
0011
0000
1001
0000
0010
0000
,
0101
0000
0010
0000
1100
0000
0110
0100
0000
0001
1001
0000
1010
0000
0001
0000
,
0010
0100
2000
0000
3020
0000
0032
0000
,
0203
0000
1300
0100
0002
0000
0000
0000
0000
0003
0001
0010
2000
0000
0000
0000
,
0000
0000
0000
3000
1001
0000
0110
0010
0000
0010
0011
0000
1010
0000
0001
0000
,
1100
0000
0010
0000
1000
0000
0100
0000
0010
0000
0001
0010
0000
0001
0010
0000
,
0001
0000
0100
0000
0010
0000
0000
0010
0000
0000
0010
0000
1000
0000
0000
1000
,
0000
0000
1000
0000
0001
0000
0100
0010
0000
0100
0010
0000
1000
0000
0100
0000
,
0010
0001
0010
0100
1000
0000
0000
0010
0000
0000
0100
0000
0100
0000
0000
0001
,
0000
0000
0010
0000
1100
0000
0010
0000
0110
0000
0001
0011
0000
0011
0010
0000
,
0110
0000
0001
0000
1010
0000
0010
0001
0000
0010
0001
0000
0101
0000
0100
1000
,
0000
0100
1000
0000
0110
0000
1000
1010
0000
1010
0010
0000
0110
0000
0011
0000
,
1000
0100
0010
0001
1000
0000
0000
0010
0000
0000
0100
0000
0100
0000
0000
0001
,
0000
0000
0010
0000
1000
0000
0000
0100
0000
0000
0010
0000
0001
0000
0000
0010
,
0000
0000
0100
0000
1000
0000
0000
0010
0000
0000
0100
0000
0001
0000
0000
0100
,
0000
0000
0010
0000
1000
0000
0000
0100
0000
0000
0010
0000
0001
0000
0000
0100
,
0000
0000
0010
0000
1000
0000
0000
0010
0000
0000
0100
0000
0001
0010
0100
0010
,
0100
0010
0100
0010
1010
0000
0000
0110
0000
0000
0110
0000
0110
0000
0000
0101
,
0000
0000
1100
0000
0011
0000
0000
1001
0000
0000
1001
0000
1001
0000
0000
1100
,
0000
0000
0101
0000
1010
0000
0000
0110
0000
0000
0110
0000
0110
0000
0110
0000
,
0011
0000
0101
0000
1100
0000
0000
1001
0000
0000
1001
0000
1001
0000
1001
0000
,
0101
0110
1000
0000
1000
0000
1000
0100
,
0010
0001
1000
0000
1000
0000
1000
0100
,
0010
0001
1000
0000
1000
0000
1000
0000
,
1000
0000
1000
0000
0000
0100
0010
0001
,
0100
0000
0010
0000
1010
0000
0000
0110
0000
0000
0011
0000
1000
0000
0100
0000
,
0010
0001
2000
0000
3200
0000
0302
0000
,
0023
0000
1030
0100
0002
0000
0000
0000
0000
0003
0001
0010
2000
0000
0000
0000
,
0000
0000
0000
3000
1010
0000
0011
0010
0000
0010
0110
0000
1001
0000
0010
0000
,
0101
1000
0002
0000
0000
0000
0203
0000
,
0000
0320
0000
2030
,
0000
3200
0000
0320
,
0000
0000
0000
0000
0032
0000
0000
0000
0000
0000
1003
0010
0001
0000
0001
0010
,
1000
0000
0001
0000
1000
0000
1000
0100
0010
0000
0001
0010
0100
0000
1000
0010
,
0100
0000
0001
0100
0010
0000
1000
0010
0100
0000
0001
0010
0100
0000
1000
0100
,
0010
0000
0001
0100
0010
0000
1000
0100
0001
0000
1000
0010
0001
0000
0001
0010
,
1000
0000
0001
0100
1000
0000
0010
0100
0010
0000
1000
0001
1000
0000
0100
0000
,
0010
0001
2002
0000
0000
0000
3003
0000
;

//--------------- dance-single - ----------------
#NOTES:
     dance-single:
     :
     Challenge:
     12:
     0,0,0,0,0:
0000
0000
0000
0000
1000
0000
0100
0010
0100
0000
1000
0000
0001
0000
0010
0100
,
0010
0000
0001
0000
1000
0000
0010
0100
0010
0000
1000
0000
0001
0000
0100
0010
,
0100
0000
0001
0000
1000
0000
0100
0010
0001
0000
1000
0000
0001
0000
0010
0100
,
1000
0000
0001
0000
1010
0000
0010
0011
0000
0010
0110
0000
1000
0100
0010
0000
,
0001
0100
0010
0000
1100
0000
0100
0101
0000
0100
0110
0000
1000
0010
0100
0000
,
0001
0010
0100
0000
1000
0000
0100
0001
0100
0000
1000
0000
0001
0000
0100
1000
,
0100
0000
0001
0000
1000
0000
0010
0001
0010
0000
1000
0000
0001
0000
0010
1000
,
0010
0000
0001
0000
1100
0000
0100
0101
0000
0010
0110
0000
1000
0100
0001
0010
,
1000
0010
0001
0100
2000
0000
0100
0010
3100
0000
0010
0000
0002
0000
0010
0100
,
0013
0000
0100
0000
2000
0000
0010
0100
3010
0000
0100
0000
0002
0000
0100
0010
,
0103
0000
0010
0000
2000
0000
0100
0010
3001
0000
0100
0000
0002
0000
0010
0100
,
1003
0000
0010
0000
2000
0000
0100
0001
3010
0000
0100
1000
0001
0000
0010
0100
,
0001
0000
0010
0100
1000
0000
0010
0001
0100
0000
0100
1000
0010
0000
0010
0100
,
0001
0000
0100
0010
1000
0000
0100
0010
0001
0000
0010
0100
1000
0000
0001
0010
,
0100
0000
1000
0100
0010
0000
0010
0001
0100
0000
0100
1000
0010
0000
0010
0100
,
0001
0000
0100
0010
1000
0000
0100
0010
0001
0000
1000
0100
0010
0000
0001
0010
,
0100
0000
0010
0100
1000
0000
0100
0010
0100
0000
0010
0000
1000
0000
0010
0100
,
0010
0000
0100
0000
1000
0000
0100
0001
0100
0000
0001
0000
1000
0000
0001
0100
,
0001
0000
0100
0000
1000
0000
0010
0001
0010
0000
0001
0000
1000
0000
0001
0010
,
0001
0000
0010
0000
1100
0000
0010
1010
0000
0010
0011
0000
0110
0000
0001
0010
,
1000
0000
1000
0100
0101
0000
0010
0011
0000
0010
1010
0000
0110
0000
1000
0100
,
0001
0000
0001
0010
1000
0000
0100
0010
0001
0000
0010
0000
1000
0000
0010
0100
,
0001
0000
0100
0000
1000
0000
0001
0010
0100
0000
0010
0000
1000
0000
0001
0100
,
0010
0000
0100
0000
1010
0000
0100
1100
0000
0100
0101
0000
0110
0000
1000
0010
,
0001
0000
0001
0100
1000
0000
0010
0000
1001
0000
0010
0100
0000
0010
0100
0000
,
1001
0000
0100
0000
0010
0000
0000
0001
0000
0000
0010
0000
1000
0000
0000
0100
,
0000
0000
0010
0000
0001
0000
0010
0100
0000
0010
0100
0000
1000
0000
0010
0000
,
0001
0010
0100
1000
0010
0000
0000
0100
0000
0000
0001
0000
0010
0000
0000
0100
,
0000
0000
1000
0000
1001
0000
0010
0000
0110
0000
0011
0010
0000
0100
1100
0000
,
0110
0000
1001
0000
1010
0000
1000
0010
0000
0010
0001
0000
0011
0000
0001
0010
,
0000
0010
0100
0000
0110
0000
0001
0010
0000
0001
0010
0000
1100
0000
0110
0000
,
1000
0100
0010
0001
0110
0000
0000
1100
0000
0000
0110
0000
0110
0000
0000
0101
,
0000
0000
0110
0000
1001
0000
0000
0100
0000
0000
0010
0000
0001
0100
0001
0100
,
0001
0000
1000
0000
0001
0000
0000
0010
0000
0000
0100
0000
1000
0010
1000
0010
,
1000
0000
0001
0000
1000
0000
0000
0010
0000
0000
0100
0000
0001
0010
0001
0010
,
0001
0000
1000
0000
0001
0000
0000
0100
0000
0000
0010
0000
1000
0100
1000
0100
,
1000
0010
0100
0001
1001
0000
0000
0110
0000
0000
0011
0000
0010
0001
0100
0010
,
0001
0000
0010
0000
1001
0000
0000
0110
0000
0000
1010
0000
0010
1000
0010
0100
,
1000
0000
0100
0000
1001
0000
0000
0110
0000
0000
0101
0000
0100
0001
0100
0010
,
0001
0000
0010
0000
1001
0000
0000
0110
0000
0000
1100
0000
0100
1000
0010
0100
,
1000
0000
0100
0000
0010
0000
1000
0100
0010
0000
0001
0000
0010
0000
1000
0100
,
0010
0000
0001
0000
0010
0000
1000
0100
0010
0000
0100
0000
0010
0000
0001
1000
,
0100
0000
0010
0000
0001
0000
0100
0001
0010
0000
0100
0000
1000
0000
0010
0100
,
0010
0000
0001
0000
0110
0000
0010
0110
0000
0010
0110
0000
1000
0000
0100
1000
,
0010
0000
0001
0000
1100
0000
0000
0110
0000
0000
0011
0000
0001
0000
0010
0100
,
1000
0000
0010
0000
0101
0000
0010
0001
0100
0000
0010
0000
1100
0000
0010
0100
,
1000
0000
0100
0001
0010
0000
0100
0010
0100
0000
0010
1000
0100
0000
0010
0100
,
0010
0000
0001
0000
1010
0000
0010
0011
0000
0001
0101
0000
1100
0000
0110
0000
,
1001
0000
0110
0000
0002
0000
0010
0100
0013
0000
0100
0000
2000
0000
0100
0010
,
3100
0000
0010
0000
0002
0000
0100
0010
0103
0000
0010
0000
2000
0000
0010
0100
,
3010
0000
0100
0000
0002
0000
0010
0100
1003
0000
0100
0000
2000
0000
0100
0010
,
3001
0000
0010
0000
0002
0000
0100
0010
1003
0000
0010
0100
0001
0000
0010
0100
,
1000
0000
0001
0000
1100
0000
0100
0010
0100
0000
0010
0001
0010
0000
0001
0100
,
0001
0000
0100
0010
0110
0000
0010
1000
0010
0000
1000
0100
1000
0000
0100
0010
,
0100
0000
0010
0001
0011
0000
0001
0010
0001
0000
0010
0100
0010
0000
0100
1000
,
0100
0000
1000
0010
1010
0000
0010
0100
0010
0000
0100
0001
0100
0000
0010
0000
,
0100
1000
2002
0000
0000
0000
3003
0000
;
