#VERSION:0.83;
#TITLE:SHUB NIGGURATH;
#SUBTITLE:;
#ARTIST:NATO;
#TITLETRANSLIT:;
#SUBTITLETRANSLIT:;
#ARTISTTRANSLIT:;
#GENRE:;
#CREDIT:;
#MUSIC:Shub Niggurath.ogg;
#BANNER:Shub Niggurath-bn.png;
#BACKGROUND:Shub Niggurath-bg.png;
#CDTITLE:;
#SAMPLESTART:30.217;
#SAMPLELENGTH:17.455;
#SELECTABLE:YES;
#OFFSET:-0.217;
#BPMS:0.000=880.000
,24.000=220.000
,72.000=110.000
,74.000=440.000
,82.000=220.000
,110.000=1760.000
,142.000=220.000
,158.000=7040.000
,160.000=220.000
,164.000=14080.000
,168.000=220.000
,172.000=56320.000
,180.000=220.000
,187.750=440.000
,188.000=220.000
,216.000=440.000
,239.000=72.500
,239.500=220.000
,265.875=440.000
,265.938=220.000
,266.000=3520.000
,330.000=55.000
,338.000=110.000
,364.000=220.000
,387.000=110.000
,388.000=220.000
,412.000=440.000
,428.000=220.000
,432.000=440.000
,440.000=880.000
,448.000=1760.000
,456.000=3520.000
,492.000=110.000
,498.000=880.000
,498.250=440.000
,498.500=220.000
,499.250=880.000
,499.500=440.000
,499.750=220.000
,500.500=880.000
,500.750=440.000
,501.000=220.000
,502.000=440.000
,504.000=220.000
,551.000=75.000
,551.500=220.000
,590.000=5.000
,599.250=220.000
;
#STOPS:;
#WARPS:53.000=16.000,
224.000=15.000,
354.000=10.000,
378.000=9.000,
472.000=20.000,
540.000=11.000,
590.250=9.000
;
#SPEEDS:52.000=0.100=0.250=1,
69.000=2.000=0.250=1,
69.250=4.000=0.250=1,
69.500=2.000=0.250=1,
69.750=1.000=0.250=1
;
#DISPLAYBPM:*;
#BGCHANGES:-0.500=Shub Niggurath.avi=1.000=0=0=0=StretchNoLoop====,
99999.000=-nosongbg-=1.000=0=0=0=StretchNoLoop====
;
#FGCHANGES:;

//--------------- dance-single - ----------------
#NOTEDATA:;
#STEPSTYPE:dance-single;
#DESCRIPTION:;
#DIFFICULTY:Beginner;
#METER:9;
#RADARVALUES:0,0,0,0,0;
#OFFSET:-0.217;
#BPMS:0.000=220.000
,390.000=5.000
,399.250=220.000
;
#WARPS:390.250=9.000;
#NOTES:
0000
0000
0000
0000
,
0000
0000
1100
1000
,
0100
0010
0001
1001
,
0000
0000
0011
0001
,
0010
0100
1000
1001
,
0000
0000
1010
1000
,
1010
0010
0101
0001
,
0101
0100
1001
0001
,
0110
0100
1001
0110
,
0000
0000
0000
0000
,
0000
0000
0000
0000
1000
0100
0010
0001
,
1000
0100
0010
0001
1000
0000
0100
0000
,
0010
0100
1000
0010
,
0100
0001
0010
0100
,
0010
0100
1000
0010
,
0100
0001
1000
0100
,
1000
0010
0100
0001
,
0010
0001
0100
0010
,
1000
0000
0100
0000
1000
0100
0010
0001
,
1000
0100
0010
0001
1000
0000
0010
0000
,
0100
0010
1000
0100
,
0010
0001
0100
0010
,
0100
0010
1000
0100
,
0010
0001
1000
0100
,
0010
0001
1000
0010
,
0100
0000
0000
0001
0000
0000
1000
0000
0100
0000
0010
0000
,
0001
0000
0010
0000
0100
0000
1000
0000
0000
0000
0000
0000
,
1001
0000
1000
0100
,
0010
0100
1000
0000
,
1000
0000
0001
0010
,
0100
0010
0001
0000
,
0001
0000
1000
0010
,
0100
0010
1000
0000
,
1000
0000
0001
0100
,
0010
0000
0100
0000
0001
0010
0100
1000
,
0001
0010
0100
1000
0000
0000
0000
0001
,
0000
1000
1000
0000
,
1000
0000
0001
0100
,
0010
0100
0001
0000
,
0001
0000
1000
0010
,
0100
0010
1000
0000
,
1000
0000
1000
0100
,
0010
0001
1001
0000
,
0000
0000
2000
0000
,
0002
0003
0000
0000
,
0020
0030
0000
0000
,
0200
0300
0000
0000
,
0020
0030
3002
0000
,
2000
3000
0000
0000
,
0200
0300
0000
0000
,
0020
0030
0000
0000
,
0200
0300
2003
0000
,
0000
0000
0000
0000
,
0000
0000
0200
0000
,
0000
0000
0000
0000
,
0000
3000
0020
0000
,
0000
0000
0000
0000
,
0000
0300
0002
0000
,
0000
0000
0000
0000
,
0000
0000
0030
0000
1003
0100
1000
0000
,
0100
1000
0100
0000
1000
0100
1000
0000
,
0100
1000
0100
0000
1000
0100
1000
0000
,
0100
1000
0100
0000
1000
0100
1000
0000
,
0001
0000
0000
0000
1000
0010
1000
0000
,
0010
1000
0010
0000
1000
0010
1000
0000
,
0010
1000
0010
0000
1000
0000
0100
0000
,
0010
0001
0100
0010
,
1000
0000
0001
0000
0100
0001
0100
0000
,
0001
0100
0001
0000
0100
0001
0100
0000
,
0001
0100
0001
0000
0010
0001
0010
0000
,
0001
0010
0001
0000
0010
0001
0010
0000
,
0001
0010
0001
0000
1000
0000
0100
0000
,
0010
0001
0100
0010
,
1000
0000
0001
0000
1000
0100
0010
0001
,
1000
0100
0010
0001
0010
0100
1000
0000
0000
0000
0000
0000
,
0000
0000
0000
0000
,
0000
0000
0000
0000
,
0000
0000
1000
0100
,
0010
0000
0001
0000
1000
0100
0001
0100
,
1000
0010
0001
0010
1000
0100
1000
0010
,
0100
0001
0010
0100
1000
0100
0010
0001
,
0100
0010
1000
0100
1000
0010
1000
0100
,
0010
0001
0100
0010
1000
0010
0100
0001
,
0010
0100
1000
0010
1000
0100
0010
0001
,
0100
0010
1000
0100
1000
0010
0100
0001
,
0010
0100
1000
0010
1000
0100
0010
0001
,
1000
0100
0010
0001
1000
0010
0100
0001
,
1000
0010
0100
0001
1000
0000
0000
0001
,
1000
0010
0100
0001
1000
0100
0010
0001
,
0100
0010
1000
0001
1000
0100
0010
0100
,
1000
0010
0100
0001
0010
0100
0010
0100
,
1000
0010
0100
0001
1000
0010
0100
0010
,
1000
0100
0010
0001
0100
0010
0100
0010
,
1000
0100
0010
0001
1000
0100
1000
0100
,
0010
0001
0010
0001
1000
0010
1000
0010
,
0100
0001
0100
0001
1000
0100
0010
0001
,
1000
0010
0100
0001
1000
0100
0010
0001
,
1000
0000
0000
0010
0000
0000
0100
0000
0000
0001
0000
2000
0002
0000
0000
0000
0000
0000
3003
0000
0000
0000
0000
0000
;

//--------------- dance-single - ----------------
#NOTEDATA:;
#STEPSTYPE:dance-single;
#DESCRIPTION:;
#DIFFICULTY:Easy;
#METER:13;
#RADARVALUES:0,0,0,0,0;
#OFFSET:-0.217;
#BPMS:0.000=220.000
,38.000=110.000
,40.000=220.000
,172.000=27.500
,176.000=55.000
,184.000=220.000
,240.000=440.000
,248.000=220.000
,340.000=5.000
,349.250=220.000
;
#WARPS:340.250=9.000;
#NOTES:
0000
0000
0000
0000
,
0000
0000
0000
0000
1001
0100
0010
0000
,
1001
0000
0110
0100
0001
0010
1010
0000
,
0000
0000
0000
0110
0110
0001
1000
0000
,
0110
0000
0001
0100
0010
1000
0002
0000
,
0010
0000
0000
0000
0000
0000
0000
0000
0100
0000
0000
0000
0000
0000
0000
0003
1100
0000
0000
0000
0000
0000
0000
0000
1100
0000
0000
0000
0000
0000
0000
0000
,
0101
0101
0011
0011
,
1010
1010
0110
0110
,
1001
1001
0110
1001
,
0000
0000
0000
0000
,
1000
0100
0010
0001
1000
0100
0010
0001
1000
0100
0010
0001
1000
0100
0010
0001
,
1000
0100
1000
0010
0100
0001
0010
0000
,
0001
0010
0001
0100
0010
1000
0100
0000
,
1000
0010
1000
0100
0010
0001
0100
0000
,
0001
0100
0001
0010
0100
1000
0010
0000
,
1000
0100
1000
0100
1000
0010
1000
0000
,
0001
0010
0001
0010
0001
0100
0001
0000
,
1000
0010
0100
0001
0010
0100
1000
0001
,
1000
0100
0010
0001
0010
0100
1000
0100
0010
0001
0010
0100
,
1000
0000
0100
0010
0100
0010
0100
0010
,
0001
0000
0010
0100
0010
0100
0010
0100
,
1000
0000
0010
0100
0010
0100
0010
0100
,
0001
0000
0100
0010
0100
0010
0100
0010
,
1000
0000
1000
0010
0100
0001
0010
0000
,
0001
0000
0001
0100
0010
1000
0100
0000
,
1000
0100
1000
0010
0100
0001
0010
0001
,
1001
0000
0000
1001
0000
0000
1001
0000
1001
0000
0000
0000
0000
0000
0000
0000
,
1000
0100
1000
0000
0001
0100
0001
0000
,
1000
0010
0100
0001
,
1000
0010
1000
0000
0001
0010
0001
0000
,
1000
0100
0010
0001
,
1000
0100
0010
0000
0001
0100
0010
0000
,
1000
0010
0100
0001
,
1000
0010
0100
0000
0001
0010
0100
0000
,
1000
0100
0010
0001
1000
0100
0010
0001
,
1000
0000
0000
0000
0001
0100
0001
0000
,
1000
0010
0100
0001
,
1000
0100
0010
0000
0001
0010
0100
0000
,
1000
0010
0100
0001
,
1000
0010
0100
0000
0001
0100
0010
0000
,
1000
0100
0010
0001
,
1000
1000
0100
0100
0010
0010
0001
0001
,
1001
0000
0000
0000
,
2000
0000
0002
0003
0000
0000
0020
0030
0000
0000
0200
0300
0000
0000
0020
0030
3002
0000
2000
3000
0000
0000
0200
0300
0000
0000
0020
0030
0000
0000
0200
0300
,
2003
3000
0200
0300
0020
0030
0002
0003
,
0200
0300
0020
0030
2000
3000
0002
0003
,
1000
0100
1000
0100
1000
0100
1000
0100
,
1000
0100
1000
0100
1000
0100
1000
0100
,
0010
0001
0010
0001
0010
0001
0010
0001
,
0010
0000
0001
0000
0010
0000
0001
0000
0110
0000
0000
0000
0100
0010
0100
0010
,
1000
0010
1000
0010
1000
0010
1000
0010
,
0100
0001
0100
0001
0100
0001
0100
0001
,
0110
1001
0011
1010
,
1100
0000
0000
0000
0101
0000
0000
0000
0110
0000
0000
0000
1000
0001
1000
0001
,
1000
0100
1000
0010
0100
0001
0010
0001
,
0100
0000
0010
0000
1000
0000
0100
0000
1000
0000
0010
0000
0100
0010
0100
0010
,
1000
0010
1000
0100
0010
0001
0100
0001
,
0010
0100
1000
0010
1000
0100
0010
0001
,
1000
0100
0010
0001
1000
0100
0010
0001
,
1000
0100
0010
0001
1000
0100
0010
0001
1000
0100
0010
0001
,
1000
0100
0010
0001
1000
0100
0010
0001
,
1000
0100
0010
0001
1000
0100
0010
0001
,
1001
0000
0000
0000
,
0000
0000
0000
0000
,
0000
0000
0000
0000
,
1010
0011
0101
1100
,
1000
0100
1000
0100
0010
0001
0010
0001
1000
0010
1000
0010
0100
0001
0100
0001
,
1000
0100
1000
0010
0100
0001
0010
0001
,
1000
0010
1000
0100
0010
0001
0100
0001
,
1000
0100
0010
0100
1000
0010
0100
0001
,
0010
0100
0010
0100
1000
0010
0100
0001
,
1000
0010
1000
0100
0010
0001
0100
0001
,
1000
0100
1000
0010
0100
0001
0010
0001
,
1000
0010
0100
0010
1000
0100
0010
0001
,
0100
0010
0100
0010
0100
0010
0100
0010
1000
0100
0010
0001
0100
0010
1000
0100
,
1000
0010
0000
0000
0000
0000
0001
0000
1000
0000
0010
0000
0100
0000
0001
0000
,
1000
0100
0010
0100
1000
0010
0100
0010
,
1000
0100
0010
0001
1000
0010
0100
0001
,
1000
0100
0010
0100
1000
0010
0100
0010
,
1000
0100
0010
0001
0100
0010
1000
0001
,
1000
0010
0100
0001
0010
0100
1000
0001
,
1000
0000
0000
0100
0000
0000
1000
0000
0000
0100
0000
0000
0010
0000
0000
0000
0001
0000
0000
0000
0010
0000
0000
0000
0001
0000
0000
0010
0000
0000
0001
0000
0000
0010
0000
0000
0100
0000
0000
0000
1000
0000
0000
0000
0100
0000
0000
0000
,
1000
0000
0000
0010
0000
0000
1000
0000
0000
0010
0000
0000
0100
0000
0000
0000
0001
0000
0000
0000
0100
0000
0000
0000
0001
0000
0000
0100
0000
0000
0001
0000
0000
0100
0000
0000
0010
0000
0000
0000
1000
0000
0000
0000
0010
0000
0000
0000
,
1000
0000
0000
0001
0000
0000
1000
0000
0000
0001
0000
0000
0100
0000
0000
0000
0001
0000
0000
0000
0100
0000
0000
0000
0010
0000
0000
0100
0000
0000
0010
0000
0000
0100
0000
0000
1000
0000
0000
0001
0000
0000
1000
0000
0000
0001
0000
0000
,
1000
0000
0000
0000
0100
0000
0000
0000
0010
0000
0000
0000
0001
0000
0000
0000
0010
0000
0000
0000
0100
0000
0000
0000
1000
0000
0000
0010
0000
0000
0100
0000
0000
0001
0000
0000
0010
0000
0000
0100
0000
0000
1000
0000
0100
0000
0020
0000
,
0002
0033
0000
0000
;

//--------------- dance-single - ----------------
#NOTEDATA:;
#STEPSTYPE:dance-single;
#DESCRIPTION:;
#DIFFICULTY:Medium;
#METER:15;
#RADARVALUES:0,0,0,0,0;
#OFFSET:-0.217;
#BPMS:0.000=110.000
,3.000=440.000
,61.000=220.000
,68.000=440.000
,132.000=220.000
,136.000=440.000
,264.000=880.000
,270.000=440.000
,331.000=220.000
,395.000=440.000
,423.000=110.000
,424.000=440.000
,496.000=220.000
,500.000=110.000
,502.000=220.000
,514.000=440.000
,521.750=220.000
,598.000=5.000
,607.250=220.000
;
#WARPS:598.250=9.000;
#NOTES:
0000
0000
0000
1000
,
0100
0010
0000
1001
,
0000
0110
0001
0010
,
0100
1001
0000
0000
,
0000
0000
0110
0110
,
1000
0001
0000
0110
,
0000
1001
0010
0100
,
0001
0000
0000
1000
0000
0100
0000
0010
0000
0001
0000
0010
,
0000
0100
0000
0001
0000
0010
0000
0100
0000
1000
0000
0000
,
0010
0100
0000
0110
,
0000
0011
0010
0100
,
1000
1001
0000
0110
,
0000
0110
0000
1010
,
1010
0011
0011
0101
,
0101
1100
1100
1001
,
1001
0110
0000
0000
,
0000
0000
0000
0000
,
1000
0100
0010
0001
1000
0100
0010
0001
,
1000
0100
0010
0001
1000
0100
0010
0001
,
1000
0100
0010
0100
,
1000
0100
0010
0100
,
1000
0100
0010
0100
,
1000
0100
0010
0100
,
1000
0100
0010
0100
,
1000
0100
0010
0100
,
1000
0100
0010
0100
,
1000
0100
0010
0100
,
1000
0010
0100
0010
,
1000
0010
0100
0010
,
1000
0010
0100
0010
,
1000
0010
0100
0010
,
1000
0010
0100
0010
,
1000
0010
0100
0010
,
1000
0010
0100
0001
1000
0010
0100
0001
1000
0010
0100
0001
1000
0010
0100
0001
,
0010
0100
0010
0001
,
0010
0100
0010
0001
,
0010
0001
0100
0001
,
0010
0001
0100
0001
,
0010
0001
0100
0001
,
1000
0001
0100
0001
,
0010
0001
0010
0100
,
1000
0100
0010
0001
,
1001
0100
0010
0001
,
1000
0010
0100
0001
,
1001
0010
0100
0001
,
1000
0100
0010
0001
,
1000
0100
0010
0100
1000
0100
0010
0001
,
1000
0010
0100
0010
1000
0010
0100
0001
,
0110
0000
0000
0110
0000
0000
0110
0000
,
2002
0000
3003
0000
,
1000
0100
0010
0100
,
1000
0100
0010
0001
,
1000
0100
0001
0100
,
1000
0100
0001
0100
,
1000
0010
0100
0010
,
1000
0010
0100
0001
,
1000
0010
0001
0010
,
1000
0010
0001
0010
,
1000
0100
0010
0001
,
1000
0100
0010
0100
,
1000
0010
0001
0010
,
1000
0100
0001
0100
,
1000
0010
0100
0001
,
1000
0010
0100
0010
,
1000
0100
0010
0100
1000
0100
0010
0001
,
0010
0100
0010
0001
0010
0100
1000
0001
,
1000
0000
0000
0000
,
0000
0000
0001
0010
,
0100
1000
0100
0010
,
0001
1000
0100
0010
,
0001
0100
0010
1000
,
0100
1000
0100
0010
,
0001
0010
0001
1000
,
0010
1000
0010
0100
,
0001
0100
0001
1000
,
0100
0010
0100
1000
,
0100
0001
0100
1000
,
0010
0100
0010
1000
,
0010
0001
0010
1000
,
1000
0010
0010
0001
,
0001
0100
0100
1001
,
0000
0000
0000
0000
,
0000
0000
0000
2000
,
0000
0002
0003
0000
,
0000
0020
0030
0000
,
0000
0200
0300
0000
,
0000
0020
0030
3002
,
0000
2000
3000
0000
,
0000
0200
0300
0000
,
0000
0020
0030
0000
,
0000
0200
0300
2003
,
3000
0200
0300
0020
,
0030
0002
0003
2000
,
3000
0020
0030
0200
,
0300
0002
0003
2000
,
3000
0200
0300
0002
,
0003
0200
0300
2000
,
3000
0020
0030
0002
,
0003
0000
0020
0000
0030
0000
1000
0100
,
1000
0100
0010
0001
0010
0001
1000
0010
,
1000
0010
0100
0001
0100
0001
1000
0100
,
0010
0100
1000
0100
0010
0001
0010
0100
,
0010
0001
0010
0100
1000
0001
0100
0010
,
0100
0010
1000
0001
1000
0001
0010
0100
,
0010
0100
1000
0001
1000
0001
1000
0100
,
0010
0100
1000
0100
0010
0001
0010
0100
,
1000
0010
1000
0010
0100
0001
0100
0001
,
1000
0100
1000
0100
0010
0001
0010
0001
,
1000
0010
0100
0010
1000
0010
0100
0001
,
0100
0010
0100
0001
0100
0010
1000
0001
,
1000
0000
0100
0000
,
0010
0000
0001
0000
,
0100
0000
0010
0000
,
1000
0000
0001
0001
,
1000
0100
1000
0100
1000
0100
1000
0100
,
1000
0100
1000
0100
1000
0100
1000
0100
,
1000
0100
1000
0100
1000
0100
1000
0100
,
1000
0100
1000
0100
1000
0000
0000
0000
,
0001
0100
0001
0100
0001
0100
0001
0100
,
0001
0100
0001
0100
0001
0100
0001
0100
,
0001
0100
0001
0100
0001
0100
0001
0100
,
0001
0100
0001
0100
0001
0000
0000
0000
,
1000
0100
0010
0001
,
1000
0100
0010
0001
,
1000
0100
0010
0001
1000
0100
0010
0001
1000
0100
0010
0001
1000
0100
0010
0001
,
1000
0100
0010
0001
1000
0100
0010
0001
1000
0100
0010
0001
1000
0100
0010
0001
1001
0000
0000
0000
0000
0000
0000
0000
0000
0000
0000
0000
0000
0000
0000
0000
,
0000
0000
0000
0000
,
0000
0000
0000
0000
,
0000
0000
1001
0000
,
1001
0000
1001
0000
,
1001
0000
0000
0000
0000
0000
0000
0000
1000
0100
1000
0100
0010
0001
0010
0001
,
1000
0010
1000
0010
0100
0001
0100
0001
1000
0100
0010
0100
1000
0100
0010
0001
,
0010
0100
0010
0001
0010
0100
1000
0001
1000
0010
0100
0010
1000
0010
0100
0001
,
0100
0010
0100
0001
0100
0010
1000
0001
1000
0100
1000
0100
1000
0010
1000
0010
,
0100
0010
0100
0010
0100
0001
0100
0001
0010
0001
0010
0001
0010
0100
0010
0100
,
1000
0001
1000
0001
0100
0010
0100
0010
1000
0100
0010
0100
1000
0100
0010
0001
,
0100
0010
0100
0001
0100
0010
1000
0001
1000
0010
0100
0010
1000
0010
0100
0001
,
0010
0100
0010
0001
0010
0100
1000
0001
1000
0100
0010
0001
1000
0100
0010
0001
,
1000
0010
0100
0001
1000
0010
0100
0001
1000
0100
1000
0010
0100
0001
0010
0100
,
1000
0100
0010
0001
0100
0010
1000
0100
1000
0000
0000
0000
0000
0000
0010
0100
,
0001
0010
0100
1000
0001
0100
0010
1000
0001
0100
0001
0010
0100
1000
0010
0100
,
0001
0100
0010
1000
0100
0010
0001
0100
0001
0010
0001
0010
0100
1000
0100
1000
,
0001
0100
0001
0100
0010
1000
0010
1000
0001
1000
0001
1000
0010
0100
0010
0100
,
0001
1000
0001
1000
0100
0010
0100
0010
0001
0010
0001
0100
0010
1000
0100
0010
,
0001
1000
0010
0100
0001
0010
0100
1000
0001
0100
0010
1000
0100
0010
0001
0100
,
0001
0010
0100
1000
0001
0100
0010
1000
0001
0010
0100
0010
1000
0010
0100
0010
,
0001
0100
0010
0100
1000
0100
0010
0100
0001
0010
0100
0010
1000
0100
0010
0100
,
0001
0100
0010
0100
1000
0010
0100
0010
0001
0010
0100
1000
0100
0010
0001
0100
,
0010
1000
0010
0100
0001
0010
0100
1000
0001
0010
1000
0010
0001
0100
1000
0100
,
0001
0000
0000
0010
0000
0000
1000
0000
0000
0010
0000
0000
0001
0000
0000
0100
0000
0000
1000
0000
0100
0000
0020
0000
0002
0000
0000
0000
0000
0000
0000
0000
0000
0000
0000
0000
0033
0000
0000
0000
0000
0000
0000
0000
0000
0000
0000
0000
;

//--------------- dance-single - ----------------
#NOTEDATA:;
#STEPSTYPE:dance-single;
#DESCRIPTION:;
#DIFFICULTY:Hard;
#METER:17;
#RADARVALUES:0,0,0,0,0;
#OFFSET:-0.217;
#BPMS:0.000=55.000
,0.500=110.000
,1.000=220.000
,40.000=880.000
,56.000=220.000
,84.000=55.000
,85.000=220.000
,181.000=13.750
,183.000=27.500
,184.000=55.000
,186.000=110.000
,192.000=220.000
,252.000=440.000
,256.000=880.000
,260.000=1760.000
,268.000=110.000
,276.000=220.000
,352.000=5.000
,361.250=220.000
;
#WARPS:352.250=9.000;
#NOTES:
0000
0000
0000
0000
,
1001
0000
0100
0010
0100
0000
0010
0000
0011
0000
0000
0000
0110
0000
0001
0010
,
1000
0100
0010
0001
0110
0000
0000
0000
0000
0000
0000
0000
0000
0000
1001
0000
,
1001
0000
0010
0100
0010
0000
0100
0000
1100
0000
0000
0000
0110
0000
0001
0100
,
1000
0000
0000
0010
0000
0000
0100
0000
0000
0001
0000
0000
1000
0000
0000
0000
0100
0000
0000
0000
0001
0000
0000
0000
1000
0000
0000
0000
0010
0000
0000
0000
0001
0000
0000
0000
0100
0000
0000
0000
0010
0000
0000
0000
0001
0000
0000
0000
,
1001
0000
0100
0010
0001
0000
0010
0000
1001
0000
0000
0000
0110
0000
0001
0010
,
0100
1000
0100
0010
0011
0000
0000
0000
1010
0000
0000
0000
0101
0000
0000
0000
,
1100
1100
0101
0101
0011
0011
1010
1010
,
1001
0100
0010
0001
0110
0000
0000
0000
0000
0000
0000
0000
0000
0000
0000
0000
,
0000
0000
0000
0000
,
1000
0100
0010
0001
,
1000
0100
0010
0001
,
1000
0100
0010
0001
,
1000
0100
0010
0001
,
1001
0100
0010
0001
1000
0010
0001
0010
,
1000
0100
0010
0001
1000
0100
0001
0100
,
1000
0010
0100
0001
1000
0010
0001
0010
,
1000
0010
0100
0001
1000
0100
0001
0100
,
1000
0010
0001
0010
0100
0010
0001
0010
,
1000
0100
0001
0100
0010
0100
0001
0100
,
1000
0010
1000
0000
0011
0000
0100
0000
1000
0000
0100
0010
0001
0000
0100
0000
,
1000
0100
0010
0001
1000
0100
0010
0001
1000
0100
0010
0001
1000
0100
0010
0001
1001
0000
0000
0000
0000
0000
0000
0000
0010
0000
0000
0000
0000
0000
0000
0000
0101
0000
0000
0000
0000
0000
0000
0000
0010
0000
0000
0000
0000
0000
0000
0000
1000
0000
0000
0000
0000
0000
0000
0000
0100
0000
0000
0000
0000
0000
0000
0000
,
0110
0001
0010
0100
1000
0010
0100
0001
,
1001
0010
1000
0100
0001
0100
1000
0010
,
1100
0000
0001
0000
0010
0000
0100
0000
1000
0000
0010
0000
0001
0000
0010
0100
,
1000
0000
0001
0000
0110
0000
0001
0000
0010
0000
0100
0000
1000
0000
0010
0100
,
0010
0000
0001
0000
0110
0001
0010
0100
1000
0000
0010
0100
0010
0000
0100
0001
,
0010
0000
1000
0000
0110
0010
1000
0100
0010
0001
0100
0010
1000
0100
0010
0001
,
1000
0010
0100
0001
1100
0000
0000
0101
0000
0000
0011
0000
1010
0000
0000
0000
,
0000
0000
0000
0000
1001
0000
1000
0100
0001
0000
0100
0000
1000
0010
0001
0000
,
0010
0100
1000
0100
0010
0100
1000
0100
,
0010
0000
0001
0000
1000
0000
0001
0100
1000
0000
0100
0000
0001
0010
1000
0000
,
0010
0001
1000
0010
0100
0010
1000
0010
,
0100
0000
0001
0000
0010
0000
1000
0010
0001
0000
0100
0000
0001
0010
1000
0000
,
0100
0001
1000
0100
0001
0010
1000
0100
,
0010
0000
0001
0000
1000
0000
0100
0001
0010
0000
0100
0000
0001
0010
1000
0000
,
0100
0000
0001
0000
1000
0010
0100
0010
1000
0100
0010
0001
1000
0010
0100
0001
,
1000
0100
0010
0100
0020
0000
0000
0000
0000
0000
0031
0100
1000
0000
0010
0000
,
0001
0100
1000
0010
0100
0001
1000
0100
,
0010
0000
0001
0000
1000
0100
0010
0100
0010
0000
0001
0000
0100
0010
0100
0000
,
0010
0100
1000
0010
0100
0010
1000
0100
,
0010
0000
0001
0000
1001
0000
1000
0100
0001
0000
0100
0000
0001
0010
1000
0000
,
0010
0001
0110
0001
0010
1000
0100
0010
,
0001
0010
1100
1100
0101
0101
0011
0011
,
1010
1010
1001
0000
0000
0000
0000
0000
,
0000
0000
0000
0000
0000
0000
0000
0000
0000
0000
0000
0000
0000
0000
0000
0000
0000
0000
0000
0000
0000
0000
0000
0000
0000
0000
0000
0000
0000
0000
0000
0000
0000
0000
0000
0000
0000
0000
0000
0000
0000
0000
0000
0000
0000
0000
0000
0000
2000
0000
0000
0000
0000
0000
0002
0000
0000
0003
0000
0000
0000
0000
0000
0000
0000
0000
0020
0000
0000
0030
0000
0000
0000
0000
0000
0000
0000
0000
0200
0000
0000
0300
0000
0000
0000
0000
0000
0000
0000
0000
0020
0000
0000
0030
0000
0000
3002
0000
0000
0000
0000
0000
2000
0000
0000
3000
0000
0000
0000
0000
0000
0000
0000
0000
0200
0000
0000
0300
0000
0000
0000
0000
0000
0000
0000
0000
0020
0000
0000
0030
0000
0000
0000
0000
0000
0000
0000
0000
0200
0000
0000
0300
0000
0003
2200
0000
0000
0000
0000
0000
3300
0000
0000
0000
0000
0000
2200
0000
0000
0000
0000
0000
3300
0000
0000
0000
0000
0000
0202
0000
0000
0000
0000
0000
0303
0000
0000
0000
0000
0000
0202
0000
0000
0000
0000
0000
0303
0000
0000
0000
0000
0000
,
0022
0033
0022
0033
2020
3030
2020
3030
0220
0000
0330
0000
0220
0000
0330
0000
,
2002
0000
3003
0000
2002
0000
3003
0000
1100
1100
0101
0101
0011
0011
1010
1010
,
1001
0000
0000
0000
0100
0010
0100
0010
0100
0000
0100
0000
0110
0000
0000
0000
,
1000
0100
1000
0100
1000
0100
1000
0100
1000
0100
1000
0100
1000
0100
0010
0100
,
1000
0100
1000
0010
0100
0001
0010
0001
0100
0010
1000
0100
1000
0010
0100
0001
,
0100
0001
0100
0001
0100
0001
0100
0001
0100
0001
0100
0001
0100
0001
0010
0001
,
0100
0010
1000
0100
1000
0010
0100
0001
1000
0000
0000
0000
0100
0010
0100
0010
,
1000
0010
1000
0010
1000
0010
1000
0010
1000
0010
1000
0010
1000
0010
0100
0010
,
1000
0010
1000
0100
0010
0001
0100
0001
0010
0100
1000
0010
1000
0100
0010
0001
,
1000
0000
0010
0100
0010
0000
0000
0000
0110
0000
0000
0000
1001
0000
1000
0100
,
0010
0001
0010
0100
1000
0000
0000
0000
0000
0000
0000
0000
0100
0010
0100
0010
,
1000
0100
1000
0100
1000
0100
1000
0100
1000
0100
1000
0100
1000
0100
1000
0010
,
0100
0001
0010
0001
0100
0010
1000
0100
1000
0010
0100
0001
0100
0001
0100
0001
,
1000
0010
1000
0010
1000
0010
1000
0010
1000
0010
1000
0010
1000
0010
1000
0100
,
0010
0001
0100
0001
0010
0100
1000
0010
1000
0100
0010
0001
0010
0001
0010
0001
,
1010
1010
0011
0011
0101
0101
1100
1100
,
1000
0100
0010
0001
1000
0100
0010
0001
1000
0100
0010
0001
1000
0100
0010
0001
,
1000
0100
0010
0001
1000
0100
0010
0001
1000
0100
0010
0001
,
1000
0000
0100
0000
0010
0000
0001
0000
1000
0000
0100
0000
,
0010
0000
0000
0000
0001
0000
0000
0000
1000
0000
0000
0000
,
0100
0000
0000
0000
0010
0000
0000
0000
0001
0000
0000
0000
,
1001
0000
0000
0000
,
0000
0000
0000
0000
0000
0000
0000
0000
2200
3300
0202
0303
0022
0033
2020
3030
,
1000
0100
0001
0100
0010
0100
1000
0100
0001
0010
1000
0010
0100
0010
0001
0010
,
1000
0100
0010
0100
1000
0010
0100
0001
1000
0010
0100
0010
1000
0100
0010
0001
,
1000
0100
0010
0100
1000
0100
0010
0001
1000
0010
0100
0010
1000
0010
0100
0001
,
1000
0100
0010
0100
0001
0100
0010
0100
1000
0100
0001
0100
0010
0100
0001
0100
,
1000
0010
0100
0010
0001
0010
0100
0010
1000
0010
0001
0010
0100
0010
0001
0010
,
1000
0100
0001
0100
1000
0100
0010
0100
1000
0100
0010
0001
1000
0010
0100
0001
,
1000
0010
0001
0010
1000
0010
0100
0010
1000
0010
0100
0001
1000
0100
0010
0001
,
1000
0100
0010
0100
0001
0010
0100
0010
1000
0010
0100
0010
0001
0100
0010
0100
,
1000
0000
0100
0000
1000
0000
0100
0000
0000
0010
0000
0000
0001
0000
0100
0000
0001
0000
0100
0000
0000
0010
0000
0000
1000
0000
0010
0000
1000
0000
0010
0000
0000
0100
0000
0000
0001
0000
0010
0000
0001
0000
0010
0000
0000
0100
0000
0000
,
1000
0010
0100
0001
0010
0001
0100
0010
1000
0100
0010
0001
0100
0001
0010
0100
,
1000
0100
0010
0001
0010
0001
0010
0100
1000
0010
0100
0001
0100
0001
0100
0010
,
1000
0100
1000
0010
0100
0001
0010
0100
1000
0100
0010
0001
0100
0010
1000
0100
,
1000
0010
1000
0100
0010
0001
0100
0010
1000
0010
0100
0001
0010
0100
1000
0010
,
1000
0010
0100
0010
1000
0100
0010
0100
1000
0010
0100
0001
1000
0100
0010
0001
,
1000
0100
0001
0100
1000
0100
0001
0100
1000
0010
0001
0010
1000
0010
0001
0010
,
1000
0000
0100
0000
0010
0000
0001
0000
0000
0100
0000
0000
1000
0000
0000
0010
0000
0000
0100
0000
0000
0001
0000
0000
1000
0000
0010
0000
0100
0000
0001
0000
0000
0010
0000
0000
1000
0000
0000
0100
0000
0000
0010
0000
0000
0001
0000
0000
,
1000
0000
0100
0000
0010
0000
0100
0000
0000
0001
0000
0000
1000
0000
0000
0010
0000
0000
0100
0000
0000
0001
0000
0000
1000
0000
0010
0000
0100
0000
0010
0000
0000
0001
0000
0000
1000
0000
0000
0100
0000
0000
0010
0000
0000
0001
0000
0000
,
1000
0000
0000
0010
0000
0000
0100
0000
0000
0001
0000
0000
0010
0000
0000
0001
0000
0000
0100
0000
0000
0010
0000
0000
1000
0000
0000
0100
0000
0000
0010
0000
0000
0001
0000
0000
0100
0000
0010
0000
0100
0000
0010
0000
0100
0000
0010
0000
,
1000
0000
0000
0100
0000
0000
0001
0000
0000
0010
0000
0000
1000
0000
0000
0010
0000
0000
0001
0000
0000
0100
0000
0000
1000
0000
0100
0000
0010
0000
0100
0000
1000
0000
0100
0000
0010
0000
0001
0000
0010
0000
0100
0000
1000
0000
0020
0000
,
0200
0330
0000
0000
;

//--------------- dance-single - ----------------
#NOTEDATA:;
#STEPSTYPE:dance-single;
#DESCRIPTION:;
#DIFFICULTY:Challenge;
#METER:20;
#RADARVALUES:0,0,0,0,0;
#NOTES:
0000
0000
0000
0000
,
0000
0000
0000
0000
,
0000
0000
0000
0000
,
0000
0000
0000
0000
,
0000
0000
0000
0000
,
0000
0000
0000
0000
,
1001
0000
0100
0001
1000
0000
0010
0000
0110
0000
0000
0000
0011
0000
1000
0100
,
0001
0010
0100
1000
0110
0000
0000
0000
0000
0000
0000
0000
0000
0000
0110
0000
,
1001
0000
0010
1000
0001
0000
0100
0000
0110
0000
0000
0000
1100
0000
0001
0010
,
1000
0000
0000
0100
0000
0000
0010
0000
0000
0001
0000
0000
1001
0000
0000
0000
0100
0000
0000
0000
0010
0000
0000
0000
1000
0000
0000
0000
0100
0000
0000
0000
0001
0000
0000
0000
0100
0000
0000
0000
0010
0000
0000
0000
0001
0000
0000
0000
,
1001
0000
0000
0000
0000
0000
0001
0000
0000
0010
0000
0000
1000
0000
0000
0000
0000
0000
0010
0000
0000
0000
0000
0000
0110
0000
0000
0000
0000
0000
0000
0000
0000
0000
0000
0000
0101
0000
0000
0000
0000
0000
0010
0000
0001
0000
0010
0000
,
1000
0100
0001
0010
1010
0000
0000
0000
0011
0000
0000
0000
0110
0000
0000
0000
,
1010
0011
0101
1100
0110
1001
0110
1001
,
0100
0001
0010
0100
1000
0010
1001
0000
0000
0000
0000
0000
0000
0000
0000
0000
0000
0000
0000
0000
0000
0000
0000
0000
,
0000
0000
0000
0000
,
0000
0000
0000
0000
,
0000
0000
0000
0000
,
0000
1001
0000
0000
,
0000
0000
0000
0000
0000
0000
0000
0000
0000
0000
0000
0000
1000
0000
0100
0000
0010
0000
0001
0000
0000
1000
0000
0000
,
0100
0000
0010
0000
0001
0000
1000
0000
0000
0100
0000
0000
0010
0000
0001
0000
1000
0000
0100
0000
0000
0010
0000
0000
,
0001
0000
0000
0000
0000
0000
0000
0000
0000
0000
0000
0000
0000
0000
0000
0000
1000
0000
0000
0000
0000
0000
0000
0000
0000
0000
0000
0000
0000
0000
0000
0000
0100
0000
0000
0000
0000
0000
0000
0000
0000
0000
0000
0000
0000
0000
0000
0000
0010
0000
0000
0000
0000
0000
0000
0000
0000
0000
0000
0000
0000
0000
0000
0000
0000
0000
0000
0000
0000
0000
0000
0000
0001
0000
0000
0000
0000
0000
0000
0000
0000
0000
0000
0000
0000
0000
0000
0000
0000
0000
0000
0000
0000
0000
0000
0000
2002
0000
0000
3003
0000
0000
0000
0000
0000
0000
0000
0000
0000
0000
0000
0000
0000
0000
0000
0000
0000
0000
0000
0000
0100
0000
0000
0000
0000
0000
0000
0000
0000
0000
0000
0000
0000
0000
0000
0000
0000
0000
0000
0000
0000
0000
0000
0000
0011
0000
0000
0000
0000
0000
0000
0000
0000
0000
0000
0000
0000
0000
0000
0000
0000
0000
0000
0000
0000
0000
0000
0000
0100
0000
0000
0000
0000
0000
0000
0000
0000
0000
0000
0000
0000
0000
0000
0000
0000
0000
0000
0000
0000
0000
0000
0000
,
0100
0000
0101
0000
1100
0000
0010
0000
0001
0010
1000
0000
0110
0000
0011
0000
,
1000
0000
0101
0000
1001
0000
0010
0000
0001
0010
1000
0000
0110
0000
1100
0000
,
0001
0000
1010
0000
1001
0000
0100
0000
1000
0100
0001
0000
0110
0000
0001
0000
,
0110
0000
0000
0000
0000
0000
0000
0000
1100
0000
0000
0000
0100
0000
0000
0000
0000
0000
0000
0000
0100
0000
0000
0000
0101
0000
0000
0000
0000
0000
0000
0000
2002
3003
0000
0000
0000
0000
0000
0000
0010
0000
0000
0000
0000
0000
0000
0000
0110
0000
0000
0000
0000
0000
0000
0000
1010
0000
0000
0000
0000
0000
0000
0000
,
0001
0000
1100
0000
1001
0000
0010
0000
1000
0010
0001
0000
0110
0000
0101
0000
,
1000
0000
0011
0000
1001
0000
0100
0000
1000
0100
0001
0000
0110
0000
0001
0000
,
1010
0000
0000
0000
0000
0000
0010
0000
0000
0001
0000
0000
1000
0000
0000
0010
0000
0000
0100
0000
0000
0001
0000
0000
1000
0000
0000
0000
0000
0000
0000
0000
0000
0000
0000
0000
0000
0000
0000
0000
0100
0000
0000
0000
0000
0000
0000
0000
,
0000
0000
0010
0000
0000
0000
0001
0000
0000
0000
0010
0000
,
0000
0000
0100
0000
0000
0000
1000
0000
0000
0000
0100
0000
,
0000
0000
0010
0000
0000
0000
0001
0000
0000
0000
0010
0000
,
0000
0000
0100
0000
0000
0000
1000
0000
0000
0000
0100
0000
,
0000
0000
0010
0000
0000
0000
0001
0000
0000
0000
0010
0000
,
0000
0000
0100
0000
0000
0000
1000
0000
0000
0000
0100
0000
,
0000
0000
0010
0000
0000
0000
0001
0000
0000
0000
0010
0000
,
0000
0000
0000
0000
0000
0000
0000
0000
0000
0000
0000
0000
0000
0000
0000
0000
0000
0000
0000
0000
0000
0000
0000
0000
0000
0000
0000
0000
0000
0000
0000
0000
0100
0000
0000
0000
0000
0000
0000
0000
0000
0000
0000
0000
0000
0000
0000
0000
0000
0000
0000
0000
0000
0000
0000
0000
0000
0000
0000
0000
0000
0000
0000
0000
0000
0000
0000
0000
0000
0000
0000
0000
0000
0000
0000
0000
0000
0000
0000
0000
0000
0000
0000
0000
0000
0000
0000
0000
0000
0000
0000
0000
0000
0000
0000
0000
2002
0000
0000
3003
0000
0000
0000
0000
0000
0000
0000
0000
0000
0000
0000
0000
0000
0000
0000
0000
0000
0000
0000
0000
0010
0000
0000
0000
0000
0000
0000
0000
0000
0000
0000
0000
0000
0000
0000
0000
0000
0000
0000
0000
0000
0000
0000
0000
0101
0000
0000
0000
0000
0000
0000
0000
0000
0000
0000
0000
0000
0000
0000
0000
0000
0000
0000
0000
0000
0000
0000
0000
1100
0000
0000
0000
0000
0000
0000
0000
0000
0000
0000
0000
0000
0000
0000
0000
0000
0000
0000
0000
0000
0000
0000
0000
,
0010
0000
1100
0000
0101
0000
0010
0000
0001
0010
1000
0000
1010
0000
0011
0000
,
0100
0000
0011
0000
1010
0000
0001
0100
1000
0000
0001
0000
0110
0000
0011
0000
,
0100
0000
1010
0000
0110
0000
0001
0000
1000
0100
0010
0000
1100
0000
0110
0000
,
0001
0000
1100
0100
0011
0000
0110
0000
2002
0000
0000
0000
0000
0000
0000
0000
,
3003
0000
0010
0000
0101
0000
1100
0000
0010
0000
1000
0100
0001
0000
0010
0000
,
2002
0000
0000
0000
,
3003
0100
0001
0000
0110
0001
0010
0100
1000
0000
0100
0001
0010
0000
0100
0000
,
2002
0000
0000
0000
,
0000
0000
0000
0000
,
3003
0100
0010
0001
1000
0100
0010
0001
1000
0010
0100
0001
1000
0010
0100
0001
,
0110
0000
1001
0000
1001
0000
0220
0000
0000
0330
0000
0000
,
1001
0000
0100
0001
0010
0000
0100
0000
0010
1000
0100
0000
0011
0000
0100
0000
,
1000
0010
0101
0010
0100
1001
0110
0011
,
1010
0000
0010
0001
0100
0000
0010
0000
1000
0100
0010
0000
0001
0000
0100
0000
,
1010
0000
0100
0000
0011
0000
1000
0000
0001
0000
0110
0010
0110
0000
1001
0000
,
1010
0000
0100
0010
0001
0000
0100
0000
1000
0010
0100
0000
0011
0000
0100
0000
,
1010
0100
0011
0101
0010
1100
1010
0001
,
0110
0000
1000
0100
0001
0000
1000
0000
0001
0010
1000
0000
0100
0000
0001
0000
,
1000
0100
0010
0001
1000
0100
0010
0001
,
1000
0100
0010
0001
1000
0100
0010
0001
,
0020
1000
0100
0001
1030
0000
0100
0000
0010
0000
0000
0000
0001
0000
0000
0000
0110
0000
0000
0000
0001
0000
0000
0000
1000
0000
0000
0000
0100
0000
0000
0000
,
0011
0101
1000
1010
1100
0000
0000
0000
,
0000
0000
0000
0000
,
0000
0000
0000
0000
0000
0000
0000
0000
0000
0000
0000
0000
0000
0000
0000
0000
0000
0000
0000
0000
0000
0000
0000
0000
0000
0000
0000
0000
0000
0000
0000
0000
0000
0000
0000
0000
0000
0000
0000
0000
0000
0000
0000
0000
0000
0000
0000
0000
0000
0000
0000
0000
0000
0000
0000
0000
0000
0000
0000
0000
0000
0000
0000
0000
0000
0000
0000
0000
0000
0000
0000
0000
0000
0000
0000
0000
0000
0000
0000
0000
0000
0000
0000
0000
0000
0000
0000
0000
0000
0000
0000
0000
0000
0000
0000
0000
0000
0000
0000
0000
0000
0000
0000
0000
0000
0000
0000
0000
0000
0000
0000
0000
0000
0000
0000
0000
0000
0000
0000
0000
0000
0000
0000
0000
0000
0000
0000
0000
0000
0000
0000
0000
0000
0000
0000
0000
0000
0000
0000
0000
0000
0000
0000
0000
0020
0030
0000
0000
0000
0000
1000
0000
0000
0000
0000
0000
0100
0000
0000
0000
0000
0000
0001
0000
0000
0000
0000
0000
1000
0000
0000
0000
0000
0000
0000
0000
0000
0000
0000
0000
0100
0000
0000
0000
0000
0000
0000
0000
0000
0000
0000
0000
,
0010
0001
0110
0001
1000
0100
0011
0101
,
1000
0000
1010
0000
1100
0000
0001
0000
1000
0100
0001
0100
1000
0000
0010
0000
,
0001
0010
1000
0000
0110
0000
0110
0000
1000
0000
0010
0000
0011
0000
1001
0000
,
0000
0010
0100
0010
1001
0000
0110
0000
1000
0010
0001
0010
1000
0000
0100
0000
,
0001
0010
1000
0000
0100
0000
0001
0000
1100
0000
0001
0000
0110
0000
0011
0000
,
0100
1001
1010
0001
1100
0110
0101
0011
,
0110
1010
1001
0110
1001
0000
0000
0000
,
0000
0000
0000
0000
,
0000
0000
0000
0000
,
0000
0000
0000
0000
,
0000
0000
0000
0000
,
0000
0000
0000
0000
,
0000
0000
0000
0000
,
0000
0000
0000
0000
,
0000
0000
0000
0000
,
0000
0000
0000
0000
,
0000
0000
0000
0000
,
0000
0000
0000
0000
,
0000
0000
0000
0000
,
0000
0000
0000
0000
,
0000
0000
0000
0000
,
0000
0000
0000
0000
,
0000
0000
0000
0000
0000
0000
0000
0000
2000
0000
0002
0003
0000
0000
0020
0030
,
0000
0000
0200
0300
0000
0000
0020
0030
3002
0000
2000
3000
0000
0000
0200
0300
,
0000
0000
0020
0030
0000
0000
0200
0300
1003
0000
1000
0000
1000
0000
1000
0000
,
0001
0001
0001
0001
0100
0100
0100
0100
,
0010
0000
0000
0000
0010
0000
0000
0000
0010
0000
0000
0000
0010
0000
0000
0000
1000
0100
0001
0100
1000
0100
0010
0001
1000
0010
0001
0010
1000
0010
0100
0001
,
1000
0100
0010
1000
0010
0001
0010
0100
1000
0100
0001
0100
0010
0001
0100
0010
1100
0000
1010
0000
0011
0000
0101
0000
1100
0000
1010
0000
0011
0000
0101
0000
,
1001
0000
0000
0000
0000
0100
0010
0100
0010
0100
0010
0100
0010
0000
0000
0010
0000
0000
0110
0000
0000
0000
0000
0000
1000
0000
0000
0000
0000
0000
0100
0000
0000
0000
0000
0000
1000
0000
0000
0000
0000
0000
0100
0000
0000
0000
0000
0000
,
1000
0100
0000
0000
0000
0000
0000
0000
,
0000
0000
0000
0000
,
1000
0100
1000
0100
1000
0100
1000
0100
1000
0100
1000
0100
1000
0010
0100
0001
,
1000
0100
0010
1000
0100
0001
1000
0010
0001
0100
0010
0001
1000
0100
0010
0001
,
1000
0010
1000
0010
1000
0010
1000
0010
1000
0010
1000
0010
1000
0100
0010
0001
,
1000
0000
0000
0100
0000
0000
0001
0000
0000
0010
0000
0000
1000
0000
0000
0010
0000
0000
0001
0000
0000
0100
0000
0000
1000
0000
0000
0000
0000
0000
0001
0000
0010
0000
0100
0000
1000
0000
0000
0000
0000
0000
0000
0000
0000
0000
0000
0000
,
0000
0000
0000
0000
,
0000
0000
0000
0000
0000
0000
0000
0000
0000
0000
0000
0000
0000
0000
0000
0000
0000
0000
0000
0000
0000
0000
0000
0000
0000
0000
0000
0000
0000
0000
0000
0000
0000
0000
0000
0000
2000
0000
0000
0000
0000
0000
3001
0010
0100
0010
1000
0100
,
1000
0010
1000
0010
1000
0010
1000
0010
1000
0010
1000
0010
1000
0100
0010
0001
,
1000
0000
0100
0000
0010
0000
1000
0000
0100
0000
0001
0000
1000
0000
0010
0000
0001
0000
0100
0000
0010
0000
0001
0000
1000
0001
1000
0001
1000
0000
0000
0000
,
0011
0000
0100
0001
1000
0000
0110
0000
1001
0000
0100
0000
0011
0000
1000
0100
,
0001
0010
0100
1000
0110
0000
0000
0000
0011
0000
0000
0000
1000
0001
1000
0001
,
1000
0100
1000
0100
1000
0100
1000
0100
1000
0100
1000
0100
1000
0010
1000
0010
,
1000
0000
0000
0010
0000
0000
1000
0000
0000
0010
0000
0000
1000
0000
0000
0010
0000
0000
1000
0000
0000
0010
0000
0000
1000
0000
0000
0010
0000
0000
1000
0000
0000
0010
0000
0000
1000
0000
0100
0000
0010
0000
0001
0000
0010
0000
0100
0000
,
0010
0001
0010
0001
0010
0001
0010
0001
,
0010
0001
0010
0001
0100
0001
0100
0001
,
0100
0001
0100
0001
0100
0001
0100
0001
,
0100
0000
0001
0000
0100
0000
0001
0000
0100
0010
0100
0010
0100
0000
0010
0000
,
1100
1100
0101
0101
0011
0011
1010
1010
,
1000
0100
0010
0001
1000
0100
0010
0001
,
1000
0100
0010
0001
1000
0100
0010
0001
,
1000
0000
0100
0000
0010
0000
0001
0000
1000
0000
0100
0000
,
0010
0000
0001
0000
1000
0000
0100
0000
0010
0000
0001
0000
,
1000
0100
0010
0001
,
1000
0100
0010
0001
,
1000
0000
0000
0000
0100
0000
0000
0000
0010
0000
0000
0000
,
0001
0000
0000
0000
1000
0000
0000
0000
0100
0000
0000
0000
,
0010
0000
0000
0000
0001
0000
0000
0000
1000
0000
0000
0000
,
0100
0000
0000
0000
0010
0000
0000
0000
0001
0000
0000
0000
,
1001
0000
0000
0000
,
0000
0000
0000
0000
,
0000
0000
0000
0000
,
0000
0000
0000
0000
,
0000
0000
0000
0000
,
1001
0000
0000
0000
,
0000
0000
0000
0000
0000
0000
0000
0000
2002
0000
3003
0000
0000
2002
0000
3003
,
0000
2002
3003
0000
2002
3003
0000
0000
,
1000
0100
0010
0100
0001
0100
0010
0100
1000
0010
0100
0010
0001
0010
0100
0010
,
1000
0100
0010
0100
1000
0001
0100
1000
0100
0001
1000
0100
0010
0001
0100
0010
,
1000
0010
0100
0010
1000
0001
0010
1000
0010
0001
1000
0010
0100
0001
0010
0100
,
1000
0001
0100
0001
1000
0100
0010
0100
1000
0010
0100
0001
0010
1000
0010
0001
,
1000
0001
0010
0001
1000
0010
0100
0010
1000
0100
0010
0001
0100
1000
0100
0001
,
1000
0010
0100
0010
0001
0010
0100
0010
0001
0100
0010
0100
1000
0100
0010
0100
,
0001
0010
0100
0010
1000
0010
0100
0010
1000
0100
0010
0100
0001
0100
0010
0100
,
1000
0000
0000
0000
0000
0000
0000
0000
0000
0000
0000
0000
0010
0000
0000
0000
0000
0000
0000
0000
0000
0000
0000
0000
0001
0000
0000
0000
0000
0000
0000
0000
0000
0000
0000
0000
0010
0000
0000
0000
0000
0000
0000
0000
0000
0000
0000
0000
1000
0000
0000
0000
0000
0000
0000
0000
0000
0000
0100
0000
0000
0000
0000
0000
0000
0000
0000
0010
0000
0000
0000
0000
0000
0000
0000
0000
0000
0001
0000
0000
0000
0000
0000
0000
0000
0000
0010
0000
0000
0000
0000
0000
0000
0000
0000
0000
0001
0000
0000
0000
0000
0000
0000
0000
0000
0000
0000
0000
0100
0000
0000
0000
0000
0000
0000
0000
0000
0000
0000
0000
1000
0000
0000
0000
0000
0000
0000
0000
0000
0000
0000
0000
0100
0000
0000
0000
0000
0000
0000
0000
0000
0000
0000
0000
0001
0000
0000
0000
0000
0000
0000
0000
0000
0000
0010
0000
0000
0000
0000
0000
0000
0000
0000
0100
0000
0000
0000
0000
0000
0000
0000
0000
0000
1000
0000
0000
0000
0000
0000
0000
0000
0000
0100
0000
0000
0000
0000
0000
0000
0000
0000
0000
,
1000
0100
0010
0100
1000
0100
0010
0001
0010
0100
0010
0001
1000
0010
0100
0001
0010
0100
1000
0100
0010
0001
0100
0010
,
2000
0100
0010
0001
3000
0000
0000
0000
0000
0000
0000
0000
0000
0000
0000
0000
0000
0000
0000
0000
0000
0000
0000
0000
0000
0000
0000
0000
0000
0000
0000
0000
,
0000
0000
0000
0000
,
0000
0000
0000
0000
0000
0000
0000
0000
0000
0000
0000
0000
0000
0000
0000
0000
0000
0000
0000
0000
0000
0000
0000
0000
0000
0000
0000
0000
0000
0000
0000
0000
0000
0000
0000
0000
0000
0000
0000
0000
0000
0000
0000
0000
0000
0000
0000
0000
0000
0000
0000
0000
0000
0000
0000
0000
0000
0000
0000
0000
0000
0000
0000
0000
0000
0000
0000
0000
0000
0000
0000
0000
0000
0000
0000
0000
0000
0000
0000
0000
0000
0000
0000
0000
0000
0000
0000
0000
0000
0000
0000
0000
0000
0000
0000
0000
0000
0000
0000
0000
0000
0000
0000
0000
0000
0000
0000
0000
0000
0000
0000
0000
0000
0000
0000
0000
0000
0000
0000
0000
0000
0000
0000
0000
0000
0000
0000
0000
0000
0000
0000
0000
0000
0000
0000
0000
0000
0000
0000
0000
0000
0000
0000
0000
2000
3000
0000
0000
0000
0000
0100
0000
0000
0000
0000
0000
0010
0000
0000
0000
0000
0000
0001
0000
0000
0000
0000
0000
1000
0000
0000
0000
0000
0000
0000
0000
0000
0000
0000
0000
0100
0000
0000
0000
0000
0000
0000
0000
0000
0000
0000
0000
,
0010
0001
0100
0010
1000
0100
0010
0001
1000
0010
0100
0010
1000
0100
0010
0100
,
1000
0010
0100
0001
0010
0001
0100
0010
1000
0100
0010
1000
0100
0001
1000
0010
,
0001
0100
0010
0001
1000
0010
0100
0001
1000
0100
1000
0010
0100
0001
0010
0100
,
1000
0100
0010
0001
0100
0010
1000
0100
1000
0010
0100
0001
1000
0100
0010
0001
,
1000
0000
0100
0000
0010
0000
0001
0000
0010
0000
0100
0000
1000
0000
0100
0000
0010
0000
0001
0000
0010
0000
0100
0000
1000
0000
0000
0010
0000
0000
0001
0000
0000
0010
0000
0000
1000
0000
0000
0010
0000
0000
0100
0000
0000
0010
0000
0000
,
1000
0000
0100
0000
0001
0000
0100
0000
1000
0000
0100
0000
0010
0000
0100
0000
1000
0100
1000
0100
1000
0000
0010
0000
0001
0000
0010
0000
1000
0000
0100
0000
,
0001
0000
0000
0010
0000
0000
0001
0000
0000
0010
0000
0000
0001
0000
0000
0000
0000
0000
0100
0000
0000
0000
0000
0000
1000
0000
0000
0000
0000
0000
0100
0000
0000
0000
0000
0000
0001
0000
0000
0000
0000
0000
0010
0000
0000
0000
0000
0000
1000
0000
0000
0010
0000
0000
1000
0000
0000
0010
0000
0000
1000
0000
0000
0000
0000
0000
0100
0000
0000
0000
0000
0000
0010
0000
0000
0000
0000
0000
0001
0000
0000
0000
0000
0000
1000
0000
0000
0000
0100
0000
0000
0000
0010
0000
0000
0000
,
0001
0000
0000
0100
0000
0000
0001
0000
0000
0100
0000
0000
0001
0000
0000
0000
0000
0000
0010
0000
0000
0000
0000
0000
0100
0000
0000
0000
0000
0000
1000
0000
0000
0000
0000
0000
0001
0000
0000
0000
0010
0000
0000
0000
0100
0000
0000
0000
1000
0000
0000
0100
0000
0000
0010
0000
0000
0100
0000
0000
1000
0000
0000
0000
0000
0000
0100
0000
0000
0000
0000
0000
0010
0000
0000
0000
0000
0000
0001
0000
0000
0000
0000
0000
0100
0000
0000
0000
0000
0000
0010
0000
0000
0000
0000
0000
,
1000
0000
0100
0000
0010
0000
0001
0000
0100
0010
0100
0010
0100
0010
0100
0010
1000
0000
0100
0000
0001
0000
0100
0000
1000
0000
0010
0000
0001
0000
0010
0000
,
1000
0100
0010
0001
0010
0100
1000
0010
0001
0010
0100
2000
0200
0000
0000
0000
0000
0000
3300
0000
0000
0000
0000
0000
;
