#TITLE:SCREAM SQUAD;
#SUBTITLE:;
#ARTIST:CALF;
#TITLETRANSLIT:;
#SUBTITLETRANSLIT:;
#ARTISTTRANSLIT:;
#GENRE:;
#CREDIT:;
#MUSIC:SCREAM SQUAD.ogg;
#BANNER:;
#BACKGROUND:;
#CDTITLE:;
#SAMPLESTART:0.400;
#SAMPLELENGTH:8.659;
#SELECTABLE:YES;
#OFFSET:-0.400;
#BPMS:0.000=220.000
,48.000=440.000
,56.000=220.000
,147.500=440.000
,152.000=220.000
,158.000=440.000
,186.000=220.000
,194.000=440.000
,201.000=220.000
,234.000=660.000
,235.000=220.000
,267.000=440.000
,298.500=220.000
,299.500=110.000
,303.000=220.000
,399.000=55.000
;
#STOPS:48.000=0.090
,48.667=0.090
,49.333=0.090
,50.000=0.090
,50.667=0.090
,51.333=0.090
,52.000=0.090
,52.667=0.090
,53.333=0.090
,54.000=0.090
,54.667=0.090
,55.333=0.090
,134.500=0.100
,147.500=0.175
,148.250=0.175
,149.000=0.175
,149.750=0.175
,150.500=0.175
,151.250=0.175
,182.000=0.150
,183.000=0.150
,184.000=0.150
,185.000=0.150
,194.000=0.060
,194.500=0.060
,195.000=0.060
,195.500=0.060
,196.000=0.060
,196.500=0.060
,197.000=0.060
,197.500=0.060
,198.000=0.030
,198.250=0.030
,198.500=0.030
,198.750=0.030
,199.000=0.030
,199.250=0.030
,199.500=0.030
,199.750=0.030
,200.000=0.030
,200.250=0.030
,200.500=0.030
,200.750=0.030
,267.000=0.070
,267.500=0.070
,268.000=0.070
,268.500=0.070
,269.000=0.070
,269.500=0.070
,270.000=0.070
,270.500=0.070
,271.000=0.070
,271.500=0.070
,272.000=0.070
,272.500=0.070
,273.000=0.070
,273.500=0.070
,274.000=0.070
,274.500=0.070
,275.000=0.035
,275.250=0.035
,275.500=0.035
,275.750=0.035
,276.000=0.070
,276.500=0.070
,277.000=0.070
,277.500=0.070
,278.000=0.070
,278.500=0.070
,279.000=0.070
,279.500=0.070
,280.000=0.070
,280.500=0.070
,281.000=0.070
,281.500=0.070
,282.000=0.070
,282.500=0.070
,283.000=0.035
,283.250=0.035
,283.500=0.035
,283.750=0.035
,284.000=0.035
,284.250=0.035
,284.500=0.035
,284.750=0.035
,285.000=0.035
,285.250=0.035
,285.500=0.035
,285.750=0.035
,286.000=0.035
,286.250=0.035
,286.500=0.035
,286.750=0.035
,287.000=0.035
,287.250=0.035
,287.500=0.035
,287.750=0.035
,288.000=0.035
,288.250=0.035
,288.500=0.035
,288.750=0.035
,289.000=0.035
,289.250=0.035
,289.500=0.035
,289.750=0.035
,290.000=0.035
,290.250=0.035
,290.500=0.035
,290.750=0.035
,291.000=0.070
,291.500=0.070
,292.000=0.070
,292.500=0.070
,293.000=0.070
,293.500=0.070
,294.000=0.070
,294.500=0.070
,295.000=0.070
,295.500=0.070
,296.000=0.070
,296.500=0.070
,297.000=0.070
,297.500=0.070
,298.000=0.070
;
#DISPLAYBPM:220.000;
#BGCHANGES:;
#FGCHANGES:;

//--------------- dance-single - ----------------
#NOTES:
     dance-single:
     :
     Beginner:
     4:
     0,0,0,0,0:
1000
0000
0000
0000
,
1000
0000
0000
0000
,
0001
0000
0000
0000
,
0001
0000
0000
0000
,
0100
0000
0000
0000
,
0100
0000
0000
0000
,
0010
0000
0000
0000
,
0010
0000
0000
0000
,
1000
0000
0000
0000
,
1000
0000
0000
0000
,
0001
0000
0000
0000
,
0001
0000
0000
0000
,
2000
0000
0000
0000
,
0000
0000
0000
0000
,
3001
0000
0000
0000
,
1000
0000
0000
0000
,
1000
0000
0100
0000
,
0010
0000
0001
0000
,
1000
0000
0010
0000
,
0100
0000
0001
0000
,
1000
0000
0100
0000
,
0010
0000
0100
0000
,
1000
0000
0010
0000
,
0100
0000
0010
0000
,
1000
0000
0000
0000
,
0001
0000
0000
0000
,
1000
0000
0100
0000
,
0010
0000
0001
0000
,
1000
0000
0000
0000
,
0001
0000
0000
0000
,
1000
0000
0010
0000
,
0100
0000
0001
0000
,
1000
0000
0000
0000
,
1000
0000
0000
0000
,
0001
0000
0000
0000
,
0001
0000
0000
0000
,
1000
0000
0000
0000
0000
0000
0000
2000
,
0000
0000
0000
0000
,
3000
0000
0001
0000
,
0000
0000
1000
0000
,
0100
0000
0010
0000
,
0001
0000
1000
0000
,
0010
0000
0100
0000
,
0001
0000
1000
0000
,
1000
0000
0001
0000
,
0001
0000
1001
1001
,
1001
1001
1000
0000
,
0100
0000
0010
0000
,
0001
0000
1000
0000
,
0001
0000
1000
0000
,
0000
0000
0000
1000
,
0000
0100
0000
0010
,
0000
0001
0000
1000
,
0000
0010
0000
0100
,
0000
0001
0000
1000
,
0000
0100
0000
0010
,
0000
0001
0000
1000
,
0000
0000
0010
0000
0000
0100
0000
0000
,
0000
0001
0000
0000
0000
0000
1000
0000
,
0000
0000
0000
1000
,
0000
0000
0000
0100
,
0000
0000
0000
0100
,
0000
0000
0000
0010
,
0000
0000
0000
0010
,
0000
0000
0000
0001
,
0000
0000
0000
0001
,
0000
0000
0000
1000
,
0000
0100
0000
0010
,
0000
0001
0000
1000
,
0000
0010
0000
0100
,
0000
0001
0000
1000
,
0000
0100
0000
0010
,
0000
0001
0000
1000
,
0000
0010
0000
0100
,
0000
0000
0001
0000
0000
1000
0000
0000
,
0000
0000
0000
1000
,
0000
0000
0000
0100
,
0000
0000
0000
0010
,
0000
0000
0000
0001
,
0000
0000
0000
0100
,
0000
0000
0000
0010
,
0000
0000
0000
1000
,
0000
0000
0000
0001
,
0000
0000
0000
1000
,
0000
0100
0000
0010
,
0000
0001
0000
1000
,
0000
0000
0000
1000
,
0000
0000
0000
0001
,
0000
0000
0000
0001
,
0000
0000
0000
0100
,
0000
0000
0000
0010
,
0000
0000
0000
1000
,
0000
0100
0000
0010
,
0000
0001
0000
1000
,
0000
0000
0000
0001
,
0000
0000
0000
0100
,
0000
0000
0000
0010
,
0000
0000
0000
1000
,
0000
0001
0000
1000
,
0001
1000
0001
0200
,
0300
0000
0000
0000
;

//--------------- dance-single - ----------------
#NOTES:
     dance-single:
     :
     Easy:
     7:
     0,0,0,0,0:
1000
0000
0001
0000
,
1000
0000
0000
0000
,
0001
0000
1000
0000
,
0001
0000
0000
0000
,
1000
0000
0100
0000
0010
0000
0000
0001
,
0000
0000
0001
0000
,
1000
0000
0010
0000
0100
0000
0000
0001
,
0000
0000
0001
0000
,
1000
0000
0001
0000
,
1000
0000
0000
0000
,
0001
0000
1000
0000
,
0001
0000
0000
0000
,
2000
0000
3200
0000
,
0320
0000
0032
0000
,
1003
0100
1000
0100
,
0010
0001
0010
0001
,
1000
0010
0100
0001
,
1000
0100
0010
0001
,
1000
0001
0010
0100
,
1000
0001
0100
0010
,
2000
0000
3200
0000
,
0320
0000
0032
0000
,
2003
0000
3020
0000
,
0230
0000
0302
0000
,
1003
1000
0100
0100
,
0010
0010
0001
0000
,
1000
0000
0100
0000
,
0010
0000
0001
0000
,
2000
0000
3200
0000
,
0320
0000
0230
0000
,
1300
0010
0100
0001
,
1000
0100
0010
0001
,
1000
0000
0000
0000
,
1000
0000
0000
0000
,
0001
0000
0000
0000
,
0001
0000
0000
0000
,
1000
0000
0000
0000
0000
0000
0000
1000
,
0000
0000
1000
0000
0000
1000
0000
0000
,
1000
0000
0001
0000
,
0010
0000
1000
0100
,
1000
0100
0010
0001
,
0010
0001
1000
0010
,
1000
0010
0100
0001
,
0100
0001
1000
0000
,
0100
0000
0010
0000
,
0001
0000
1001
1001
,
1001
1001
1000
0100
,
0001
0100
1000
0010
,
0001
0010
1000
0100
,
0010
0000
0001
0000
2000
0002
0000
0000
,
0000
0000
0000
3003
1000
0000
0100
0000
,
0010
0001
1000
0010
,
0100
0001
1000
0100
,
0010
0001
1000
0010
,
0100
0001
1000
0100
,
0010
0001
1000
0010
,
0100
0001
1000
0100
,
0010
0001
1000
0000
,
0001
0000
0000
1000
,
0000
0100
0000
0010
,
0000
0100
0000
1000
,
0000
0010
0000
0100
,
0000
0010
0000
1000
,
0000
0100
0000
0010
,
0000
0100
0000
1000
,
0000
0010
0000
0100
,
0000
0010
0000
1000
,
0100
0010
0001
1000
,
1000
0001
0001
1000
,
0010
0100
0001
1000
,
1000
0001
0001
1000
,
0010
0100
0001
1000
,
0100
0010
0001
1000
,
1000
0010
0010
0100
,
0100
0001
0001
1000
,
0000
0000
0000
1001
,
0000
0000
0000
0000
,
0000
0000
0000
1000
,
0000
0000
0000
0001
,
0000
0000
0000
1000
,
0000
0000
0000
0001
,
0000
0001
0000
0001
,
0000
0001
0000
1000
,
0000
0000
0000
1000
,
0100
0010
0001
1000
,
0010
0100
0001
1000
,
0100
0010
0001
1000
,
0010
0100
0001
2000
,
0000
3200
0000
0320
,
0000
0032
0000
2003
,
0000
3020
0000
0230
,
0000
0302
0000
1003
,
0100
0010
0100
1000
,
0010
0100
0010
1000
,
0100
0010
0001
1000
,
0000
1000
0000
0002
,
0023
0230
2300
3002
,
0203
0000
0320
0000
2030
3000
1000
0000
,
0100
0000
0010
0000
0001
0000
1000
0100
,
1000
0100
0010
0001
0010
0001
0200
0000
,
0300
0000
0000
0000
;

//--------------- dance-single - ----------------
#NOTES:
     dance-single:
     :
     Medium:
     10:
     0,0,0,0,0:
1001
0000
1001
0000
,
1001
0000
0000
0000
,
1001
0000
1001
0000
,
1001
0000
0000
0000
,
1000
0000
0100
0000
0010
0000
0000
0001
,
0000
0001
0000
0000
1000
0000
1000
0000
,
0010
0000
0100
0000
0001
0000
0000
0010
,
0000
0010
0000
0000
1000
0000
0001
0000
,
1001
0000
1001
0000
,
1001
0000
0000
0000
,
1001
0000
1001
0000
,
1001
0000
0000
0000
,
1000
0000
0100
0000
1000
0000
0100
0000
1000
0000
0100
0000
,
0010
0000
0001
0000
0010
0000
0001
0000
0010
0000
0001
0000
,
1000
0100
0010
0001
,
1000
0010
0100
0001
,
1000
0100
0010
0001
1000
0010
0100
0001
,
1000
0100
0001
0100
1000
0010
0001
0010
,
1000
0000
1000
0100
0010
0001
1000
0010
,
0001
0010
1000
0100
0010
0001
0100
0010
,
2000
3002
2003
3002
,
0203
0320
0230
0320
,
2030
3200
0320
0032
,
2003
3020
0230
0302
,
1003
0100
0010
0100
1000
0010
0100
0010
,
1000
0100
0010
0100
1000
0010
0100
0010
,
1000
0100
0010
0001
,
1000
0000
0001
0000
,
0200
0320
0230
0320
,
2030
3002
2003
3002
,
2003
3020
0230
0302
,
2003
3200
0320
0032
,
1003
0000
0000
0100
0000
0000
0000
0000
,
0010
0000
0000
0001
0000
1000
0000
0001
,
0000
0010
0000
0100
0000
0000
0000
1000
,
0000
0010
0000
0100
0000
0000
0000
0001
,
0000
0010
0100
0000
0000
0000
0001
1000
,
0000
0100
0000
0000
0010
0000
0000
0001
0000
0000
0100
0000
0000
0010
0000
0000
,
1000
0100
0010
0001
,
1000
0000
0001
0000
1000
0100
1000
0100
,
1000
0000
0100
0000
0010
0001
0010
0001
,
0010
0000
0001
0000
1000
0010
1000
0010
,
1000
0000
0010
0000
0100
0001
0100
0001
,
0100
0001
1000
0100
,
0010
0001
1000
0010
,
0100
0001
1001
1001
,
1001
1001
1000
0100
,
0001
0100
1000
0010
,
0001
0000
0010
0000
1000
0100
0010
0001
,
1000
0000
0010
0000
0100
0000
0001
0000
0200
0020
0000
0000
0000
0000
0000
0000
,
0000
0000
0000
0000
0000
0000
0000
0330
1000
0000
0100
0000
0010
0000
0000
0000
,
0001
0010
0100
0000
1000
0010
0100
0000
,
0001
0100
0010
0000
1000
0100
0010
0000
,
0100
0010
0001
0000
0001
0100
0010
0000
,
0100
0010
1000
0000
1000
0010
0100
0000
,
0010
0100
0001
0000
0001
0010
0100
0000
,
0010
0100
1000
0000
1000
0100
0001
0000
,
1000
0010
0001
0000
2000
0000
3001
0000
,
0002
0000
1003
0000
0000
0000
1000
0100
,
0010
0100
1000
0100
0010
0100
1000
0010
,
0100
0010
1000
0010
0100
0010
1000
0100
,
0010
0100
1000
0100
0010
0100
1000
0010
,
0100
0010
1000
0010
0100
0010
1000
0100
,
0010
0100
1000
0100
0010
0100
1000
0010
,
0100
0010
1000
0010
0100
0010
1000
0100
,
0010
0100
1000
0100
0010
0100
1000
0010
,
0100
0010
1000
0010
0100
0010
1000
0000
,
0100
0010
0001
1000
,
0001
0000
1000
0000
0001
0000
0100
0010
,
0100
0001
1000
0001
,
0010
0000
0100
0000
1000
0000
1000
0100
,
0010
0001
1000
0010
0100
0001
1000
0100
,
0010
0001
1000
0010
0100
0001
1000
0000
,
0100
0000
0010
0000
0001
0000
1000
0100
,
0001
0100
1000
0010
0001
0010
1000
0000
,
0000
0000
0000
1001
,
0000
0000
0000
1000
,
0000
0000
0000
0001
,
0000
0000
0000
1000
,
0000
0000
0000
0001
,
0000
0000
0000
1000
,
1000
1000
1000
1000
,
1000
1000
1000
1000
,
1000
0000
1000
0000
0000
0000
1000
0100
,
0010
0001
1000
0010
0100
0001
1000
0100
,
0001
0100
1000
0010
0001
0010
1000
0000
,
0001
0010
0100
1000
,
0001
0100
0010
2000
,
3002
0203
0320
2030
,
3002
0023
0230
2300
,
3020
0230
0302
2003
,
3200
0000
0320
0000
0032
0000
0103
0010
,
0001
0010
0100
0001
0010
0001
0100
0010
,
0001
0010
0100
0001
0010
0001
1000
0000
,
0100
0010
0001
1000
,
0010
0001
0010
2000
,
3002
0023
0230
2300
,
3002
0000
0203
0000
0320
0000
1030
0100
,
0010
0100
1000
0010
0100
0010
1000
0100
,
0010
0001
1000
0010
0100
0001
2000
0000
,
3000
0000
0000
0000
;

//--------------- dance-single - ----------------
#NOTES:
     dance-single:
     :
     Hard:
     13:
     0,0,0,0,0:
1001
0000
0110
0000
,
1001
0000
1000
0000
,
1001
0000
0110
0000
,
1001
0000
0001
0000
,
1100
0000
0100
0000
1100
0000
0000
1000
,
0000
1010
0000
0000
0100
0000
0100
0000
,
0101
0000
0001
0000
0101
0000
0000
0010
,
0000
0011
0000
0000
1001
0000
1000
0000
,
1001
0000
0110
0000
,
1001
0000
0000
0000
,
1001
0000
0110
0000
,
1001
0000
0000
0000
,
1000
0000
0100
0000
0010
0000
0001
0000
0010
0000
0100
0000
,
1000
0000
0010
0000
0100
0000
0001
0000
0100
0000
0010
0000
,
1000
0100
0010
0001
,
1000
0010
0100
0001
,
1000
0100
0010
0000
0100
0010
0001
0000
1000
0100
0010
0000
0100
0010
0001
0000
,
1000
0100
0010
0001
1000
0010
0100
0001
,
1000
0000
0001
0010
0100
1000
0010
0100
,
1000
0010
0100
0001
1000
0100
0010
0001
,
2000
3200
0320
0032
,
0203
0320
2030
3002
,
1003
0100
1000
0100
0010
0001
0010
0001
,
1000
0010
1000
0000
0001
0010
0001
0000
1000
0001
1000
0000
0010
0000
0010
0000
,
1000
0100
0010
1000
0100
0010
1000
0100
,
0010
1000
0100
0010
1000
0100
0010
0000
,
1000
0000
0001
0010
0100
1000
0000
0000
,
1000
0000
0000
0001
1000
0000
0000
0000
,
2000
3020
0230
0302
,
0023
0230
2300
3002
,
1003
0010
1000
0010
0100
0001
0100
0001
,
1000
0100
1000
0000
0001
0100
0001
0000
0100
0010
0100
0000
0001
0000
0001
0000
,
1000
0000
0000
0100
0000
0000
0000
0000
,
0010
0000
0000
0001
0000
1001
0000
0001
,
0010
0100
1000
0000
0001
0000
1000
0010
,
0100
0001
1000
0000
0001
0000
0000
0001
,
0010
0100
1000
0000
0000
0000
0001
1001
,
0000
1001
0000
0000
1001
0000
0000
1001
0000
0000
1001
0000
0000
1001
0000
0000
,
1000
0000
0100
0000
0010
0000
0001
0000
0100
0000
0010
0000
1000
0000
0000
0001
,
0000
0001
1000
0000
1000
0100
1000
0100
,
1000
0100
1000
0100
0010
0001
0010
0001
,
0010
0001
0010
0001
1000
0010
1000
0010
,
1000
0010
1000
0010
0100
0001
0100
0001
,
0100
0001
0100
0001
1000
0000
0100
0000
,
0010
0001
0100
0010
,
1000
0001
1001
1001
,
1001
0000
1001
0000
1000
0100
0010
0100
,
1000
0010
0100
0010
1000
0100
0010
0100
,
1000
0010
0100
0010
1000
0100
0010
0001
,
1000
0000
0010
0000
0100
0000
0001
0000
1000
0001
1000
0001
1000
0001
1000
0001
,
1000
0001
1000
0001
1000
0000
0000
0000
1000
0000
0001
0010
1000
0000
0000
0000
,
0001
0000
1000
0010
0001
0000
0000
0000
1000
0000
0001
0100
1000
0000
0000
0000
,
0001
0000
1000
0100
0001
0000
0000
0000
0100
0000
0001
0010
1000
0000
0000
0000
,
0010
0000
1000
0100
0001
0000
0000
0000
0100
0000
0001
0100
1000
0000
0000
0000
,
0010
0000
1000
0010
0001
0000
0000
0000
1000
0100
0010
0001
1000
0000
0000
0000
,
0001
0010
0100
1000
0001
0000
0000
0000
1000
0010
0100
0001
1000
0000
0000
0000
,
0001
0100
0010
1000
0001
0000
0000
0000
1000
0001
0010
0100
1000
0000
0000
0000
,
0001
1000
0100
0010
0001
0000
0000
0000
0000
0000
1000
0000
0100
0000
0010
0000
,
0000
0001
0010
0100
0000
0000
1000
0000
,
0100
0010
0001
1000
,
0010
0100
0001
1000
,
0100
0010
0001
1000
,
0010
0100
0001
1000
,
0100
0010
0001
1000
,
0010
0100
0001
1000
,
0100
0010
0001
1000
,
0010
0000
0100
0000
0001
0000
1000
0100
,
1000
0100
1000
0100
1000
0100
0010
0001
,
0010
0001
0010
0001
0010
0001
1000
0010
,
1000
0010
1000
0010
1000
0010
0100
0001
,
0100
0001
0100
0001
0100
0001
1000
0100
,
1000
0100
0010
0001
0010
0001
1000
0010
,
1000
0010
0100
0001
0100
0001
1000
0100
,
0010
0001
1000
0010
0100
0001
1000
0100
,
0010
0001
1000
0010
0100
0001
1000
0000
,
0000
0000
0000
1000
,
0100
0010
0001
1000
,
0010
0100
0001
1000
,
1000
1000
1000
0001
,
0001
0001
0001
0100
,
0100
0100
0100
0010
,
0010
0010
0010
0010
,
0010
0010
0010
0010
,
0010
0000
0000
0000
0010
0000
0000
0000
0000
0000
0000
0000
1000
0100
0010
0000
,
0100
0010
0001
0000
1000
0010
0100
0000
0010
0100
0001
0000
1000
0000
0100
0000
,
0010
0001
1000
0010
0100
0001
1000
0000
,
0001
0010
0100
1000
0010
0100
0001
0010
,
1000
1000
0001
0100
1000
0001
2000
0000
,
3200
0302
0203
2300
,
3020
0000
0032
0000
0023
0000
1030
0100
,
0001
0000
0100
0000
1000
0000
0010
0000
0001
0000
0010
0000
1000
0100
1000
0000
,
0001
0010
0001
0000
0100
0010
0001
0000
1000
0000
0001
0000
0100
0000
0010
0000
,
0001
0100
0010
0001
0100
0010
0001
0100
,
0010
0001
0100
0010
0001
0000
1000
0000
,
0100
0010
0001
1000
,
0010
0100
0001
2000
,
3020
0032
0023
2030
,
3200
0000
0000
0000
0302
0000
0000
0000
0203
0000
0000
0000
1300
0100
0010
0001
,
1000
0010
0100
0001
1000
0100
0010
0001
1000
0010
0100
0001
1000
0100
1000
0100
,
0010
0001
0010
0001
1000
0010
1000
0010
0100
0001
0100
0001
0020
0000
0000
0000
,
0030
0000
0000
0000
;

//--------------- dance-single - ----------------
#NOTES:
     dance-single:
     :
     Challenge:
     14:
     0,0,0,0,0:
1001
0100
1001
0010
,
1001
0000
0110
0000
,
1001
0010
1001
0100
,
1001
0000
0110
0000
,
1100
0000
0010
0001
0011
0000
0000
0010
,
1000
1010
0000
0000
0100
0001
0100
0001
,
0101
0000
0010
0100
0110
0000
0000
1000
,
0001
1001
0000
0000
0001
0010
0100
1000
,
1001
0100
0011
0100
,
1010
0000
0110
0000
,
1001
0010
1100
0010
,
0101
0000
0110
0000
,
1000
0000
1000
0000
1000
0000
0100
0000
0100
0000
0100
0000
,
0010
0000
0010
0000
0010
0000
0001
0000
0001
0000
0001
0000
,
1000
0100
1000
0000
0001
0100
0001
0000
1000
0010
1000
0000
0001
0010
0001
0000
,
1000
0001
1000
0001
1000
0001
1000
0001
1000
0000
0000
0000
1001
0000
0000
0000
,
1000
0100
1000
0100
0010
0001
0010
0001
1000
0010
1000
0010
0100
0001
0100
0001
,
1000
0100
0010
0001
1000
0010
0100
0001
,
1001
0000
1000
0100
0010
0001
0100
0100
,
0001
0010
0001
0010
0100
1000
0100
1000
,
0004
0010
0403
1000
0304
0100
0043
1000
,
4030
0100
3040
0001
4030
0010
3400
0001
,
4300
0100
0000
0100
3040
0001
0000
0001
4030
0010
0000
0010
3400
0001
0000
0001
,
4300
0000
0000
0000
0400
0000
0000
3000
0004
0000
0000
0300
0400
0000
0000
0003
4000
0000
0000
0300
0040
0000
0000
3000
0004
0000
0000
0030
0040
0000
0000
0003
,
1030
1000
0001
0001
0100
0100
0010
0010
,
1000
1000
0001
0001
2002
3003
0000
0000
,
1001
0000
1000
0100
0010
0001
0000
0000
,
0001
0000
0000
0001
1000
0000
0000
0000
,
0001
0000
0001
0000
0020
0030
0020
0030
0100
0000
0200
0300
2000
3000
1000
0000
,
0002
0003
0002
0003
0100
0000
0200
0300
0020
0030
0020
0030
2000
3000
2000
3000
,
0004
0010
0403
1000
0304
0100
0043
1000
,
0031
0010
0001
0010
0100
1000
0100
1000
0001
0100
0001
0100
0010
1000
0010
1000
,
1010
0000
1000
0101
0000
0000
0000
0000
,
0110
0000
0010
1001
0000
1001
0000
1000
,
0100
0010
0001
0000
0001
0000
0001
0001
,
0100
0010
1000
0000
1000
0000
1000
1000
,
0001
0100
0010
0000
0010
0000
0010
0110
,
0000
1100
0000
0000
0101
0000
0000
1010
0000
0000
0011
0000
0000
1001
0000
0000
,
0110
0000
1000
0000
0010
0000
0100
0000
0001
0000
1000
0000
0100
0000
0000
0010
,
0000
0001
0001
0000
1000
0100
1000
0100
,
1000
0010
1000
0010
0100
0010
0100
0010
,
0100
0001
0100
0001
0010
0001
0010
0001
,
0010
0100
0010
0100
1000
0100
1000
0100
,
1000
0001
1000
0001
1000
0000
0100
0000
,
0010
0001
1000
0010
,
0100
0001
1001
1001
,
1001
0000
1001
0000
1000
0100
0001
1000
,
0010
0001
0100
1000
0001
0010
1000
0001
,
0100
0010
1000
0001
1000
1000
1000
1000
,
0001
0000
0001
0000
0001
0000
0001
0000
0100
0010
0100
0010
0100
0010
0100
0010
,
0100
0000
0000
0010
0000
0000
0100
0000
0000
0010
0000
0000
0200
0000
0000
0000
0000
0000
0310
0000
0000
0000
0000
0000
0001
0000
0000
0000
1000
0000
0100
0000
0010
0000
0001
0000
0000
0000
0000
0000
0000
0000
0000
0000
0000
0000
0000
0000
,
0000
0000
0001
0010
0100
1000
0000
0000
0000
0000
0000
0000
0000
0000
1000
0010
0100
0001
0000
0000
0000
0000
0000
0000
,
0000
0000
0001
0100
0010
1000
0000
0000
0000
0000
0000
0000
0000
0000
1000
0100
0010
0100
0000
0000
0000
0000
0000
0000
,
0000
0000
0001
0010
0100
0010
0000
0000
0000
0000
0000
0000
0000
0000
1000
0010
0100
0010
0000
0000
0000
0000
0000
0000
,
0000
0000
0000
0000
0001
0000
0100
0000
0010
0000
0100
0000
0000
0000
0000
0000
0000
0000
0000
0000
0000
0000
0000
0000
0000
0000
0000
0000
0000
0000
1000
0000
0100
0000
0010
0000
0001
0000
0000
1000
0000
0000
0001
0000
0000
0000
0000
0000
,
0000
0000
0000
0000
0000
0000
1000
0000
0010
0000
0100
0000
0001
0000
0000
1000
0000
0000
0001
0000
0000
0000
0000
0000
0000
0000
0000
0000
0000
0000
0001
0000
0010
0000
0100
0000
1000
0000
0000
0001
0000
0000
1000
0000
0000
0000
0000
0000
,
0000
0000
0000
0000
0000
0000
0001
0000
0100
0000
0010
0000
1000
0000
0000
0001
0000
0000
1000
0000
0000
0000
0000
0000
0000
0000
0000
0000
0000
0000
1000
0000
0100
0000
0010
0000
0100
0000
0000
1000
0000
0000
0010
0000
0000
0000
0000
0000
,
0000
0000
0000
0000
0000
0000
0000
0000
0000
0000
0000
0000
0000
0000
0000
0000
0000
0000
0000
0000
0000
0000
0000
0000
0001
0000
0000
0000
0000
0000
0000
0000
0010
0000
0000
0000
0000
0000
0000
0000
0100
0000
0000
0000
0000
0000
0000
0000
0010
0000
0000
0000
0000
0000
0000
0000
0000
0000
0000
0000
0001
0000
0000
0000
0000
0000
0000
0000
0000
0000
0000
0000
0100
0000
0000
0000
0000
0000
0000
0000
0000
0000
0000
0000
0000
0000
0000
0000
0000
0000
0000
0000
0000
0000
0000
0000
0000
0000
0000
0000
0000
0000
0000
0000
0000
0000
0000
0000
0000
0000
0000
0000
0000
0000
0000
0000
0000
0000
0000
0000
1000
0000
0000
0000
0000
0000
0000
0000
0000
0100
0000
0000
0000
0000
0000
0000
0000
0000
0010
0000
0000
0000
0000
0000
0000
0000
0000
0000
0000
0000
0000
0000
0000
0000
0000
0000
0000
0000
0000
0000
0000
0000
0000
0000
0000
0000
0000
0000
0002
0000
0000
0000
0000
0000
0000
0000
0000
0000
0000
0000
0000
0000
0000
0000
0000
0000
0000
0000
0000
0000
0000
0000
,
0003
0000
0000
0000
0000
0000
0000
0000
0001
0000
0000
0010
0000
0000
0100
0000
0000
0000
0000
0000
0000
0000
0000
0000
1000
0000
0000
0000
0000
0000
0000
0000
0000
0000
0000
0000
0000
0000
0000
0000
0000
0000
0000
0000
0000
0000
0000
0000
1001
0000
0000
0000
0000
0000
0000
0000
0000
0000
0000
0000
0000
0000
0000
0000
,
0000
0000
0000
1001
,
0000
0000
0000
1001
,
0000
0000
0000
1001
,
0000
0000
0000
1001
,
0000
0000
0000
1001
,
0000
0000
0000
1001
,
0000
0000
0000
1001
,
0000
0000
0000
0000
0000
0000
2000
3200
,
0320
0032
2003
3020
0230
0302
2003
3200
,
0302
0000
0203
0000
2300
0000
3020
0000
0032
0000
0023
0000
2030
3200
0320
0032
,
2003
3020
0230
0302
0023
0230
2300
3002
,
0203
0000
0320
0000
2030
0000
3200
0000
2300
0000
3020
0000
2030
3200
0320
0032
,
2003
3020
0230
0302
2003
3002
2003
3002
0203
0320
0230
0320
2030
3020
0230
0302
,
2003
3200
0320
0032
2003
3002
2003
3002
0023
0230
0320
0230
2300
0000
3002
0000
,
2003
0000
3002
0000
0023
0000
0230
0000
0320
0000
0230
0300
0200
0000
0320
0000
,
0230
0320
2030
3002
2003
3002
0000
0003
,
0000
0000
0000
1001
,
0100
0011
0000
0000
0000
0000
0110
0000
,
1000
0011
0000
1100
0000
0000
0001
0010
,
0100
1000
0000
1000
0000
1000
1000
0010
,
0100
0001
0000
0001
0000
0000
1000
0001
,
0100
0010
0000
0010
0000
0010
1001
0000
,
1100
0101
0011
1010
,
0110
0000
0000
0000
1001
0000
0000
0000
1000
0000
0001
0000
1000
0000
0000
0001
,
0000
0000
0200
0000
0300
0000
0010
0000
0010
0000
0000
0000
1000
0100
0010
0001
,
1000
0100
0010
0001
1000
0010
0100
0001
1000
0010
0100
0001
4000
0000
0000
0000
,
0000
0000
0000
3001
,
1000
0100
0010
0001
0010
0100
1000
0010
,
0100
0001
0100
0010
1000
0001
4000
0100
,
3040
0001
4030
0010
3400
0001
4300
0001
,
3400
0000
0010
0000
4300
0000
0001
0000
3040
0000
0100
0000
1030
0100
1000
0100
,
1000
0010
1000
0010
0100
0010
0100
0010
0100
0001
0100
0001
0010
0001
0010
0001
,
1000
0001
1000
0001
0100
0010
0100
0010
1000
0000
0001
0000
1400
0000
1300
0000
,
4010
3010
0140
0130
0401
0301
0014
0013
,
4100
3100
1001
1001
0000
0000
1000
0100
,
1000
0100
1000
0010
1000
0010
0100
0001
,
0100
0001
0010
0001
0010
0001
4000
3400
,
0340
0034
4003
3040
0430
0304
4003
3004
,
0043
0000
0430
0000
4300
0000
3004
0000
0403
0000
0340
0000
1030
0100
0010
0001
,
1000
0010
0100
0001
1000
0001
0100
0010
1000
0001
0010
0100
1000
0100
0001
0100
,
1000
0010
0001
0010
1000
0100
0001
0100
1000
0010
0001
0010
2000
0000
0000
0000
,
3000
0000
0000
0000
;
