#TITLE:Radezky Can Can;
#SUBTITLE:;
#ARTIST:F2 Systems;
#TITLETRANSLIT:;
#SUBTITLETRANSLIT:;
#ARTISTTRANSLIT:;
#GENRE:;
#CREDIT:;
#MUSIC:Radezky Can Can.ogg;
#BANNER:Radezky Can Can-bn.png;
#BACKGROUND:Radezky Can Can-bg.png;
#CDTITLE:;
#SAMPLESTART:12.772;
#SAMPLELENGTH:9.778;
#SELECTABLE:YES;
#OFFSET:-0.243;
#BPMS:0.000=196.350
,109.000=197.500
,193.000=197.200
;
#STOPS:;
#DISPLAYBPM:197.000;
#BGCHANGES:;
#FGCHANGES:;

//--------------- dance-single - ----------------
#NOTES:
     dance-single:
     :
     Beginner:
     8:
     0,0,0,0,0:
0000
0000
0000
0000
,
0000
0000
0000
0000
,
0000
2002
3003
1000
,
0100
0011
1010
0001
,
0010
1100
0101
1000
,
0100
0010
0001
0100
,
0010
2002
3003
1000
,
0010
0101
1100
0001
,
0100
1010
0011
1000
,
0010
0100
0001
0010
,
0100
2002
3003
1000
,
0100
0101
1100
0001
,
0010
1010
0011
1000
,
0100
0010
0001
0100
,
0010
2002
3003
1000
,
0010
0011
1010
0001
,
0100
1100
0101
1000
,
0010
0100
0001
0010
,
0100
2002
3003
1000
,
0100
1010
0011
0001
,
0010
0101
1100
1000
,
0100
0010
0001
0100
,
0010
2002
3003
1000
,
0010
1100
0101
0001
,
0100
0011
1010
1000
,
0010
0100
0001
0010
,
0100
1001
0000
0110
,
0000
1001
0000
0110
,
0000
1001
0000
0110
,
0000
1001
0110
1001
,
0110
2002
3003
1000
,
0100
0101
0011
0001
,
0010
1010
1100
1000
,
0100
0010
0001
0100
,
0010
2002
3003
1000
,
0010
0011
0101
0001
,
0100
1100
1010
1000
,
0010
0100
0001
0010
,
0100
2002
3003
1000
,
0100
1100
0101
0001
,
0010
0011
1010
1000
,
0100
0010
0001
0100
,
0010
2002
3003
1000
,
0010
1010
0011
0001
,
0100
0101
1100
1000
,
0010
0100
0001
0010
,
0100
1001
0000
0110
,
0000
1001
0000
0110
,
0000
1001
0000
0110
,
0000
1001
0110
1001
,
0110
1000
0100
0001
,
0100
1000
0010
0001
,
0010
1000
1000
0001
,
0001
0010
0010
0010
,
0010
1000
0100
0001
,
0010
1000
0010
0001
,
0100
1000
1100
0001
,
0101
1000
1001
0110
,
0110
1000
0010
0001
,
0010
1000
0100
0001
,
0100
1000
1000
0001
,
0001
0100
0100
0100
,
0110
1000
0010
0001
,
0100
1000
0100
0001
,
0010
1000
1010
0001
,
0011
1000
1001
0110
,
0110
0010
1010
0100
,
0101
0010
0110
1001
,
1001
0220
0330
0000
;

//--------------- dance-single - ----------------
#NOTES:
     dance-single:
     :
     Easy:
     10:
     0,0,0,0,0:
0000
0000
0000
0000
,
0000
0000
0000
0000
,
0000
0000
2002
0000
3003
0000
1000
0100
,
0010
0001
0110
0000
1001
0000
0001
0010
,
0100
1000
0110
0000
1001
0000
1000
0100
,
0010
0001
1000
0010
0100
0010
1000
0100
,
0010
0001
2002
0000
3003
0000
1000
0010
,
0100
0001
0110
0000
1001
0000
0001
0100
,
0010
1000
0110
0000
1001
0000
1000
0010
,
0100
0001
1000
0100
0010
0100
1000
0000
,
0110
0000
2002
0000
3003
0000
1000
0100
,
0010
0100
1100
0000
0101
0000
0001
0010
,
0100
0010
0011
0000
1010
0000
1000
0100
,
0010
0100
1000
0010
0100
0001
1000
0100
,
0010
0001
2002
0000
3003
0000
1000
0010
,
0100
0010
1010
0000
0011
0000
0001
0100
,
0010
0100
0101
0000
1100
0000
1000
0010
,
0100
0010
1000
0100
0010
0001
1000
0000
,
0110
0000
2002
0000
3003
0000
1000
0010
,
0100
0010
1100
0000
0101
0000
0001
0100
,
0010
0100
0011
0000
1010
0000
1000
0010
,
0100
0010
1000
0100
0010
0001
1000
0010
,
0100
0001
2002
0000
3003
0000
1000
0100
,
0010
0100
1010
0000
0011
0000
0001
0010
,
0100
0010
0101
0000
1100
0000
1000
0100
,
0010
0100
1000
0010
0100
0001
0010
0000
,
0110
1001
0000
0110
,
0000
1001
0000
0110
,
0000
1001
0000
0110
,
0000
1001
0110
1001
,
0110
0000
2002
0000
3003
0000
1000
0100
,
0001
0100
1100
0000
0101
0000
0001
0010
,
1000
0010
0011
0000
1010
0000
1000
0100
,
0001
0100
1000
0010
0100
0001
1000
0100
,
0010
0001
2002
0000
3003
0000
1000
0010
,
0001
0010
1010
0000
0011
0000
0001
0100
,
1000
0100
0101
0000
1100
0000
1000
0010
,
0001
0010
1000
0100
0010
0001
0100
0000
,
0110
0000
2002
0000
3003
0000
1000
0100
,
0001
0010
1010
0000
0011
0000
0001
0010
,
1000
0100
0101
0000
1100
0000
1000
0100
,
0001
0010
1000
0100
0010
0001
1000
0010
,
0100
0001
2002
0000
3003
0000
1000
0010
,
0001
0100
1100
0000
0101
0000
0001
0100
,
1000
0010
0011
0000
1010
0000
1000
0010
,
0001
0100
1000
0010
0100
0001
0010
0000
,
0110
1001
0000
0110
,
0000
1001
0000
0110
,
0000
1001
0100
1001
,
0010
1001
0110
1001
,
0110
0000
1000
0100
1000
0100
1000
0100
,
1000
0100
0001
0100
0001
0100
0001
0100
,
0001
0100
1000
0010
0001
0010
1000
0100
,
0001
0100
1000
0100
0010
0100
0001
0100
,
0010
0100
1000
0100
0010
0100
0001
0100
,
0010
0100
1000
0100
0001
0100
0010
0100
,
0001
0100
1000
0100
0001
0000
1000
0010
,
0001
0000
0100
0001
1000
0000
1001
0110
,
1001
0000
1000
0010
1000
0010
1000
0010
,
1000
0010
0001
0010
0001
0010
0001
0010
,
0001
0010
1000
0100
0001
0100
1000
0010
,
0001
0010
1000
0010
0100
0010
0001
0010
,
0100
0010
1000
0010
0100
0010
0001
0010
,
0100
0010
1000
0010
0001
0010
0100
0010
,
0001
0010
1000
0100
0001
0000
0001
0010
,
1000
0000
0001
0100
1000
0000
0110
1001
,
0110
0000
1000
0100
0001
0000
0001
0100
,
1000
0000
1000
0010
0100
0000
1001
0110
,
1001
0000
0000
0000
0000
0000
0000
0000
0000
0000
0000
0000
0000
0000
0000
0000
0220
0000
0000
0000
0000
0000
0000
0330
0220
0000
0000
0000
0000
0000
0000
0000
0330
0000
0000
0000
0000
0000
0000
0000
0000
0000
0000
0000
0000
0000
0000
0000
0000
0000
0000
0000
0000
0000
0000
0000
0000
0000
0000
0000
0000
0000
0000
0000
;

//--------------- dance-single - ----------------
#NOTES:
     dance-single:
     :
     Medium:
     11:
     0,0,0,0,0:
0000
0000
0000
0000
,
0000
0000
0000
0000
,
0000
0000
2002
0000
3003
0000
1000
0100
,
0010
0001
0110
0000
1001
0000
0001
0010
,
0100
1000
0110
0000
1001
0000
1000
0001
,
0100
0010
1000
0100
0010
0100
1000
0100
,
0010
0001
0220
0000
0330
0000
1000
0010
,
0100
0001
0110
0000
1001
0000
0001
0100
,
0010
1000
0110
0000
1001
0000
1000
0001
,
0010
0100
1000
0010
0100
0010
1010
0000
,
0011
0000
0220
0000
0330
0000
1100
0100
,
0010
0001
0101
0000
0110
0000
0011
0010
,
0100
1000
1010
0000
0110
0000
1100
0100
,
0010
0001
1001
0001
0100
0010
1000
0110
,
0010
0110
2002
0000
3003
0000
1010
0010
,
0100
0001
0011
0000
1001
0000
0101
0100
,
0010
1000
1100
0000
1001
0000
1010
0010
,
0100
0001
0110
0011
0010
0110
1001
0000
,
0110
0000
2002
0000
3003
0000
1010
0100
,
0010
0001
0101
0000
0110
0000
0101
0010
,
0100
1000
1010
0000
0110
0000
1100
0100
,
0010
0001
1001
0001
0100
0010
1000
0110
,
0100
0110
2002
0000
3003
0000
1100
0010
,
0100
0001
0011
0000
1001
0000
0011
0100
,
0010
1000
1100
0000
1001
0000
1010
0010
,
0100
0001
0110
0101
0010
0110
1001
0000
,
0110
1100
0000
0101
,
0000
0011
0000
1010
,
0000
0000
1001
0000
0020
0030
1001
0000
,
0200
0300
1100
0000
0101
0000
0011
0000
,
1010
0000
0220
0000
0330
0000
1100
0100
,
0010
0100
1010
0000
0110
0000
0011
0010
,
0100
0010
0101
0000
0110
0000
1100
0100
,
0010
0001
1001
0001
0100
0010
0100
0011
,
1000
0011
0220
0000
0330
0000
1010
0010
,
0100
0010
1100
0000
0110
0000
0101
0100
,
0010
0100
0011
0000
0110
0000
1010
0010
,
0100
0001
1001
0011
0010
0110
1001
0000
,
1010
0000
0220
0000
0330
0000
1100
0010
,
0100
0010
1010
0000
1001
0000
0011
0100
,
0010
0100
0101
0000
1001
0000
1100
0010
,
0100
0001
1001
0001
0010
0100
0010
0101
,
1000
0011
0220
0000
0330
0000
1010
0100
,
0010
0100
1100
0000
1001
0000
0101
0010
,
0100
0010
0011
0000
1001
0000
1010
0100
,
0010
0001
1001
0101
0010
0101
1001
0000
,
0110
1100
0000
0101
,
0000
0011
0000
1010
,
0000
0000
1001
0000
0220
0330
1001
0000
,
0220
0330
1010
0000
0011
0000
0101
0000
,
1100
0000
0001
0010
1000
0000
1000
0100
0001
0000
1000
0100
0001
0000
0010
0000
,
0100
0000
1000
0010
0001
0000
1000
0010
0001
0000
1000
0010
0001
0000
0100
0000
,
0010
0000
1000
0100
0001
0000
0010
0000
0100
0000
1000
0010
0001
0000
0100
0000
,
0010
0000
1000
0100
0010
0000
0001
0000
0100
0000
0010
0000
1000
0000
0110
0000
,
0001
0000
0110
0000
1001
0000
0001
0010
1000
0000
0001
0010
1000
0000
0100
0000
,
0010
0000
0001
0100
1000
0000
0001
0100
1000
0000
0001
0100
1000
0000
0110
0000
,
0110
0000
0001
0010
1000
0000
0100
0000
1100
0000
0000
0000
0001
0000
0100
0000
,
0101
0000
0000
0000
0100
0000
0010
0000
0110
0000
0000
0000
2002
3003
2002
3003
,
2002
3003
0001
1000
0010
0000
0001
0010
1000
0000
0001
0100
1000
0000
0010
0000
,
0001
0000
1000
0001
0010
0000
1000
0100
0001
0000
1000
0010
0001
0000
0110
0000
,
0110
0000
1000
0100
0001
0000
0100
0000
1000
0000
0001
0010
1000
0000
0010
0000
,
0001
0000
1000
0010
0001
0000
0100
0000
0010
0000
1000
0000
0100
0000
0011
0000
,
0110
0000
0001
0000
1001
0000
1000
0100
0010
0000
1000
0100
0010
0000
0001
0000
,
1000
0000
0001
0010
0100
0000
0001
0010
0100
0000
0001
0010
0100
0000
1100
0000
,
0101
0100
1000
0010
1010
0000
0001
0010
,
0011
0000
0000
0000
0010
0000
0100
0000
0110
0000
0000
0000
2002
3003
2002
3003
,
2002
3003
0000
0000
1000
0000
0100
0000
0011
0000
0000
0000
0001
0000
0100
0000
,
1010
0000
0000
0000
1000
0000
0001
0000
0110
0000
0000
0000
2002
3003
2002
3003
,
2002
0000
0000
0000
3003
0000
0000
0000
0000
0000
0000
0000
0000
0000
0000
0000
0220
0000
0000
0000
0000
0000
0000
0330
0220
0000
0000
0000
0000
0000
0000
0000
0330
0000
0000
0000
0000
0000
0000
0000
0000
0000
0000
0000
0000
0000
0000
0000
0000
0000
0000
0000
0000
0000
0000
0000
0000
0000
0000
0000
0000
0000
0000
0000
;

//--------------- dance-single - ----------------
#NOTES:
     dance-single:
     :
     Hard:
     13:
     0,0,0,0,0:
0000
0000
0000
0000
,
0000
0000
0000
0000
,
0000
0000
2002
0000
3003
0000
1000
0100
,
0010
0001
0220
0330
2002
3003
0001
0010
,
0100
1000
0220
0330
2002
3003
1000
0010
,
0100
0001
0110
1000
0100
0010
1000
0100
,
0010
0001
2200
0000
3300
0000
0001
0100
,
0010
1000
0202
0303
0022
0033
1000
0010
,
0100
0001
2020
3030
2200
3300
1010
0010
,
0001
0010
1100
0100
0101
0001
0022
0033
,
0220
0330
2020
3030
0011
0000
0110
0100
,
1100
0100
0202
0303
2002
3003
0110
0101
,
0011
0010
2020
3030
0220
0330
1001
1000
,
1010
1000
1100
0100
0110
0010
0011
0101
,
0110
1010
2200
3300
1001
0000
1100
0100
,
0101
0100
0220
0330
2002
3003
0011
1001
,
1010
0010
0220
0330
2002
3003
1010
0010
,
0110
0010
0011
0101
0110
1010
2200
3300
,
0220
0330
2002
3003
0110
0000
1010
1000
,
1100
0100
0220
0330
2002
3003
1100
1010
,
0101
0001
2002
3003
0220
0330
0101
0001
,
0011
0010
0110
0100
1100
1000
1010
1001
,
0011
0101
0220
0330
1001
0000
1100
0100
,
0101
0001
0022
0033
0220
0330
1010
0110
,
0011
0001
0202
0303
2002
3003
0011
0001
,
0101
0100
1100
1010
0110
0101
0022
0033
,
0220
0330
1001
0000
0000
0000
0110
0000
,
0000
1001
0000
0110
,
0000
0000
1001
0000
0220
0330
1001
0000
,
0220
0330
1001
0000
0110
0000
1001
0000
,
0110
0000
2020
3030
0011
0000
1010
0010
,
0110
0100
0202
0303
2200
3300
0101
0100
,
0110
0100
2200
3300
0202
0303
1100
0100
,
0110
0010
0011
0001
0101
0100
1100
1010
,
0110
0101
0022
0033
1010
0000
0011
0010
,
0110
0100
2200
3300
0202
0303
1100
0100
,
0110
0100
0202
0303
2200
3300
0101
0100
,
0110
0010
1010
1001
0011
0101
0220
0330
,
2002
3003
2020
3030
1100
0000
1010
1000
,
1001
0001
0202
0303
0022
0033
0101
0001
,
1001
0001
0022
0033
0202
0303
0011
0001
,
1001
1000
1100
0100
0110
0010
0011
0101
,
0110
1010
2200
3300
1010
0000
1100
1000
,
1001
0001
0022
0033
0202
0303
0011
0001
,
1001
1000
2020
3030
2200
3300
1010
1000
,
1001
0001
0101
0011
0101
0110
2020
3030
,
2200
3300
1100
0000
0220
0330
0101
0000
,
0220
0330
0011
0000
0220
0330
0101
0000
,
0220
0330
1100
0110
1001
0000
0101
0110
,
1001
0000
0011
0110
1010
0110
1100
0110
,
0101
0000
0001
0010
1000
0000
1000
0100
0010
0001
0100
0010
0001
0000
0100
0000
,
0010
0000
1000
0010
0100
0001
0010
0100
0001
0010
0100
1000
0001
0000
0010
0000
,
0010
0000
1000
0100
0001
0100
1000
0000
0010
0000
0001
0100
1000
0100
0001
0000
,
0010
0000
1000
0001
1000
0100
1000
0100
0010
0001
0010
0001
0100
0010
0100
0010
,
1000
0001
1000
0100
0001
0010
0100
1000
0010
0100
1000
0100
0010
0000
0001
0000
,
0100
0000
0010
1000
0100
0010
0100
0010
0001
0100
0010
0001
1000
0000
0110
0000
,
0110
0001
1000
0100
1100
0000
0001
0100
,
0101
0000
0000
0000
0100
0000
0010
0000
0100
0000
0000
0000
2002
3003
2002
3003
,
2002
3003
0001
0000
0010
0100
0010
0100
1000
0010
0100
1000
0010
0000
0001
0000
,
0100
0000
0010
0001
0100
0010
1000
0100
0010
1000
0100
0010
0001
0000
0100
0000
,
0010
0000
0100
1000
0001
0010
0001
0010
0001
0000
0010
0000
1000
0010
1000
0010
,
1000
0000
0010
0000
1000
0100
1000
0100
0010
0001
0010
0001
0100
0010
0100
0010
,
1000
0000
0100
0000
0001
0000
1000
0100
0001
0100
1000
0010
0001
0000
0010
0000
,
0100
0000
1000
0010
0001
0010
1000
0100
0001
0100
1000
0010
0001
0000
0100
0000
,
0010
0000
1000
0010
1010
0000
0001
0010
,
0011
0000
0000
0000
0010
0000
0100
0000
0110
0000
0000
0000
2002
3003
2002
3003
,
2002
3003
0000
0000
1100
0000
0100
0000
0101
0000
0000
0000
0011
0000
0010
0000
,
1010
0000
0000
0000
0110
0000
0010
0000
1001
0000
0000
0000
2002
3003
2002
3003
,
2002
0000
0000
0000
3003
0000
0000
0000
0000
0000
0000
0000
0000
0000
0000
0000
0220
0000
0000
0000
0000
0000
0000
0330
0220
0000
0000
0000
0000
0000
0000
0000
0330
0000
0000
0000
0000
0000
0000
0000
0000
0000
0000
0000
0000
0000
0000
0000
0000
0000
0000
0000
0000
0000
0000
0000
0000
0000
0000
0000
0000
0000
0000
0000
;

//--------------- dance-single - ----------------
#NOTES:
     dance-single:
     :
     Challenge:
     13:
     0,0,0,0,0:
0000
0000
0000
0000
,
0000
0000
0000
0000
,
0000
0000
1001
0000
0000
0000
1000
0100
,
0001
0100
1100
0000
0101
0000
0001
0010
,
1000
0010
0011
0000
1010
0000
1000
0010
,
0001
0010
1010
1000
1100
0100
0110
0010
,
0011
0001
1001
0000
0000
0000
1000
0010
,
0001
0010
1010
0000
0011
0000
0001
0100
,
1000
0100
0101
0000
1100
0000
1010
0010
,
0001
0010
1010
1000
1100
0100
0101
0000
,
0011
0000
1001
0100
0011
1000
0110
0100
,
1100
1000
1010
0100
0011
1000
0110
0100
,
0101
0001
0011
1000
0101
0010
1100
0100
,
0101
0001
0011
0010
0110
0100
1100
1010
,
0110
0101
1001
0010
1100
0001
0110
0100
,
1100
1000
1010
0100
0011
1000
0110
0011
,
0101
0100
1100
0001
0110
0001
1010
0010
,
0110
0100
0101
0011
0101
0110
1010
0000
,
1100
0000
1001
0010
1100
0001
0110
0010
,
0011
0001
1001
0100
1010
0001
0110
0100
,
1100
1000
1001
0010
0101
1000
0110
0010
,
0011
0001
0101
0100
1100
1000
1010
0110
,
0101
0011
1001
0100
0011
1000
0110
0010
,
1010
1000
1001
0010
1100
0001
0110
0100
,
0101
0001
1001
0010
1100
0001
1010
1000
,
1100
0100
0101
0011
1010
1100
0101
0000
,
0110
1010
0000
0011
,
0000
0101
0000
1100
,
0000
0000
0110
1001
0022
0033
1001
0110
,
2020
3030
1100
0100
0101
0001
0011
0010
,
1010
1000
0110
0001
1010
0100
1001
1000
,
1100
0100
0101
0010
1100
0001
0110
0100
,
0101
0001
0011
1000
0110
0001
1010
1000
,
1100
0100
0101
0001
0011
0010
0110
1100
,
1010
0110
1001
0010
0101
1000
0011
0010
,
0110
0010
1010
0001
0110
1000
0011
0001
,
0101
0100
1100
0010
1001
0100
1010
0010
,
0110
0010
0011
0101
0110
1010
1100
0000
,
0110
0000
1001
0010
0101
1000
0110
0100
,
1100
1000
1010
0100
0011
1000
0110
0010
,
0011
0001
1001
0100
1010
0001
0110
0010
,
0011
0001
0101
0100
1100
1000
1010
0110
,
0101
0011
1001
0010
1100
0001
0110
0010
,
1010
1000
1100
0001
0110
1000
0110
0010
,
0011
0001
1001
0100
0011
1000
0110
0100
,
0101
0001
0011
0101
0110
1010
1100
0000
,
0110
0000
1001
0010
0220
0330
1001
0100
,
0220
0330
1010
0010
0022
0033
0101
0100
,
2200
3300
1010
0110
0012
0013
0101
0110
,
2100
3100
1010
0010
0011
0001
0101
0100
,
1100
0000
1000
0000
1001
0000
1000
0100
0001
0000
0001
0010
1000
0000
0100
0000
,
0010
0000
0001
0100
1000
0000
1000
0010
0001
0000
0001
0100
0010
0000
1000
0000
,
0100
0000
0001
1000
0100
0000
0010
0000
0001
0000
0100
0000
1000
0000
0010
0000
,
0100
0000
0001
0010
1000
0100
0010
0000
0100
0010
0001
0000
0010
0000
0011
0000
,
0101
0000
0110
0000
1010
0000
1000
0100
0101
0000
0001
0010
1010
0000
0100
0000
,
1001
0000
1000
0010
0011
0000
0001
0100
1100
0000
1000
0010
0110
0000
0101
0000
,
0011
0100
0011
0101
0110
0001
1100
1010
,
0110
1000
0101
0110
1100
0010
1001
0110
,
1001
0000
0000
0000
1100
0000
0001
0100
1010
0000
1000
0100
0011
0000
1000
0000
,
0110
0000
1000
0010
0101
0000
0001
0010
1100
0000
1000
0100
0110
0000
0101
0000
,
0011
0000
1000
0100
0101
0000
0010
0000
0101
0000
1000
0000
0011
0000
0100
0000
,
0011
1000
0110
0001
1010
0100
0011
1010
,
1100
0000
0010
0000
0101
0000
0010
0001
1010
0000
0010
1000
0011
0000
0100
0000
,
1001
0000
0100
0001
1100
0000
0100
1000
0101
0000
0100
0010
1001
0000
1010
0000
,
0110
1000
0011
0101
0110
0001
1100
1010
,
0110
1000
0011
0110
1010
0100
1001
0110
,
1001
0010
1100
0101
0110
1000
0011
1010
,
0110
0001
1100
1010
0011
0100
1001
0110
,
1001
0000
0000
0000
0000
0000
0000
0000
0000
0000
0000
0000
0000
0000
0000
0000
0220
0000
0000
0000
0000
0000
0000
0330
0220
0000
0000
0000
0000
0000
0000
0000
0330
0000
0000
0000
0000
0000
0000
0000
0000
0000
0000
0000
0000
0000
0000
0000
0000
0000
0000
0000
0000
0000
0000
0000
0000
0000
0000
0000
0000
0000
0000
0000
;
