#TITLE:Quick Ankles;
#SUBTITLE:;
#ARTIST:Raxxo;
#TITLETRANSLIT:;
#SUBTITLETRANSLIT:;
#ARTISTTRANSLIT:;
#GENRE:;
#CREDIT:;
#MUSIC:Quick Ankles.ogg;
#BANNER:Quick Ankles-bn.png;
#BACKGROUND:Quick Ankles-bg.png;
#CDTITLE:;
#SAMPLESTART:9.691;
#SAMPLELENGTH:28.235;
#SELECTABLE:YES;
#OFFSET:-0.279;
#BPMS:0.000=204.000;
#STOPS:;
#BGCHANGES:;
#FGCHANGES:;

//--------------- dance-single - ----------------
#NOTES:
     dance-single:
     :
     Beginner:
     1:
     0,0,0,0,0:
0000
0000
0000
0000
,
0000
0000
0000
0000
,
0000
0000
0000
0000
,
0000
0000
0000
0000
,
0000
0000
0000
0000
,
0000
0000
0000
0000
,
0000
0000
0000
0000
,
0000
0000
0000
0000
,
2002
3003
0000
0000
,
0000
0000
0000
0000
,
0000
0000
0000
0000
,
2000
0000
3002
0000
,
0003
0000
0000
0000
,
0000
0000
0000
0000
,
0000
0000
0000
0000
,
0002
0000
2003
0000
,
3000
0000
0000
0000
,
0000
0000
0000
0000
,
0000
0000
0000
0000
,
2000
0000
3002
0000
,
0003
0000
0000
0000
,
0000
0000
0000
0000
,
0000
0000
0000
0000
,
0002
0000
2003
0000
,
3000
0000
0000
0000
,
0000
0000
0000
0000
,
0000
0000
0000
0000
,
2000
0000
3002
0000
,
0003
0000
0000
0000
,
0000
0000
0000
0000
,
0000
0000
0000
0000
,
0002
0000
2003
0000
,
3000
0000
0000
0000
,
2000
0000
0000
0000
,
0000
0000
0000
0000
,
0000
0000
0000
3000
,
1000
0000
0000
0000
,
0000
0000
0000
0000
,
0001
0000
0000
0000
,
2000
0000
3002
0000
,
1003
0000
0000
0000
,
0000
0000
0000
0000
,
0001
0000
0000
0000
,
2000
0000
3002
0000
,
1003
0000
0000
0000
,
0000
0000
0000
0000
,
0001
0000
0000
0000
,
2000
0000
3002
0000
,
1003
0000
0000
0000
,
0000
0000
0000
0000
,
0001
0000
0000
0000
,
2000
0000
3002
0000
,
1003
0000
0000
0000
,
0000
0000
0000
0000
,
0001
0000
0000
0000
,
2000
0000
3002
0000
,
1003
0000
0000
0000
,
0000
0000
0000
0000
,
0001
0000
0000
0000
,
2000
0000
3002
0000
,
2003
0000
0000
0000
,
0000
0000
0000
0000
,
0000
0000
0000
0000
,
0000
0000
0000
0000
,
3002
0000
0000
0000
,
0000
0000
0000
0000
,
0000
0000
0000
0000
,
0000
0000
0000
0000
,
0003
2000
0000
0000
,
0000
0000
0000
0000
,
0000
0000
0000
3000
,
0002
0000
2003
0000
,
3000
0002
0000
0000
,
0000
0000
0000
0000
,
0000
0000
0000
0003
,
2000
0000
3002
0000
,
0003
2000
0000
0000
,
0000
0000
0000
0000
,
0000
0000
0000
3000
,
0002
0000
2003
0000
,
3000
0002
0000
0000
,
0000
0000
0000
0000
,
0000
0000
0000
0003
,
2000
0000
3002
0000
,
0003
2000
0000
0000
,
0000
0000
0000
0000
,
0000
0000
0000
3000
,
0002
0000
2003
0000
,
3000
0002
0000
0000
,
0000
0000
0000
0000
,
0000
0000
0000
0003
,
2000
0000
0000
0000
3002
0000
0000
0003
,
2002
0000
3003
0000
;

//--------------- dance-single - ----------------
#NOTES:
     dance-single:
     :
     Easy:
     2:
     0,0,0,0,0:
0000
0000
0000
0000
,
0000
0000
0000
0000
,
0000
0000
0000
0000
,
0000
0000
0000
0000
,
0000
0000
0000
0000
,
0000
0000
0000
0000
,
0000
0000
0000
0000
,
0000
0000
0000
0000
,
2002
3003
2000
0000
0000
0000
0000
0000
,
0000
0000
0000
0000
,
0000
0000
0000
3000
,
0200
0000
0320
0000
,
0030
0002
0000
0000
,
0000
0000
0000
0000
,
0000
0000
0000
0003
,
0020
0000
0230
0000
,
0300
2000
0000
0000
,
0000
0000
0000
0000
,
0000
0000
0000
3000
,
0020
0000
0230
0000
,
0300
0002
0000
0000
,
0000
0000
0000
0000
,
0000
0000
0000
0003
,
0200
0000
0320
0000
,
0030
2000
0000
0000
,
0000
0000
0000
0000
,
0000
0000
0000
3000
,
0200
0000
0320
0000
,
0030
0002
0000
0000
,
0000
0000
0000
0000
,
0000
0000
0000
0003
,
0200
0000
0320
0000
,
2030
0000
0000
0000
,
0000
0000
0000
0000
,
0000
0000
0000
0000
,
0000
0000
0000
0000
0000
0000
0000
3000
,
1000
0000
0000
0000
,
0100
0000
0000
0000
,
0010
0000
0000
0000
,
0002
0000
0023
0000
,
0130
0000
0000
0000
,
1000
0000
0000
0000
,
0010
0000
0000
0000
,
0200
0000
0302
0000
,
0103
0000
0000
0000
,
0010
0000
0000
0000
,
1000
0000
0000
0000
,
0200
0000
0320
0000
,
0031
0000
0000
0000
,
0100
0000
0000
0000
,
0010
0000
0000
0000
,
2000
0000
3020
0000
,
0130
0000
0000
0000
,
0001
0000
0000
0000
,
0010
0000
0000
0000
,
0200
0000
2300
0000
,
3001
0000
0000
0000
,
0010
0000
0000
0000
,
0100
0000
0000
0000
,
2000
0000
3002
0000
,
2003
0000
0000
0000
,
3200
0000
0000
0000
,
0320
0000
0000
0000
,
0032
0000
0000
0000
,
2003
0000
0000
0000
,
3020
0000
0000
0000
,
0230
0000
0000
0000
,
0302
0000
0000
0000
,
1003
2000
0000
3000
,
0000
0200
0000
0300
,
0000
0020
0000
0030
,
0002
0000
2003
0000
,
3000
0002
0000
0003
,
0000
0200
0000
0300
,
0000
0020
0000
0030
,
2000
0000
3002
0000
,
0003
2000
0000
3000
,
0000
0020
0000
0030
,
0000
0200
0000
0300
,
0002
0000
2003
0000
,
3000
0002
0000
0003
,
0000
0020
0000
0030
,
0000
0200
0000
0300
,
2000
0000
3002
0000
,
0003
2000
0000
3000
,
0000
0020
0000
0030
,
0000
0200
0000
0300
,
0002
0000
2003
0000
,
3000
0002
0000
0003
,
0000
0020
0000
0030
,
0000
0200
0000
0300
,
2000
0000
0000
0000
3002
0000
0000
0003
,
2002
0000
3003
0000
;

//--------------- dance-single - ----------------
#NOTES:
     dance-single:
     :
     Medium:
     3:
     0,0,0,0,0:
0000
0000
0000
0000
,
0000
0000
0000
0000
,
0000
0000
0000
0000
,
0000
0000
0000
0000
,
0000
0000
0000
0000
,
0000
0000
0000
0000
,
0000
0000
0000
0000
,
0000
0000
0000
0000
,
2002
3003
2000
0000
0000
0000
3000
0000
,
0000
0200
0000
0300
,
0000
0020
0000
0030
,
0002
0000
2003
0000
,
3000
0002
0000
0003
,
0000
0020
0000
0030
,
0000
0200
0000
0300
,
2000
0000
3002
0000
,
0003
2000
0000
3000
,
0000
0020
0000
0030
,
0000
0200
0000
0300
,
0002
0000
2003
0000
,
3000
0002
0000
0003
,
0000
0200
0000
0300
,
0000
0020
0000
0030
,
2000
0000
3002
0000
,
0003
2000
0000
3000
,
0000
0200
0000
0300
,
0000
0020
0000
0030
,
0002
0000
2003
0000
,
3000
0002
0000
0003
,
0000
0200
0000
0300
,
0000
0020
0000
0030
,
2000
0000
3002
0000
,
2003
0000
0001
0000
,
0001
0000
0001
0000
,
0001
0000
0001
0000
,
0001
0000
0001
0000
,
3001
0000
0010
0000
,
0100
0000
1000
0000
,
0001
0000
0100
0000
,
0010
0000
1000
0000
,
0001
0000
0010
0000
,
0100
0000
1000
0000
,
0001
0000
0100
0000
,
0010
0000
1000
0000
,
1000
0000
0100
0000
,
0010
0000
0001
0000
,
1000
0000
0010
0000
,
0100
0000
0001
0000
,
1000
0000
0100
0000
,
0010
0000
0001
0000
,
1000
0000
0010
0000
,
0100
0000
0001
0000
,
1000
0000
0100
0000
,
0010
0000
0001
0000
,
1000
0000
0010
0000
,
0100
0000
0001
0000
,
0001
0000
0010
0000
,
0100
0000
1000
0000
,
0001
0000
0100
0000
,
0010
0000
1000
0000
,
1000
0100
0010
0001
,
1000
0010
0100
0001
,
1000
0100
0010
0001
,
1000
0010
0100
0001
,
1000
0100
0010
0001
,
1000
0010
0100
0001
,
1000
0100
0010
0001
,
1000
0010
0100
0001
,
1000
2000
0000
3000
,
0000
0200
0000
0300
,
0000
0020
0000
0030
,
0002
0000
0023
0000
,
0030
0200
0000
0300
,
0000
2000
0000
3000
,
0000
0020
0000
0030
,
0200
0000
0302
0000
,
0003
0200
0000
0300
,
0000
0020
0000
0030
,
0000
2000
0000
3000
,
0200
0000
0320
0000
,
0030
0002
0000
0003
,
0000
0200
0000
0300
,
0000
0020
0000
0030
,
2000
0000
3020
0000
,
0030
0200
0000
0300
,
0000
0002
0000
0003
,
0000
0020
0000
0030
,
0200
0000
2300
0000
,
3000
0002
0000
0003
,
0000
0020
0000
0030
,
0000
0200
0000
0300
,
2000
0000
0000
0000
3002
0000
0000
0003
,
2002
0000
3003
0000
;

//--------------- dance-single - ----------------
#NOTES:
     dance-single:
     :
     Hard:
     7:
     0,0,0,0,0:
0000
0000
0000
0000
,
0000
0000
0000
0000
,
0000
0000
0000
0000
,
0000
0000
0000
0000
,
0000
0000
0000
0000
,
0000
0000
0000
0000
,
0000
0000
0000
0000
,
0000
0000
0000
0000
,
2002
3003
2000
0000
0000
0000
3000
0000
,
0000
0200
0000
0300
,
0000
0020
0000
0030
,
0001
0010
0001
0000
1000
0010
1000
0000
,
0001
2000
0000
3000
,
0000
0020
0000
0030
,
0000
0200
0000
0300
,
0001
0100
0001
0000
1000
0100
1000
0000
,
0001
0002
0000
0003
,
0000
0020
0000
0030
,
0000
0200
0000
0300
,
1000
0100
1000
0000
0001
0100
0001
0000
,
1000
0002
0000
0003
,
0000
0200
0000
0300
,
0000
0020
0000
0030
,
1000
0010
1000
0000
0001
0010
0001
0000
,
0001
2000
0000
3000
,
0000
0200
0000
0300
,
0000
0020
0000
0030
,
0001
1000
0001
0000
0100
0010
0100
0000
,
1000
0002
0000
0003
,
0000
0020
0000
0030
,
0000
0200
0000
0300
,
1000
0001
1000
0000
0010
0100
0010
0000
,
0001
0000
1000
0000
,
1000
0000
1000
0000
,
1000
0000
1000
0000
,
1000
0000
1000
0000
,
1000
0100
0010
0001
,
1000
0010
0100
0001
,
1000
0100
0010
0100
,
2000
0000
3002
0000
,
1003
0010
0100
0001
,
1000
0100
0010
0001
,
1000
0010
0100
0010
,
2000
0000
3002
0000
,
1003
0100
0010
0100
,
1000
0010
0100
0010
,
1000
0100
0010
0001
,
2000
0000
3002
0000
,
1003
0010
0100
0010
,
1000
0100
0010
0100
,
1000
0010
0100
0001
,
2000
0000
3002
0000
,
1003
0100
0010
0001
,
1000
0010
0100
0010
,
1000
0100
0010
0100
,
2000
0000
3002
0000
,
1003
0010
0100
0001
,
1000
0100
0010
0100
,
1000
0010
0100
0010
,
2000
0000
3002
0000
,
1003
0100
0010
0001
1000
0100
0010
0001
,
1000
0100
0010
0001
1000
0100
0010
0001
,
1000
0100
0010
0001
1000
0100
0010
0001
,
1000
0100
0010
0001
1000
0100
0010
0001
,
1000
0100
0010
0001
1000
0100
0010
0001
,
1000
0100
0010
0001
1000
0100
0010
0001
,
1000
0100
0010
0001
1000
0100
0010
0001
,
1000
0100
0010
0001
1000
0100
0010
0001
,
1000
0002
0000
0003
,
0000
2000
0000
3000
,
0000
0002
0000
0003
,
2000
0000
3200
0000
,
0310
0020
0000
0030
,
0000
0200
0000
0300
,
0000
0020
0000
0030
,
0200
0000
0302
0000
,
1003
2000
0000
3000
,
0000
0002
0000
0003
,
0000
2000
0000
3000
,
0002
0000
0023
0000
,
0130
0200
0000
0300
,
0000
0020
0000
0030
,
0000
0200
0000
0300
,
0020
0000
2030
0000
,
3001
0002
0000
0003
,
0000
2000
0000
3000
,
0000
0002
0000
0003
,
2000
0000
3020
0000
,
0130
0200
0000
0300
,
0000
0020
0000
0030
,
0000
0200
0000
0300
,
0020
0000
0000
0000
0032
0000
0000
0003
,
2002
0000
3003
0000
;

//--------------- dance-single - ----------------
#NOTES:
     dance-single:
     :
     Challenge:
     9:
     0,0,0,0,0:
0000
0000
0000
0000
,
0000
0000
0000
0000
,
0000
0000
0000
0000
,
0000
0000
0000
0000
,
0000
0000
0000
0000
,
0000
0000
0000
0000
,
0000
0000
0000
0000
,
0000
0000
0000
0000
,
2002
3003
1000
0000
0100
0000
1000
0000
,
0000
0001
0100
0001
,
0000
1000
0001
1000
,
1000
0100
0001
0100
1000
0010
0001
0010
,
1000
0001
0010
0001
,
0000
1000
0010
1000
,
0000
0001
1000
0001
,
0001
0010
1000
0010
0001
0100
1000
0100
,
0001
1000
0100
0010
,
0000
0001
0010
0100
,
0000
1000
0001
1000
,
1000
0010
0001
0010
1000
0100
0001
0100
,
1000
0001
0100
0010
,
0000
1000
0010
0100
,
0000
0001
1000
0001
,
0001
0100
1000
0100
0001
0010
1000
0010
,
0001
1000
0010
0100
,
0000
0001
0010
0100
,
0000
0100
0010
0100
,
1000
0100
0010
0001
1000
0010
0001
0010
,
1000
0001
0100
0010
,
0000
1000
0100
0010
,
0000
0010
0100
0010
,
0001
0100
0010
1000
0001
0010
1000
0010
,
0001
0001
0010
0100
,
1000
0100
1000
0100
0010
0001
0010
0001
,
1000
0010
1000
0010
0100
0001
0100
0001
,
1000
0001
1000
0001
0100
0010
0100
0010
,
1000
0100
0010
0001
,
1000
0010
0100
0001
,
1000
0100
0010
0001
,
1000
0100
1000
0100
0010
0001
0010
0001
,
1000
0010
0100
0001
,
1000
0100
0010
0001
,
1000
0010
0100
0001
,
1000
0010
1000
0010
0100
0001
0100
0001
,
1000
0100
1000
0010
,
1000
0100
0010
0001
,
1000
0010
0100
0010
,
1000
0100
1000
0100
1000
0010
1000
0010
,
1000
0100
1000
0001
,
1000
0010
0100
0001
,
1000
0100
0010
0100
,
1000
0100
1000
0100
1000
0001
1000
0001
,
1000
0010
1000
0100
,
1000
0010
0100
0001
,
1000
0100
0010
0100
,
1000
0010
1000
0010
1000
0100
1000
0100
,
1000
0010
1000
0001
,
1000
0100
0010
0001
,
1000
0010
0100
0010
,
1000
0010
1000
0010
1000
0001
1000
0001
,
1000
0100
0010
0001
1000
0100
0010
0001
,
1000
0100
0010
0001
1000
0100
0010
0001
,
1000
0010
0100
0001
1000
0010
0100
0001
,
1000
0010
0100
0001
1000
0010
0100
0001
,
1000
0100
0010
0100
1000
0100
0010
0100
,
1000
0010
0100
0010
1000
0010
0100
0010
,
1000
0100
0010
0001
1000
0100
0010
0001
,
1000
0010
0100
0001
1000
0010
0100
0001
,
1000
1000
0100
1000
,
0000
0001
0010
0001
,
0000
1000
0001
1000
,
1000
0100
0010
0100
1000
0010
0100
0010
,
1000
1000
0010
1000
,
0000
0001
0100
0001
,
0000
0100
0010
0100
,
0001
0010
0100
0010
0001
0100
0010
0100
,
0001
0001
0010
0001
,
0000
1000
0100
1000
,
0000
0001
1000
0001
,
0001
0100
0010
0100
0001
0010
0100
0010
,
0001
0001
0100
0001
,
0000
1000
0010
1000
,
0000
0100
0010
0100
,
1000
0010
0100
0010
1000
0100
0010
0100
,
1000
1000
0010
1000
,
0000
0001
0010
0001
,
0000
1000
0001
1000
,
0001
0010
0100
0010
0001
0100
0010
0100
,
0001
0001
0100
0001
,
0000
1000
0100
1000
,
0000
0001
1000
0001
,
0100
0010
0100
0010
1000
0001
1000
0001
,
2002
0000
3003
0000
;

//--------------- dance-single - ----------------
#NOTES:
     dance-single:
     :
     Edit:
     9:
     0,0,0,0,0:
1000
0100
0010
0001
,
1000
0010
0100
0000
,
0001
0010
0100
1000
,
0001
0100
0010
1000
,
1000
0010
0100
0001
,
1000
0100
0010
0001
,
1000
0001
0010
0100
,
1000
0000
0001
0000
1000
0100
0001
0100
,
1001
0000
1000
0100
1000
0100
1000
0100
,
0000
0000
0001
0010
0001
0010
0001
0010
,
0000
0000
1000
0001
1000
0001
1000
0001
,
1000
0100
0001
0100
1000
0010
0001
0010
,
1000
0000
1000
0010
1000
0010
1000
0010
,
0000
0000
0001
0100
0001
0100
0001
0100
,
0000
0000
0100
0010
0100
0010
0100
0010
,
1000
0010
0001
0010
1000
0100
0001
0100
,
1000
0000
1000
0100
0010
0001
0100
0010
,
0000
0000
0001
0010
0100
1000
0010
0100
,
0000
0000
1000
0100
0010
1000
0010
0001
,
1000
0100
0001
0100
1000
0010
0001
0010
,
1000
0000
0001
0010
0001
0010
0001
0010
,
0000
0000
1000
0010
1000
0010
1000
0010
,
0000
0000
0001
1000
0001
1000
0001
1000
,
0001
0010
1000
0010
0001
0100
1000
0100
,
0001
0000
0001
0100
0001
0100
0001
0100
,
0000
0000
1000
0100
1000
0100
1000
0100
,
0000
0000
0010
0100
0010
0100
0010
0100
,
0001
0100
1000
0100
0001
0010
1000
0010
,
0001
0000
0001
0100
0010
1000
0100
0010
,
0000
0000
1000
0010
0100
0001
0010
0100
,
0000
0000
0001
0010
0100
0001
0100
1000
,
0001
0010
1000
0010
0001
0100
1000
0100
,
0001
0010
0100
0010
1000
0010
0100
0010
,
0001
0010
0100
0010
1000
0010
0100
0010
,
0001
0010
0100
0010
1000
0010
0100
0010
,
0001
0010
0100
0010
1000
0100
0010
0001
,
1000
0000
1000
0100
0010
0000
0001
0100
,
0010
0000
1000
0010
0100
0000
0001
0010
,
0100
0000
1000
0100
0001
0000
0001
0010
,
1000
0100
0001
0100
1000
0010
0001
0010
,
1000
0100
1000
0100
1000
0100
1000
0000
,
0001
0010
0001
0010
0001
0010
0001
0000
,
1000
0001
1000
0001
1000
0001
1000
0001
,
1000
0010
0001
0010
1000
0100
0001
0100
,
1000
0010
1000
0010
1000
0010
1000
0000
,
0001
0100
0001
0100
0001
0100
0001
0000
,
0100
0010
0100
0010
0100
0010
0100
0010
,
1000
0100
0001
0100
1000
0010
0001
0010
,
1000
0000
1000
0100
0010
0000
0001
0010
,
1000
0000
0100
0010
0001
0000
0100
0010
,
1000
0000
0010
0100
0001
0000
0001
0010
,
1000
0100
0001
0100
1000
0010
0001
0010
,
1000
0000
0100
0010
0100
0000
0010
0100
,
0010
0000
1000
0001
1000
0000
0001
1000
,
0001
0000
1000
0100
0010
0000
0001
0010
,
1000
0010
0001
0010
1000
0100
0001
0100
,
1000
0100
0010
0100
1000
0100
0010
0000
,
0001
0010
0100
0010
0001
0010
0100
0000
,
1000
0100
0010
0001
1000
0010
0100
0001
,
1000
0100
0001
0100
1000
0010
0001
0010
,
1000
0100
0010
0100
1000
0001
0100
0010
,
1000
0010
0100
0010
1000
0001
0010
0100
,
1000
0100
0010
0100
1000
0001
0010
0100
,
1000
0010
0100
0010
1000
0001
0100
0010
,
1000
0100
0010
0001
1000
0010
0100
0010
,
1000
0010
0100
0001
1000
0100
0010
0100
,
1000
0010
0100
0001
1000
0010
0100
0010
,
1000
0100
0010
0001
1000
0100
0010
0100
,
1000
0001
0100
0010
0100
0010
0100
0010
,
1000
0001
0010
0100
0010
0100
0010
0100
,
1000
0001
1000
0001
1000
0001
1000
0001
,
1000
0100
0001
0100
1000
0010
0001
0010
,
0100
0010
1000
0001
1000
0001
1000
0001
,
0100
0010
0001
1000
0001
1000
0001
1000
,
0100
0010
0100
0010
0100
0010
0100
0010
,
1000
0010
0001
0010
1000
0100
0001
0100
,
1000
0100
0010
0001
1000
0100
0010
0001
,
1000
0010
0100
0001
1000
0010
0100
0001
,
1000
0100
0010
0001
1000
0100
0010
0001
,
1000
0010
0001
0010
1000
0100
0001
0100
,
1000
0010
0100
0001
1000
0010
0100
0001
,
1000
0100
0010
0001
1000
0100
0010
0001
,
1000
0010
0100
0001
1000
0010
0100
0001
,
1000
0100
0001
0100
1000
0010
0001
0010
,
1000
0100
0010
0100
1000
0100
0010
0100
,
1000
0010
0100
0010
1000
0010
0100
0010
,
1000
0100
0010
0100
1000
0100
0010
0100
,
1000
0010
0001
0010
1000
0100
0001
0100
,
1000
0010
0100
0010
1000
0010
0100
0010
,
1000
0100
0010
0100
1000
0100
0010
0100
,
1000
0010
0100
0010
1000
0010
0100
0010
,
1000
0100
0001
0100
1000
0010
0001
0010
,
2002
0000
3003
0000
;
