#TITLE:Pine Nut;
#SUBTITLE:(Special);
#ARTIST:Doin;
#TITLETRANSLIT:;
#SUBTITLETRANSLIT:;
#ARTISTTRANSLIT:;
#GENRE:;
#CREDIT:;
#MUSIC:Pine Nut (Special).ogg;
#BANNER:Pine Nut (Special)-bn.png;
#BACKGROUND:Pine Nut (Special)-bg.png;
#CDTITLE:;
#SAMPLESTART:1.394;
#SAMPLELENGTH:9.150;
#SELECTABLE:YES;
#OFFSET:-0.044;
#BPMS:0.000=200.000
,4.500=100.000
,21.000=800.000
,85.000=50.000
,93.000=200.000
,221.000=400.000
,253.000=200.000
,284.000=800.000
,288.000=200.000
,304.750=800.000
,308.750=200.000
,320.000=25.000
;
#STOPS:21.000=0.038
,21.500=0.037
,22.000=0.037
,22.500=0.037
,23.000=0.038
,23.500=0.037
,24.000=0.037
,24.500=0.037
,25.000=0.038
,25.500=0.037
,26.000=0.037
,26.500=0.037
,27.000=0.038
,27.500=0.037
,28.000=0.037
,28.500=0.037
,29.000=0.038
,29.500=0.037
,30.000=0.037
,30.500=0.037
,31.000=0.038
,31.500=0.037
,32.000=0.037
,32.500=0.037
,33.000=0.038
,33.500=0.037
,34.000=0.037
,34.500=0.037
,35.000=0.038
,35.500=0.037
,36.000=0.037
,36.500=0.037
,37.000=0.038
,37.500=0.037
,38.000=0.037
,38.500=0.037
,39.000=0.038
,39.500=0.037
,40.000=0.037
,40.500=0.037
,41.000=0.038
,41.500=0.037
,42.000=0.037
,42.500=0.037
,43.000=0.038
,43.500=0.037
,44.000=0.037
,44.500=0.037
,45.000=0.038
,45.500=0.037
,46.000=0.037
,46.500=0.037
,47.000=0.038
,47.500=0.037
,48.000=0.037
,48.500=0.037
,49.000=0.038
,49.500=0.037
,50.000=0.037
,50.500=0.037
,51.000=0.038
,51.500=0.037
,52.000=0.037
,52.500=0.037
,53.000=0.038
,53.500=0.037
,54.000=0.037
,54.500=0.037
,55.000=0.038
,55.500=0.037
,56.000=0.037
,56.500=0.037
,57.000=0.038
,57.500=0.037
,58.000=0.037
,58.500=0.037
,59.000=0.038
,59.500=0.037
,60.000=0.037
,60.500=0.037
,61.000=0.038
,61.500=0.037
,62.000=0.037
,62.500=0.037
,63.000=0.038
,63.500=0.037
,64.000=0.037
,64.500=0.037
,65.000=0.038
,65.500=0.037
,66.000=0.037
,66.500=0.037
,67.000=0.038
,67.500=0.037
,68.000=0.037
,68.500=0.037
,69.000=0.038
,69.500=0.037
,70.000=0.037
,70.500=0.037
,71.000=0.038
,71.500=0.037
,72.000=0.037
,72.500=0.037
,73.000=0.037
,73.500=0.037
,74.000=0.037
,74.500=0.037
,75.000=0.038
,75.500=0.037
,76.000=0.037
,76.500=0.037
,77.000=0.038
,77.500=0.037
,78.000=0.037
,78.500=0.037
,79.000=0.038
,79.500=0.037
,80.000=0.037
,80.500=0.037
,81.000=0.038
,81.500=0.037
,82.000=0.037
,82.500=0.037
,83.000=0.038
,83.500=0.038
,84.000=0.038
,84.500=0.038
,221.000=0.038
,221.250=0.038
,221.500=0.038
,221.750=0.038
,222.000=0.038
,222.250=0.038
,222.500=0.038
,222.750=0.038
,223.000=0.038
,223.250=0.038
,223.500=0.038
,223.750=0.038
,224.000=0.038
,224.250=0.038
,224.500=0.038
,224.750=0.038
,225.000=0.038
,225.250=0.038
,225.500=0.038
,225.750=0.038
,226.000=0.038
,226.250=0.038
,226.500=0.038
,226.750=0.038
,227.000=0.038
,227.250=0.038
,227.500=0.038
,227.750=0.038
,228.000=0.038
,228.250=0.038
,228.500=0.038
,228.750=0.038
,229.000=0.038
,229.250=0.038
,229.500=0.038
,229.750=0.038
,230.000=0.038
,230.250=0.038
,230.500=0.038
,230.750=0.038
,231.000=0.038
,231.250=0.038
,231.500=0.038
,231.750=0.038
,232.000=0.038
,232.250=0.038
,232.500=0.038
,232.750=0.038
,233.000=0.038
,233.250=0.038
,233.500=0.038
,233.750=0.038
,234.000=0.038
,234.250=0.038
,234.500=0.038
,234.750=0.038
,235.000=0.038
,235.250=0.038
,235.500=0.038
,235.750=0.038
,236.000=0.038
,236.250=0.038
,236.500=0.038
,236.750=0.038
,237.000=0.038
,237.250=0.038
,237.500=0.038
,237.750=0.038
,238.000=0.038
,238.250=0.038
,238.500=0.038
,238.750=0.038
,239.000=0.038
,239.250=0.038
,239.500=0.038
,239.750=0.038
,240.000=0.038
,240.250=0.038
,240.500=0.038
,240.750=0.038
,241.000=0.038
,241.250=0.038
,241.500=0.038
,241.750=0.038
,242.000=0.038
,242.250=0.038
,242.500=0.038
,242.750=0.038
,243.000=0.038
,243.250=0.038
,243.500=0.038
,243.750=0.038
,244.000=0.038
,244.250=0.038
,244.500=0.038
,244.750=0.038
,245.000=0.038
,245.250=0.038
,245.500=0.038
,245.750=0.038
,246.000=0.038
,246.250=0.038
,246.500=0.038
,246.750=0.038
,247.000=0.038
,247.250=0.038
,247.500=0.038
,247.750=0.038
,248.000=0.038
,248.250=0.038
,248.500=0.038
,248.750=0.038
,249.000=0.038
,249.250=0.038
,249.500=0.038
,249.750=0.038
,250.000=0.038
,250.250=0.038
,250.500=0.038
,250.750=0.038
,251.000=0.038
,251.250=0.038
,251.500=0.038
,251.750=0.038
,252.000=0.038
,252.250=0.038
,252.500=0.038
,252.750=0.038
;
#DISPLAYBPM:*;
#BGCHANGES:;
#FGCHANGES:;

//--------------- dance-single - ----------------
#NOTES:
     dance-single:
     :
     Challenge:
     17:
     0,0,0,0,0:
0000
0000
0000
0000
,
0000
0000
2000
3002
2003
3000
0002
0023
0230
2300
3200
0320
0032
0003
2000
3002
,
2003
3200
0320
0230
2300
0000
3002
0000
2003
0000
3000
0000
0002
0000
0203
0000
0320
0000
2030
0000
3020
0000
0230
0000
0302
0000
0003
0000
2000
0000
3002
0000
,
2003
3020
0230
0320
2030
0000
3002
0000
2003
0000
3000
0000
0002
0000
2003
0000
3020
0000
0230
0000
0320
0000
2030
0000
3002
0000
0003
0000
2000
0000
3002
0000
,
2003
3200
0320
0032
0023
0230
2300
0000
3002
0000
0003
0000
2000
0000
3200
0000
0320
0000
0032
0000
0023
0000
0230
0000
2300
0000
3000
0000
2000
0000
3002
0000
,
2003
3200
0320
0032
2003
0000
3002
0000
1003
0000
0000
0000
0100
0000
0000
0000
1000
0000
0000
0000
0100
0000
0000
0000
1000
0000
0000
0000
0100
0000
0000
0000
,
1000
0100
0010
0001
0010
0001
0010
0001
,
0010
0001
1000
0010
1000
0010
1000
0010
,
1000
0010
0100
0001
0100
0001
0100
0001
,
0100
0001
1000
0001
1000
0001
1000
0001
,
1000
0001
0100
0010
0100
0010
0100
0010
,
0100
0010
1000
0001
1000
0001
1000
0001
,
1000
0001
0010
0100
0010
0100
0010
0100
,
0010
0100
1000
0100
1000
0100
0010
0001
,
0010
0001
1000
0010
1000
0010
0100
0001
,
0100
0001
1000
0001
1000
0001
0100
0010
,
0100
0010
1000
0001
1000
0001
0010
0100
,
0010
0100
1000
0010
1000
0010
0100
0001
,
0100
0001
1000
0100
1000
0100
0010
0001
,
0010
0001
1000
0001
1000
0001
0010
0100
,
0010
0100
1000
0001
1000
0001
1000
0100
,
0010
0000
0000
0000
0000
0000
0000
0000
0001
0000
0000
0000
0000
0000
0000
0000
2000
0000
3200
0000
0320
0000
0030
0000
0002
0000
0023
0000
0230
0000
2300
0000
3020
0000
0230
0000
0302
0000
0003
0000
0000
0000
2000
0000
3002
0023
0032
2003
3002
0203
0302
0000
2003
0000
3000
0000
0002
0000
0203
0000
0320
0000
2030
0000
,
3200
0000
0320
0000
0032
0000
0003
0000
0000
0000
0002
0000
2003
3200
2300
3002
2003
3020
2030
0000
3002
0000
0003
0000
2000
0000
3200
0000
0320
0000
0032
0000
0203
0000
0320
0000
2030
0000
3000
0000
0000
0000
0002
0000
2003
3020
2030
3002
2003
3200
2300
0000
3002
0000
0003
0000
2000
0000
3020
0000
0230
0000
0302
0000
,
0023
0000
0230
0000
2300
0000
3000
0000
0000
0000
0002
0000
0023
0230
2300
3200
1300
0000
0000
0000
0100
0000
0000
0000
1000
0000
0000
0000
0100
0000
0000
0000
0010
0000
0000
0000
0001
0000
0000
0000
0010
0000
0000
0000
0001
0000
0000
0000
1000
0000
0000
0000
0010
0000
0000
0000
1000
0000
0000
0000
0010
0000
0000
0000
,
0100
0001
0100
0001
1000
0001
1000
0001
0100
0010
0100
0010
1000
0010
1000
0010
,
0100
0001
0100
0001
1000
0100
1000
0100
0010
0001
0010
0001
1000
0001
1000
0001
,
0010
0100
0010
0100
1000
0100
0010
0001
1000
0100
0010
0001
1000
0010
0100
0001
,
1000
0010
0100
0001
1000
0010
1000
0010
0100
0001
0100
0001
1000
0100
1000
0100
,
0010
0001
0010
0001
1000
0001
1000
0001
0100
0010
0100
0010
1000
0100
1000
0100
,
0010
0001
0010
0001
1000
0010
1000
0010
0100
0001
0100
0001
1000
0001
1000
0001
,
0010
0100
0010
0100
1000
0010
0100
0001
1000
0010
0100
0001
1000
0100
0010
0001
,
1000
0100
0010
0001
1000
0100
1000
0100
1000
0010
0100
0001
0010
0001
0010
0001
,
0010
0001
0100
0010
1000
0010
1000
0010
1000
0100
0010
0001
0100
0001
0100
0001
,
0100
0001
0010
0100
1000
0100
1000
0100
1000
0010
1000
0010
0100
0010
0100
0010
,
0100
0001
0100
0001
0010
0001
0010
0001
0010
0100
0010
0100
1000
0100
1000
0100
,
1000
0000
0000
0000
0000
0000
0000
0000
0000
0000
0000
0000
0001
0000
0000
0000
0000
0000
0000
0000
0000
0000
0000
0000
1000
0000
0000
0000
0000
0000
0000
0000
0000
0000
0000
0000
0001
0000
0000
0000
0000
0000
0000
0000
0000
0000
0000
0000
1000
0000
0000
0000
0000
0000
0000
0000
0000
0000
0100
0000
0000
0000
0000
0000
0000
0000
0000
1000
0000
0000
0000
0000
0000
0000
0000
0000
0000
0010
0000
0000
0000
0000
0000
0000
0000
0000
0100
0000
0000
0000
0000
0000
0000
0000
0000
0000
0001
0000
0000
0000
0000
0000
0000
0000
0000
0000
0010
0000
0000
0000
0000
0000
0000
0000
0000
0100
0000
0000
0000
0000
0000
0000
0000
0000
0000
1000
0000
0000
0000
0000
0000
0000
0000
0000
0100
0000
0000
0000
0000
0000
0000
0000
0000
0000
0010
0000
0000
0000
0000
0000
0000
0000
0000
0000
0001
0000
0000
0000
0000
0000
0000
0000
0000
0100
0000
0000
0000
0000
0000
0000
0000
0000
0000
0010
0000
0000
0000
0000
0000
0000
0000
0000
1000
0000
0000
0000
0000
0000
0000
0000
0000
0000
,
0100
0000
0000
0000
0000
0000
0000
0000
0000
0000
1000
0000
0000
0000
0000
0000
0000
0000
0000
0010
0000
0000
0000
0000
0000
0000
0000
0000
0000
1000
0000
0000
0000
0000
0000
0000
0000
0000
0100
0000
0000
0000
0000
0000
0000
0000
0000
0000
0010
0000
0000
0000
0000
0000
0000
0000
0000
0000
0001
0000
0000
0000
0000
0000
0000
0000
0000
0100
0000
0000
0000
0000
0000
0000
0000
0000
0000
0010
0000
0000
0000
0000
0000
0000
0000
0000
1000
0000
0000
0000
0000
0000
0000
0000
0000
0000
0010
0000
0000
0000
0000
0000
0000
0000
0000
0000
0100
0000
0000
0000
0000
0000
0000
0000
0000
0001
0000
0000
0000
0000
0000
0000
0000
0000
0000
0010
0000
0000
0000
0000
0000
0000
0000
0000
0100
0000
0000
0000
0000
0000
0000
0000
0000
0000
1000
0000
0000
0000
0000
0000
0000
0000
0000
0000
0010
0000
0000
0000
0000
0000
0000
0000
0000
1000
0000
0000
0000
0000
0000
0000
0000
0000
0000
0100
0000
0000
0000
0000
0000
0000
0000
0000
0010
0000
0000
0000
0000
0000
0000
0000
0000
0000
,
0001
0000
0000
0000
0000
0000
0000
0000
0000
0000
0100
0000
0000
0000
0000
0000
0000
0000
0000
0010
0000
0000
0000
0000
0000
0000
0000
0000
0000
1000
0000
0000
0000
0000
0000
0000
0000
0000
0001
0000
0000
0000
0000
0000
0000
0000
0000
0000
1000
0000
0000
0000
0000
0000
0000
0000
0000
0000
0100
0000
0000
0000
0000
0000
0000
0000
0000
0010
0000
0000
0000
0000
0000
0000
0000
0000
0000
0001
0000
0000
0000
0000
0000
0000
0000
0000
1000
0000
0000
0000
0000
0000
0000
0000
0000
0000
0010
0000
0000
0000
0000
0000
0000
0000
0000
0000
0100
0000
0000
0000
0000
0000
0000
0000
0000
0001
0000
0000
0000
0000
0000
0000
0000
0000
0000
1000
0000
0000
0000
0000
0000
0000
0000
0000
0100
0000
0000
0000
0000
0000
0000
0000
0000
0000
0010
0000
0000
0000
0000
0000
0000
0000
0000
0000
0001
0000
0000
0000
0000
0000
0000
0000
0000
1000
0000
0000
0000
0000
0000
0000
0000
0000
0000
0010
0000
0000
0000
0000
0000
0000
0000
0000
0100
0000
0000
0000
0000
0000
0000
0000
0000
0000
,
0001
0000
0000
0000
0000
0000
0000
0000
0000
0000
1000
0000
0000
0000
0000
0000
0000
0000
0000
0100
0000
0000
0000
0000
0000
0000
0000
0000
0000
0010
0000
0000
0000
0000
0000
0000
0000
0000
0001
0000
0000
0000
0000
0000
0000
0000
0000
0000
1000
0000
0000
0000
0000
0000
0000
0000
0000
0000
0001
0000
0000
0000
0000
0000
0000
0000
0000
1000
0000
0000
0000
0000
0000
0000
0000
0000
0000
0001
0000
0000
0000
0000
0000
0000
0000
0000
1000
0000
0000
0000
0000
0000
0000
0000
0000
0000
0001
0000
0000
0000
0000
0000
0000
0000
0000
0000
1000
0000
0000
0000
0000
0000
0000
0000
0000
0001
0000
0000
0000
0000
0000
0000
0000
0000
0000
1000
0000
0000
0000
0000
0000
0000
0000
0000
0001
0000
0000
0000
0000
0000
0000
0000
0000
0000
1000
0000
0000
0000
0000
0000
0000
0000
0000
0000
0001
0000
0000
0000
0000
0000
0000
0000
0000
1000
0000
0000
0000
0000
0000
0000
0000
0000
0000
0001
0000
0000
0000
0000
0000
0000
0000
0000
1000
0000
0000
0000
0000
0000
0000
0000
0000
0000
,
0001
0000
0000
0000
0000
0000
0000
0000
0000
0000
1000
0000
0000
0000
0000
0000
0000
0000
0000
0001
0000
0000
0000
0000
0000
0000
0000
0000
0000
1000
0000
0000
0000
0000
0000
0000
0000
0000
0001
0000
0000
0000
0000
0000
0000
0000
0000
0000
1000
0000
0000
0000
0000
0000
0000
0000
0000
0000
0000
0000
0100
0000
0000
0000
0000
0000
0000
0000
0000
0000
0000
0000
1000
0000
0000
0000
0000
0000
0000
0000
0000
0000
0000
0000
0100
0000
0000
0000
0000
0000
0000
0000
0000
0000
0000
0000
1000
0000
0000
0000
0000
0000
0000
0000
0000
0000
0000
0000
0100
0000
0000
0000
0000
0000
0000
0000
0000
0000
0000
0000
0010
0000
0000
0000
0000
0000
0000
0000
0000
0000
0000
0000
0001
0000
0000
0000
0000
0000
0000
0000
0000
0000
0000
0000
1000
0000
0000
0000
0000
0000
0000
0000
0000
0000
0000
0000
0010
0000
0000
0000
0000
0000
0000
0000
0000
0000
0000
0000
1000
0000
0000
0000
0000
0000
0000
0000
0000
0000
0000
0000
0010
0000
0000
0000
0000
0000
0000
0000
0000
0000
0000
0000
,
1000
0010
0100
0001
0010
0001
0010
0001
0010
0001
1000
0100
1000
0010
0100
0001
,
0100
0001
0100
0001
1000
0001
1000
0001
1000
0001
1000
0001
0100
0010
0100
0010
,
0100
0010
0100
0010
1000
0001
0100
0010
1000
0001
0100
0010
1000
0001
0100
0010
,
1000
0001
0100
0010
1000
0010
1000
0010
1000
0010
0100
0001
1000
0100
1000
0100
,
1000
0100
0010
0001
0100
0001
0100
0001
0100
0001
1000
0010
1000
0100
0010
0001
,
0010
0001
0010
0001
0010
0100
0010
0100
0010
0100
0010
0100
1000
0001
1000
0001
,
1000
0001
1000
0001
0010
0100
1000
0001
0010
0100
1000
0001
0010
0100
1000
0001
,
0010
0100
1000
0001
1000
0100
1000
0100
0010
0001
0010
0001
1000
0100
0010
0001
,
1000
0100
0010
0001
1000
0010
1000
0010
0100
0001
0100
0001
1000
0010
0100
0001
,
1000
0010
0100
0001
1000
0100
0010
0001
1000
0100
0010
0001
1000
0010
0100
0001
,
1000
0010
0100
0001
1000
0100
0010
0001
1000
0010
0100
0001
1000
0100
0010
0001
,
1000
0000
0000
0000
0000
0000
0000
0000
0000
0000
0000
0000
0010
0000
0000
0000
0000
0000
0000
0000
0000
0000
0000
0000
0100
0000
0000
0000
0000
0000
0000
0000
0000
0000
0000
0000
0001
0000
0000
0000
0000
0000
0000
0000
0000
0000
0000
0000
1000
0000
0000
0000
0000
0000
0000
0000
0000
0000
0010
0000
0000
0000
0000
0000
0000
0000
0000
1000
0000
0000
0000
0000
0000
0000
0000
0000
0000
0100
0000
0000
0000
0000
0000
0000
0000
0000
0010
0000
0000
0000
0000
0000
0000
0000
0000
0000
0001
0000
0000
0000
0000
0000
0000
0000
0000
0000
0100
0000
0000
0000
0000
0000
0000
0000
0000
0010
0000
0000
0000
0000
0000
0000
0000
0000
0000
1000
0000
0000
0000
0000
0000
0000
0000
0000
0010
0000
0000
0000
0000
0000
0000
0000
0000
0000
0100
0000
0000
0000
0000
0000
0000
0000
0000
0000
0001
0000
0000
0000
0000
0000
0000
0000
0000
0010
0000
0000
0000
0000
0000
0000
0000
0000
0000
0100
0000
0000
0000
0000
0000
0000
0000
0000
1000
0000
0000
0000
0000
0000
0000
0000
0000
0000
,
0010
0000
0000
0000
0000
0000
0000
0000
0000
0000
1000
0000
0000
0000
0000
0000
0000
0000
0000
0100
0000
0000
0000
0000
0000
0000
0000
0000
0000
1000
0000
0000
0000
0000
0000
0000
0000
0000
0010
0000
0000
0000
0000
0000
0000
0000
0000
0000
0100
0000
0000
0000
0000
0000
0000
0000
0000
0000
0001
0000
0000
0000
0000
0000
0000
0000
0000
0010
0000
0000
0000
0000
0000
0000
0000
0000
0000
0100
0000
0000
0000
0000
0000
0000
0000
0000
1000
0000
0000
0000
0000
0000
0000
0000
0000
0000
0100
0000
0000
0000
0000
0000
0000
0000
0000
0000
0010
0000
0000
0000
0000
0000
0000
0000
0000
0001
0000
0000
0000
0000
0000
0000
0000
0000
0000
0100
0000
0000
0000
0000
0000
0000
0000
0000
0010
0000
0000
0000
0000
0000
0000
0000
0000
0000
1000
0000
0000
0000
0000
0000
0000
0000
0000
0000
0100
0000
0000
0000
0000
0000
0000
0000
0000
1000
0000
0000
0000
0000
0000
0000
0000
0000
0000
0010
0000
0000
0000
0000
0000
0000
0000
0000
0100
0000
0000
0000
0000
0000
0000
0000
0000
0000
,
0001
0000
0000
0000
0000
0000
0000
0000
0000
0000
0010
0000
0000
0000
0000
0000
0000
0000
0000
0100
0000
0000
0000
0000
0000
0000
0000
0000
0000
1000
0000
0000
0000
0000
0000
0000
0000
0000
0001
0000
0000
0000
0000
0000
0000
0000
0000
0000
1000
0000
0000
0000
0000
0000
0000
0000
0000
0000
0010
0000
0000
0000
0000
0000
0000
0000
0000
0100
0000
0000
0000
0000
0000
0000
0000
0000
0000
0001
0000
0000
0000
0000
0000
0000
0000
0000
1000
0000
0000
0000
0000
0000
0000
0000
0000
0000
0100
0000
0000
0000
0000
0000
0000
0000
0000
0000
0010
0000
0000
0000
0000
0000
0000
0000
0000
0001
0000
0000
0000
0000
0000
0000
0000
0000
0000
1000
0000
0000
0000
0000
0000
0000
0000
0000
0010
0000
0000
0000
0000
0000
0000
0000
0000
0000
0100
0000
0000
0000
0000
0000
0000
0000
0000
0000
0001
0000
0000
0000
0000
0000
0000
0000
0000
1000
0000
0000
0000
0000
0000
0000
0000
0000
0000
0100
0000
0000
0000
0000
0000
0000
0000
0000
0010
0000
0000
0000
0000
0000
0000
0000
0000
0000
,
0001
0000
0000
0000
0000
0000
0000
0000
0000
0000
1000
0000
0000
0000
0000
0000
0000
0000
0000
0010
0000
0000
0000
0000
0000
0000
0000
0000
0000
0100
0000
0000
0000
0000
0000
0000
0000
0000
0001
0000
0000
0000
0000
0000
0000
0000
0000
0000
0010
0000
0000
0000
0000
0000
0000
0000
0000
0000
0100
0000
0000
0000
0000
0000
0000
0000
0000
0010
0000
0000
0000
0000
0000
0000
0000
0000
0000
0100
0000
0000
0000
0000
0000
0000
0000
0000
0010
0000
0000
0000
0000
0000
0000
0000
0000
0000
0100
0000
0000
0000
0000
0000
0000
0000
0000
0000
0010
0000
0000
0000
0000
0000
0000
0000
0000
0100
0000
0000
0000
0000
0000
0000
0000
0000
0000
0010
0000
0000
0000
0000
0000
0000
0000
0000
0100
0000
0000
0000
0000
0000
0000
0000
0000
0000
0010
0000
0000
0000
0000
0000
0000
0000
0000
0000
0100
0000
0000
0000
0000
0000
0000
0000
0000
0010
0000
0000
0000
0000
0000
0000
0000
0000
0000
0100
0000
0000
0000
0000
0000
0000
0000
0000
0010
0000
0000
0000
0000
0000
0000
0000
0000
0000
,
0100
0000
0000
0000
0000
0000
0000
0000
0000
0000
0010
0000
0000
0000
0000
0000
0000
0000
0000
0100
0000
0000
0000
0000
0000
0000
0000
0000
0000
0010
0000
0000
0000
0000
0000
0000
0000
0000
0100
0000
0000
0000
0000
0000
0000
0000
0000
0000
1000
0000
0000
0000
0000
0000
0000
0000
0000
0000
0000
0000
0100
0000
0000
0000
0000
0000
0000
0000
0000
0000
0000
0000
0010
0000
0000
0000
0000
0000
0000
0000
0000
0000
0000
0000
0001
0000
0000
0000
0000
0000
0000
0000
0000
0000
0000
0000
0100
0000
0000
0000
0000
0000
0000
0000
0000
0000
0000
0000
0010
0000
0000
0000
0000
0000
0000
0000
0000
0000
0000
0000
0100
0000
0000
0000
0000
0000
0000
0000
0000
0000
0000
0000
0001
0000
0000
0000
0000
0000
0000
0000
0000
0000
0000
0000
0010
0000
0000
0000
0000
0000
0000
0000
0000
0000
0000
0000
0100
0000
0000
0000
0000
0000
0000
0000
0000
0000
0000
0000
1000
0000
0000
0000
0000
0000
0000
0000
0000
0000
0000
0000
0001
0000
0000
0000
0000
0000
0000
0000
0000
0000
0000
0000
,
1000
0001
1000
0001
1000
0010
0100
0001
0010
0100
0010
0001
0100
0010
1000
0001
,
1000
0001
1000
0001
1000
0100
0010
0001
1000
0100
0010
0001
1000
0010
0100
0001
,
1000
0010
0100
0001
1000
0100
0010
0100
1000
0001
0010
0100
0010
0001
1000
0001
,
1000
0001
1000
0001
1000
0010
0100
0001
0010
0100
0010
0001
0100
0010
1000
0001
,
1000
0001
1000
0001
1000
0100
0010
0001
0100
0010
0100
0001
0010
0100
1000
0001
,
1000
0001
1000
0001
1000
0010
0100
0001
1000
0010
0100
0001
1000
0100
0010
0001
,
1000
0100
0010
0001
1000
0010
0100
0010
1000
0001
0100
0010
0100
0001
1000
0001
,
1000
0001
1000
0001
1000
0100
1000
0100
0010
0001
0010
0001
1000
0010
0100
0010
,
1000
0001
0010
0100
0010
0001
1000
0010
0100
0001
0010
0100
1000
0001
1000
0001
,
0100
0010
0100
0010
1000
0100
0010
0001
1000
0010
0100
0001
1000
0100
1000
0001
,
0100
0001
1000
0001
1000
0100
1000
0010
0100
0001
0010
0100
1000
0100
0010
0001
,
0100
0010
1000
0100
1000
0010
1000
0010
0100
0001
0100
0001
1000
0100
0010
0100
,
1000
0001
0100
0010
0100
0001
1000
0100
0010
0001
0100
0010
1000
0001
1000
0001
,
0010
0100
0010
0100
1000
0010
0100
0001
1000
0100
0010
0001
1000
0010
1000
0001
,
0010
0001
1000
0001
1000
0010
1000
0100
0010
0001
0100
0010
1000
0010
0100
0001
,
0010
0100
1000
0100
,
2000
3002
2003
3000
2000
3200
0320
0032
,
0203
0000
0320
0000
2030
0000
3000
0000
2000
0000
3200
0000
0320
0032
0023
0032
,
0023
0032
0023
0000
0230
0000
0300
0000
2000
0000
3020
0000
0230
0000
0302
0000
,
0023
0000
0230
0000
2300
0000
3000
0000
2000
0000
3020
0000
0230
0302
0203
0302
,
0203
0302
0203
0302
0000
0000
0000
0000
0000
0000
0000
0000
0000
0000
0000
0000
,
0000
0000
0000
0003
2000
0000
3200
0000
0320
0000
0032
0000
0023
0000
0230
0000
,
2300
0000
3000
0000
2000
0000
3200
0000
0320
0032
0023
0230
2300
3002
2003
0000
,
3002
0003
2000
3200
0320
0032
2003
3002
,
2003
0000
0000
3000
0000
0000
0000
0000
;
