#TITLE:Pine Nut;
#SUBTITLE:(Original Version);
#ARTIST:Doin;
#TITLETRANSLIT:;
#SUBTITLETRANSLIT:;
#ARTISTTRANSLIT:;
#GENRE:;
#CREDIT:;
#MUSIC:Pine Nut (Original Version).ogg;
#BANNER:Pine Nut (Original Version)-bn.png;
#BACKGROUND:Pine Nut (Original Version)-bg.png;
#CDTITLE:;
#SAMPLESTART:1.072;
#SAMPLELENGTH:9.150;
#SELECTABLE:YES;
#OFFSET:-0.022;
#BPMS:0.000=200.000
,2.500=100.000
,19.500=200.000
,50.500=100.000
,67.500=200.000
,131.500=100.000
,147.500=200.000
,339.500=100.000
,354.000=50.000
;
#STOPS:;
#DISPLAYBPM:100.000:200.000;
#BGCHANGES:;
#FGCHANGES:;

//--------------- dance-single - ----------------
#NOTES:
     dance-single:
     :
     Beginner:
     9:
     0,0,0,0,0:
0000
0000
0000
0000
0000
0000
2000
3002
,
2003
0000
3200
0000
0320
0000
0032
2003
,
3002
0000
0023
0000
0230
0000
2300
3002
,
2003
0000
3020
0000
0230
0000
0302
2003
,
3002
0000
0203
0000
0320
0000
2030
3001
,
0000
0001
0000
0010
0000
0010
0000
0100
,
0000
0100
0000
1000
0000
1000
0000
0001
,
0000
0001
0000
0100
0000
0100
0000
0010
,
0000
0010
0000
1000
0000
1000
0000
0001
,
0000
0001
0000
0010
0000
0010
0000
0100
,
0000
0100
0000
1000
0000
1000
0000
0001
,
0000
0001
0000
0100
0000
0100
0000
0010
,
0000
0010
0000
1000
0000
1000
0002
2003
,
3002
0000
0203
0000
0320
0000
2030
3002
,
2003
0000
3020
0000
0230
0000
0302
2003
,
3002
0000
0023
0000
0230
0000
2300
3002
,
2003
0000
3200
0000
0320
0000
0032
1003
,
0000
0010
0000
0100
0000
0001
0000
1000
,
0000
0100
0000
0010
0000
0001
0000
1000
,
0000
1000
0000
0001
0000
0001
0000
0010
,
0000
0010
0000
0100
0000
0100
0000
1000
,
0000
0100
0000
0010
0000
0001
0000
1000
,
0000
0010
0000
0100
0000
0001
0000
1000
,
0000
1000
0000
0001
0000
0001
0000
0100
,
0000
0100
0000
0010
0000
0010
0000
1000
,
0000
0100
0000
0010
0001
0010
0000
0001
,
0000
0010
0000
0100
1000
0100
0000
1000
,
0000
0010
0000
0100
0001
0100
0000
0001
,
0000
0100
0000
0010
1000
0010
0000
1000
,
0000
0100
0000
0010
0001
0010
0000
0001
,
0000
0100
0000
0010
1000
0010
0000
1000
,
0000
0010
0000
0100
0001
0100
0000
0001
,
0000
0010
0000
0100
1000
0100
0000
2000
,
3002
2003
0000
3200
0000
0320
0000
0032
,
2003
3002
0000
0023
0000
0230
0000
2300
,
3002
2003
0000
3020
0000
0230
0000
0302
,
2003
3002
0000
0203
0000
0320
0000
1030
,
0000
0100
0000
0010
0000
0001
0000
1000
,
0000
0010
0000
0100
0000
0001
0000
1000
,
0000
1000
0000
0001
0000
0001
0000
0100
,
0000
0100
0000
0010
0000
0010
0000
1000
,
0000
0010
0000
0100
0000
0001
0000
1000
,
0000
0100
0000
0010
0000
0001
0000
1000
,
0000
1000
0000
0001
0000
0001
0000
0010
,
0000
0010
0000
0100
0000
0100
0000
1000
,
0000
0100
0000
0010
0001
0010
0000
0001
,
0000
0010
0000
0100
1000
0100
0000
1000
,
0000
0010
0000
0100
0001
0100
0000
0001
,
0000
0100
0000
0010
1000
0010
0000
1000
,
0100
1000
0100
1000
0100
1000
0100
0010
,
0001
0010
0001
0010
0001
0010
0001
1000
,
0010
1000
0010
1000
0010
1000
0010
0100
,
0001
0100
0001
0100
0001
0100
0001
1000
,
0100
0010
0000
0001
0010
0100
0000
1000
,
0010
0100
0000
0001
0100
0010
0000
1000
,
0100
0010
0000
0001
0100
0010
0000
1000
,
0010
0100
0000
0001
0010
0100
0000
1000
,
0100
0010
0000
0001
0100
0010
0000
1000
,
0100
0010
0000
0001
0100
0010
0000
1000
,
0010
0100
0000
0001
0010
0100
0000
1000
,
0010
0100
0000
0001
0010
0100
0000
1000
,
0100
1000
0000
0001
0100
0001
0000
1000
,
0010
1000
0000
0001
0010
0001
0000
1000
,
0100
1000
0000
0100
0010
0100
0000
0010
,
0001
0010
0000
0001
1000
0001
0000
1000
,
0010
1000
0010
1000
0010
1000
0010
0100
,
0001
0100
0001
0100
0001
0100
0001
1000
,
0100
1000
0100
1000
0100
1000
0100
0010
,
0001
0010
0001
0010
0001
0010
0001
1000
,
0100
0010
0001
1000
0100
0010
0001
1000
,
0010
0100
0001
1000
0010
0100
0001
1000
,
0100
1000
0100
0010
0001
0010
0001
1000
,
0010
1000
0010
0100
0001
0100
0001
1000
,
0010
0100
0001
1000
0010
0100
0001
1000
,
0100
0010
0001
1000
0100
0010
0001
1000
,
0010
1000
0010
0100
0001
0100
0001
1000
,
0100
1000
0100
0010
0001
0010
0001
1000
,
0001
1000
0001
1000
0001
1000
0001
0100
,
0010
0100
0010
0100
0010
0100
0010
1000
,
0001
1000
0001
1000
0001
1000
0001
0010
,
0100
0010
0100
0010
0100
0010
0100
1000
,
0100
0010
0001
0010
0100
1000
0001
1000
,
0100
0010
0001
0010
0100
1000
0001
1000
,
0010
0100
0001
0100
0010
1000
0001
1000
,
0010
0100
0001
0100
0010
1000
0001
0002
,
0000
0023
0000
0230
0000
2300
0000
3002
,
0000
0203
0000
0320
0000
2030
0000
3002
,
0000
0023
0000
0230
0000
2300
0000
3002
,
0000
2003
0000
3002
2003
0000
0000
0000
,
3000
0000
0000
0000
;

//--------------- dance-single - ----------------
#NOTES:
     dance-single:
     :
     Easy:
     13:
     0,0,0,0,0:
0000
0000
0000
0000
0000
0000
0000
0000
0000
0000
0000
0000
2000
3002
2003
0000
,
3002
0000
0023
0000
0230
0000
2300
0000
3200
0000
0320
0000
0032
2003
3002
0000
,
2003
0000
3200
0000
0320
0000
0032
0000
0023
0000
0230
0000
2300
3002
2003
0000
,
3002
0000
0203
0000
0320
0000
2030
0000
3020
0000
0230
0000
0302
2003
3002
0000
,
2003
0000
3020
0000
0230
0000
0302
0000
0203
0000
0320
0000
2030
3002
1003
0000
,
0100
0010
0001
1000
0010
0100
0001
1000
,
0100
1000
0100
0010
0001
0010
0001
1000
,
0010
0100
0001
1000
0100
0010
0001
1000
,
0010
1000
0010
0100
0001
0100
0001
1000
,
0100
0010
0001
1000
0010
0100
0001
1000
,
0010
1000
0010
0100
0001
0100
0001
1000
,
0010
0100
0001
1000
0100
0010
0001
1000
,
0100
0000
1000
0000
0100
0000
0010
0000
0001
0000
0010
0001
2000
3002
2003
3000
,
0002
0000
0203
0000
0320
0000
2030
0000
3020
0000
0230
0000
0302
2003
3002
0000
,
2003
0000
3020
0000
0230
0000
0302
0000
0203
0000
0320
0000
2030
3002
2003
0000
,
3002
0000
0023
0000
0230
0000
2300
0000
3200
0000
0320
0000
0032
2003
3002
0000
,
2003
0000
3200
0000
0320
0000
0032
0000
0023
0000
0230
0000
2300
3002
1003
0000
,
0100
0000
0010
0000
0001
0010
0000
0100
1000
0000
0100
0000
0010
0000
0001
0000
,
0010
0000
0100
0000
1000
0100
0000
0010
0001
0000
0010
0000
0100
0000
1000
0000
,
0010
0000
0100
0000
0001
0000
1000
0000
0100
0000
0010
0000
0001
0000
1000
0100
,
1000
0000
0001
0100
0001
0000
1000
0010
1000
0000
0001
0010
0001
0000
1000
0000
,
0010
0000
0100
0000
0001
0100
0000
0010
1000
0000
0010
0000
0100
0000
0001
0000
,
0100
0000
0010
0000
1000
0010
0000
0100
0001
0000
0100
0000
0010
0000
1000
0000
,
0100
0000
0010
0000
0001
0000
1000
0000
0010
0000
0100
0000
0001
0000
1000
0010
,
1000
0000
0001
0010
0001
0000
1000
0100
1000
0000
0001
0100
0001
0000
1000
0000
,
0100
0000
0010
0000
0001
1000
0001
0000
0010
0000
0100
0000
1000
0000
0001
0000
,
0010
0000
0100
0000
1000
0001
1000
0000
0100
0000
0010
0000
0001
0000
1000
0000
,
0010
0000
0100
0000
0001
1000
0001
0000
0100
0000
0010
0000
1000
0000
0001
0000
,
0100
0000
0010
0000
1000
0001
1000
0000
0010
0000
0100
0000
0001
0000
1000
0000
,
0100
0000
0010
0000
0001
1000
0001
0000
0100
0000
0010
0000
1000
0000
0001
0000
,
0010
0000
0100
0000
1000
0001
1000
0000
0010
0000
0100
0000
0001
0000
1000
0000
,
0010
0000
0100
0000
0001
1000
0001
0000
0010
0000
0100
0000
1000
0000
0001
0000
,
0100
0000
0010
0000
1000
0001
1000
0000
0100
0000
0010
0000
0001
0000
2000
3002
,
2003
0000
3002
0000
0203
0000
0320
0000
2030
0000
3200
0000
0320
0000
0032
2003
,
3002
0000
2003
0000
3020
0000
0230
0000
0302
0000
0023
0000
0230
0000
2300
3002
,
2003
0000
3002
0000
0023
0000
0230
0000
2300
0000
3020
0000
0230
0000
0302
2003
,
3002
2003
3200
0320
0032
0203
0320
1030
,
0100
0000
0010
0000
0001
0010
0000
0100
1000
0000
0001
0000
1000
0000
0001
0000
,
0010
0000
0100
0000
1000
0100
0000
0010
0001
0000
1000
0000
0001
0000
1000
0000
,
0010
0000
0100
0000
0001
0100
0000
0010
1000
0000
0001
0000
1000
0000
0001
0000
,
0100
0000
0010
0000
1000
0010
0000
0100
0001
0000
1000
0000
0001
0000
1000
0000
,
0100
0000
0010
0000
0001
0000
1000
0000
0010
0000
0100
0000
0001
0000
1000
0010
,
0000
0100
0001
0000
1000
0100
0000
0010
0001
0000
1000
0000
0001
0000
1000
0000
,
0010
0000
0100
0000
0001
0000
1000
0000
0100
0000
0010
0000
0001
0000
1000
0100
,
0000
0010
0001
0000
1000
0010
0000
0100
0001
0000
1000
0000
0001
0000
1000
0000
,
0100
0000
0010
0000
0001
0000
1000
0001
1000
0000
0001
0000
1000
0000
0001
0000
,
0010
0000
0100
0000
1000
0000
0001
1000
0001
0000
1000
0000
0001
0000
1000
0000
,
0010
0000
0100
0000
0001
0000
1000
0001
1000
0000
0001
0000
1000
0000
0001
0000
,
0100
0000
0010
0000
1000
0000
0001
1000
0001
0000
1000
0000
0001
0000
1000
0100
,
1000
0100
1000
0100
1000
0000
0100
1000
0100
1000
0100
1000
0100
0000
0010
0001
,
0010
0001
0010
0001
0010
0000
0001
0010
0001
0010
0001
0010
0001
0000
1000
0010
,
1000
0010
1000
0010
1000
0000
0010
1000
0010
1000
0010
1000
0010
0000
0100
0001
,
0100
0001
0100
0001
0100
0000
0001
0100
0001
0100
0001
0100
0001
0000
1000
0000
,
0100
0000
0010
0000
0001
0000
1000
0001
1000
0001
1000
0001
1000
0000
0001
0000
,
0010
0000
0100
0000
1000
0000
0001
1000
0001
1000
0001
1000
0001
0000
1000
0000
,
0010
0000
0100
0000
0001
0000
1000
0001
1000
0001
1000
0001
1000
0000
0001
0000
,
0100
0000
0010
0000
1000
0000
0001
1000
0001
1000
0001
1000
0001
0000
1000
0100
,
1000
0000
0100
0000
0010
0000
0001
0010
0001
0000
1000
0010
1000
0000
0001
0010
,
0001
0000
0010
0000
0100
0000
1000
0100
1000
0000
0001
0100
0001
0000
1000
0010
,
1000
0000
0010
0000
0100
0000
0001
0100
0001
0000
1000
0100
1000
0000
0001
0100
,
0001
0000
0100
0000
0010
0000
1000
0010
1000
0000
0001
0010
0001
0000
1000
0100
,
1000
0000
0100
0000
0010
0000
0001
0100
0001
0000
1000
0100
1000
0000
0001
0010
,
0001
0000
0010
0000
0100
0000
1000
0010
1000
0000
0001
0010
0001
0000
1000
0010
,
1000
0000
0010
0000
0100
0000
0001
0010
0001
0000
1000
0010
1000
0000
0001
0100
,
0001
0000
0100
0000
0010
0000
1000
0100
1000
0000
0001
0100
0001
0000
1000
0010
,
1000
0010
1000
0010
1000
0000
0010
1000
0010
1000
0010
1000
0010
0000
0100
0001
,
0100
0001
0100
0001
0100
0000
0001
0100
0001
0100
0001
0100
0001
0000
1000
0100
,
1000
0100
1000
0100
1000
0000
0100
1000
0100
1000
0100
1000
0100
0000
0010
0001
,
0010
0001
0010
0001
0010
0000
0001
0010
0001
0010
0001
0010
0001
0000
1000
0100
,
1000
0100
1000
0100
1000
0100
1000
0100
1000
0100
1000
0000
0001
0000
0010
0001
,
0010
0001
0010
0001
0010
0001
0010
0001
0010
0001
0010
0000
0001
0000
1000
0010
,
1000
0010
1000
0010
1000
0010
1000
0010
1000
0010
1000
0000
0001
0000
0100
0001
,
0100
0001
0100
0001
0100
0001
0100
0001
0100
0001
0100
0000
0001
0000
1000
0001
,
1000
0001
1000
0001
1000
0001
1000
0001
1000
0001
1000
0000
0001
0000
0100
0010
,
0100
0010
0100
0010
0100
0010
0100
0010
0100
0010
0100
0000
0001
0000
1000
0001
,
1000
0001
1000
0001
1000
0001
1000
0001
1000
0001
1000
0000
0001
0000
0010
0100
,
0010
0100
0010
0100
0010
0100
0010
0100
0010
0100
0010
0000
0001
0000
1000
0000
,
0100
0010
0001
0000
1000
0001
0000
1000
,
0010
0100
0001
0000
1000
0001
0000
1000
,
0100
0010
0001
1000
0010
0100
0001
1000
,
0100
0010
0001
1000
0010
0100
0001
1000
,
0010
0100
0001
0000
0100
0010
0000
1000
,
0100
0010
0001
0000
0010
0100
0000
1000
,
0010
0100
0001
1000
0100
0010
0001
1000
,
0010
0000
0100
0000
0001
0000
1000
0000
0100
0000
0010
0000
0001
0000
2000
3002
,
2003
0000
3002
0000
0023
0000
0230
0000
2300
0000
3200
0000
0320
0000
0032
2003
,
3002
0000
2003
0000
3200
0000
0320
0000
0032
0000
0023
0000
0230
0000
2300
3002
,
2003
0000
3002
0000
0023
0000
0230
0000
2300
0000
3200
0000
0320
0000
0032
2003
,
3002
2003
3002
2003
3002
0000
0000
0000
,
0003
0000
0000
0000
;

//--------------- dance-single - ----------------
#NOTES:
     dance-single:
     :
     Medium:
     14:
     0,0,0,0,0:
0000
0000
0000
0000
0000
0000
0000
0000
0000
0000
0000
0000
2000
3002
2003
3000
,
0002
0023
0230
2300
3200
0320
0032
0003
2000
3020
0230
0302
2003
3002
2003
3000
,
0002
0203
0320
2030
3020
0230
0302
0003
2000
3200
0320
0032
2003
3002
2003
3000
,
0002
0023
0230
2300
3020
0230
0302
0003
2000
3002
0203
0320
2030
3002
2003
3000
,
0002
0203
0320
2030
3200
0320
0032
0003
2000
3002
0023
0230
2300
3002
1003
0100
,
1000
0000
0100
1000
0100
0000
1000
0000
0100
0000
0010
0000
0001
0000
0010
0001
,
0010
0000
0001
0010
0001
0000
0010
0000
0001
0000
1000
0000
0100
0000
1000
0010
,
1000
0000
0010
1000
0010
0000
1000
0000
0010
0000
0100
0000
0001
0000
0100
0001
,
0100
0000
0001
0100
0001
0000
0100
0000
0001
0000
1000
0000
0010
0000
1000
0100
,
1000
0000
0001
0100
0001
0000
1000
0000
0100
0000
0010
0000
0001
0000
1000
0010
,
1000
0000
0001
0010
0001
0000
1000
0000
0010
0000
0100
0000
0001
0000
1000
0100
,
1000
0000
0001
0010
0001
0000
1000
0000
0001
0000
0100
0000
0010
0000
1000
0010
,
1000
0000
0000
0000
0001
0000
0100
0000
0001
0000
0000
0000
1000
0000
0000
0000
0001
0000
0000
0000
0010
0100
0010
0100
2000
0000
3002
0000
2003
0000
3000
0000
,
0002
0203
0320
2030
3020
0230
0302
0003
2000
3200
0320
0032
2003
3002
2003
3000
,
0002
0023
0230
2300
3200
0320
0032
0003
2000
3020
0230
0302
2003
3002
2003
3000
,
0002
0203
0320
2030
3200
0320
0032
0003
2000
3002
0023
0230
2300
3002
2003
3000
,
0002
0023
0230
2300
3020
0230
0302
0003
2000
3002
0203
0320
2030
3002
1003
0100
,
1000
0000
0100
0010
0100
0000
0010
0001
0010
0000
0001
1000
0001
0000
1000
0010
,
1000
0000
0010
0100
0010
0000
0100
0001
0100
0000
0001
1000
0001
0000
1000
0100
,
0010
0000
0001
0010
0100
0000
1000
0100
0010
0000
0001
0010
0100
0000
1000
0100
,
0010
0001
1000
0000
0001
0000
1000
0010
0100
0001
1000
0000
0001
0000
1000
0010
,
1000
0000
0010
0100
0010
0000
0100
0001
0100
0000
0001
1000
0001
0000
1000
0100
,
1000
0000
0100
0010
0100
0000
0010
0001
0010
0000
0001
1000
0001
0000
1000
0010
,
0100
0000
0001
0100
0010
0000
1000
0010
0100
0000
0001
0100
0010
0000
1000
0010
,
0100
0001
1000
0000
0001
0000
1000
0100
0010
0001
1000
0000
0001
0000
1000
0100
,
1000
0100
1000
0000
0100
0000
0010
0001
0010
0001
0010
0000
0001
0000
1000
0010
,
1000
0010
1000
0000
0010
0000
0100
0001
0100
0001
0100
0000
0001
0000
1000
0100
,
0010
0001
0100
0000
0010
0000
1000
0100
0010
0001
0100
0000
0010
0000
1000
0010
,
0100
0001
0010
0000
0100
0000
1000
0010
0100
0001
0010
0000
0100
0000
1000
0010
,
1000
0010
1000
0000
0010
0000
0100
0001
0100
0001
0100
0000
0001
0000
1000
0100
,
1000
0100
1000
0000
0100
0000
0010
0001
0010
0001
0010
0000
0001
0000
1000
0010
,
0100
0001
0010
0000
0100
0000
1000
0010
0100
0001
0010
0000
0100
0000
1000
0100
,
0010
0001
0100
0000
0010
0000
1000
0100
0010
0001
0100
0000
0010
0000
2000
3002
,
2003
3000
0002
0023
0032
0023
0230
2300
3200
0300
0020
0230
0320
0230
2300
3002
,
2003
3000
0002
0203
0302
0203
0320
2030
3020
0030
0200
0320
0230
0320
2030
3002
,
2003
3000
0200
2300
3200
2300
3002
0023
0032
0003
0200
0320
0230
0320
2030
3002
,
2003
3000
0020
2030
3020
2030
3002
0203
0302
0003
0020
0230
0320
0230
1300
0100
,
0000
0010
0001
0000
1000
0001
1000
0001
1000
0001
1000
0001
1000
0000
0001
0010
,
0000
0100
1000
0000
0001
1000
0001
1000
0001
1000
0001
1000
0001
0000
1000
0100
,
1000
0000
0001
0100
0001
0000
1000
0010
1000
0000
0001
0010
0001
0000
1000
0001
,
1000
0001
1000
0000
0001
0000
0100
0010
0100
0010
0100
0000
0010
0000
1000
0010
,
0000
0100
0001
0000
0010
0100
0010
0100
0010
0100
0010
0100
0010
0000
0001
0100
,
0000
0010
1000
0000
0100
0010
0100
0010
0100
0010
0100
0010
0100
0000
1000
0010
,
1000
0000
0001
0010
0001
0000
1000
0100
1000
0000
0001
0100
0001
0000
1000
0001
,
1000
0001
1000
0000
0001
0000
0010
0100
0010
0100
0010
0000
0100
0000
1000
0010
,
0100
0000
0001
0100
0010
0000
1000
0100
0010
0000
0001
0010
0100
0000
1000
0100
,
0010
0000
0001
0010
0100
0000
1000
0010
0100
0000
0001
0100
0010
0000
1000
0100
,
1000
0000
0001
0100
0001
0000
1000
0010
0100
0000
0001
0100
0010
0000
1000
0010
,
1000
0000
0001
0010
0001
0000
1000
0100
0010
0000
0001
0010
0100
0000
1000
0100
,
1000
0100
1000
0100
1000
0100
1000
0100
1000
0100
1000
0000
0100
0000
0010
0001
,
0010
0001
0010
0001
0010
0001
0010
0001
0010
0001
0010
0000
0001
0000
1000
0010
,
1000
0010
1000
0010
1000
0010
1000
0010
1000
0010
1000
0000
0010
0000
0100
0001
,
0100
0001
0100
0001
0100
0001
0100
0001
0100
0001
0100
0000
0001
0000
1000
0000
,
0100
0000
0010
0000
0001
0010
0001
0010
0100
1000
0100
0010
0001
0000
1000
0000
,
0010
0000
0100
0000
0001
0100
0001
0100
0010
1000
0010
0100
0001
0000
1000
0000
,
0100
0000
0010
0000
0001
0100
0001
0100
0010
1000
0010
0100
0001
0000
1000
0000
,
0010
0000
0100
0000
0001
0010
0001
0010
0100
1000
0100
0010
0001
0000
1000
0000
,
0100
0000
0010
0000
0001
0010
0100
1000
0100
1000
0100
0010
0001
0000
1000
0000
,
0010
0000
0100
0000
0001
0100
0010
1000
0010
1000
0010
0100
0001
0000
1000
0000
,
0100
0000
0010
0000
0001
0100
0010
1000
0010
1000
0010
0100
0001
0000
1000
0000
,
0010
0000
0100
0000
0001
0010
0100
1000
0100
1000
0100
0010
0001
0000
1000
0100
,
1000
0100
1000
0000
0001
0010
0100
1000
0001
0010
0100
1000
0001
0000
1000
0010
,
1000
0010
1000
0000
0001
0100
0010
1000
0001
0100
0010
1000
0001
0000
1000
0100
,
1000
0100
1000
0000
0001
0100
0010
1000
0001
0100
0010
1000
0001
0000
1000
0010
,
1000
0010
1000
0000
0001
0010
0100
1000
0001
0010
0100
1000
0001
0000
1000
0100
,
1000
0100
1000
0100
1000
0100
1000
0100
1000
0100
1000
0100
1000
0000
0001
0010
,
0001
0010
0001
0010
0001
0010
0001
0010
0001
0010
0001
0010
0001
0000
1000
0010
,
1000
0010
1000
0010
1000
0010
1000
0010
1000
0010
1000
0010
1000
0000
0001
0100
,
0001
0100
0001
0100
0001
0100
0001
0100
0001
0100
0001
0100
0001
0000
1000
0100
,
1000
0100
1000
0100
1000
0100
1000
0100
1000
0100
1000
0100
1000
0100
0010
0001
,
0010
0001
0010
0001
0010
0001
0010
0001
0010
0001
0010
0001
0010
0001
1000
0010
,
1000
0010
1000
0010
1000
0010
1000
0010
1000
0010
1000
0010
1000
0010
0100
0001
,
0100
0001
0100
0001
0100
0001
0100
0001
0100
0001
0100
0001
0100
0001
1000
0001
,
1000
0001
1000
0001
1000
0001
1000
0001
1000
0001
1000
0001
1000
0001
0100
0010
,
0100
0010
0100
0010
0100
0010
0100
0010
0100
0010
0100
0010
0100
0010
1000
0001
,
1000
0001
1000
0001
1000
0001
1000
0001
1000
0001
1000
0001
1000
0001
0010
0100
,
0010
0100
0010
0100
0010
0100
0010
0100
0010
0100
0010
0100
0010
0100
1000
0000
,
0100
0010
0001
1000
0010
0100
0001
1000
,
0100
0000
0010
0000
0100
0000
1000
0000
0010
0000
0100
0000
0010
0000
1000
0100
,
0010
0001
1000
0000
0001
0000
1000
0010
0100
0001
1000
0000
0001
0000
1000
0010
,
0100
0010
1000
0100
0010
0100
1000
0100
0010
0001
1000
0010
0100
0001
1000
0000
,
0100
0010
0001
1000
0010
0100
0001
1000
,
0100
0010
0001
1000
0010
0100
0001
1000
,
0100
0000
1000
0000
0100
0000
0010
0000
0001
0000
0010
0000
0001
0000
1000
0100
,
0010
0001
1000
0100
0010
0001
1000
0010
0100
0001
1000
0010
0100
0001
2000
3002
,
2003
3000
0002
2003
3002
2003
3002
2003
3002
0003
2000
3002
2003
3002
2003
3002
,
2003
3000
0002
2003
3002
2003
3002
2003
3002
0003
2000
3002
2003
3002
2003
3002
,
2003
3000
0002
2003
3002
2003
3002
2003
3002
0003
2000
3002
2003
3002
2003
3002
,
2003
3000
0002
2003
3002
2003
3002
2003
3002
0000
0000
0000
0000
0000
0000
0000
,
0003
0000
0000
0000
;

//--------------- dance-single - ----------------
#NOTES:
     dance-single:
     :
     Hard:
     15:
     0,0,0,0,0:
0000
0000
0000
0000
0000
0000
0000
0000
0000
0000
0000
0000
2000
3002
2003
3000
,
0002
0000
0023
0000
0230
0000
2300
0000
3200
0000
0320
0000
0032
0000
0003
0000
2000
0000
3200
0320
0032
0023
0230
2300
3200
0320
0032
0000
2003
0000
3000
0000
,
0002
0000
0203
0000
0320
0000
2030
0000
3020
0000
0230
0000
0302
0000
0003
0000
2000
0000
3020
0230
0302
0203
0320
2030
3020
0230
0302
0000
2003
0000
3000
0000
,
0002
0000
0023
0000
0032
0000
2003
0000
3002
0000
0203
0000
0302
0000
0003
0000
2000
0000
3200
0320
0032
0203
0320
2030
3200
0320
0032
0000
2003
0000
3000
0000
,
0002
0000
0023
0000
0230
0000
2300
0000
3020
0000
0230
0000
0302
0000
0003
0000
2000
0000
3020
0230
0302
0023
0230
2300
3002
2003
3002
0000
1003
0000
0100
0000
,
1000
0100
1000
0100
1000
0100
1000
0100
1000
0100
1000
0000
1000
0000
0001
0010
,
0001
0010
0001
0010
0001
0010
0001
0010
0001
0010
0001
0000
0001
0000
1000
0010
,
1000
0010
1000
0010
1000
0010
1000
0010
1000
0010
1000
0000
1000
0000
0001
0100
,
0001
0100
0001
0100
0001
0100
0001
0100
0001
0100
0001
0000
0001
0000
1000
0001
,
1000
0001
1000
0001
1000
0001
1000
0001
1000
0001
1000
0000
0001
0000
0100
0010
,
0100
0010
0100
0010
0100
0010
0100
0010
0100
0010
0100
0000
0100
0000
0001
1000
,
0001
1000
0001
1000
0001
1000
0001
1000
0001
1000
0001
0000
1000
0000
0010
0100
,
0010
0000
0100
0000
0010
0000
0100
0000
0010
0000
0100
0000
0010
0000
0100
0000
0010
0000
0100
0000
0010
0100
0010
0100
2000
0000
3002
0000
2003
0000
3000
0000
,
0002
0000
0203
0000
0320
0000
2030
0000
3020
0000
0230
0000
0302
0000
0003
0000
2000
0000
3020
0230
0302
0203
0320
2030
3020
0230
0302
0000
2003
0000
3000
0000
,
0002
0000
0023
0000
0230
0000
2300
0000
3200
0000
0320
0000
0032
0000
0003
0000
2000
0000
3200
0320
0032
0023
0230
2300
3200
0320
0032
0000
2003
0000
3000
0000
,
0002
0000
0203
0000
0302
0000
2003
0000
3002
0000
0023
0000
0032
0000
0003
0000
2000
0000
3020
0230
0302
0023
0230
2300
3020
0230
0302
0000
2003
0000
3000
0000
,
0002
0000
0203
0000
0320
0000
2030
0000
3200
0000
0320
0000
0032
0000
0003
0000
2000
0000
3200
0320
0032
0203
0320
2030
3002
2003
3002
0000
1003
0000
0100
0000
,
0010
0001
1000
0100
0010
0001
1000
0100
1000
0100
1000
0000
1000
0000
0001
0010
,
0100
1000
0001
0010
0100
1000
0001
0010
0001
0010
0001
0000
0001
0000
1000
0010
,
0100
0001
1000
0010
0100
0001
1000
0010
1000
0010
1000
0000
1000
0000
0001
0100
,
0010
1000
0001
0100
0010
1000
0001
0100
0001
0100
0001
0000
0001
0000
1000
0100
,
0010
0001
1000
0100
0010
0001
0010
0001
0010
0001
0010
0000
0010
0000
0001
0010
,
0100
1000
0001
0010
0100
1000
0100
1000
0100
1000
0100
0000
0100
0000
1000
0010
,
0100
0001
1000
0010
0100
0001
0100
0001
0100
0001
0100
0000
0100
0000
0001
0100
,
0010
1000
0001
0100
0010
1000
0010
1000
0010
1000
0010
0000
0010
0000
1000
0100
,
0010
0001
1000
0010
0100
0001
1000
0100
1000
0100
1000
0000
1000
0000
0001
0010
,
0100
1000
0001
0100
0010
1000
0001
0010
0001
0010
0001
0000
0001
0000
1000
0010
,
0100
0001
1000
0100
0010
0001
1000
0010
1000
0010
1000
0000
1000
0000
0001
0100
,
0010
1000
0001
0010
0100
1000
0001
0100
0001
0100
0001
0000
0001
0000
1000
0100
,
0010
0001
1000
0010
0100
0001
0010
0001
0010
0001
0010
0000
0010
0000
0001
0010
,
0100
1000
0001
0100
0010
1000
0100
1000
0100
1000
0100
0000
0100
0000
1000
0010
,
0100
0001
1000
0100
0010
0001
0100
0001
0100
0001
0100
0000
0100
0000
0001
0100
,
0010
1000
0001
0010
0100
1000
0010
1000
0010
1000
0010
0000
1000
0000
0002
2003
,
3002
0000
0003
0000
2000
0000
3200
0000
0320
0000
0032
0000
0023
0000
0230
0000
2300
0000
3000
0000
0002
0000
0023
0230
2300
3200
0320
0032
0023
0230
2300
0000
,
3002
0000
0003
0000
2000
0000
3020
0000
0230
0000
0302
0000
0203
0000
0320
0000
2030
0000
3000
0000
0002
0000
0203
0320
2030
3020
0230
0302
0203
0320
2030
0000
,
3002
0000
0003
0000
2000
0000
3200
0000
2300
0000
3002
0000
2003
0000
3020
0000
2030
0000
3000
0000
0002
0000
0023
0230
2300
3020
0230
0302
0023
0230
2300
0000
,
3002
0000
0003
0000
2000
0000
3200
0000
0320
0000
0032
0000
0203
0000
0320
0000
2030
0000
3000
0000
0002
0000
0203
0320
2030
3200
0320
0032
1003
0000
0100
0000
,
1000
0100
0010
0001
0010
0001
1000
0100
0010
0001
1000
0100
1000
0000
0001
0010
,
0001
0010
0100
1000
0100
1000
0001
0010
0100
1000
0001
0010
0001
0000
1000
0010
,
1000
0010
0100
0001
0100
0001
1000
0010
0100
0001
0010
0001
0010
0000
0001
0100
,
0001
0100
0010
1000
0010
1000
0001
0100
0010
1000
0100
1000
0100
0000
1000
0100
,
1000
0100
1000
0010
1000
0010
1000
0010
0100
0010
0100
0001
0100
0000
0001
0010
,
0001
0010
0001
0100
0001
0100
0001
0100
0010
0100
0010
1000
0010
0000
1000
0010
,
1000
0010
1000
0100
1000
0100
1000
0100
0010
0100
0010
0001
0010
0000
0001
0100
,
0001
0100
0001
0010
0001
0010
0001
0010
0100
0010
0100
1000
0100
0000
1000
0100
,
1000
0100
0010
0001
0010
0001
1000
0010
1000
0010
0100
0001
0100
0001
1000
0100
,
0010
0001
1000
0010
0100
0001
1000
0100
1000
0000
0001
0100
0001
0000
1000
0010
,
1000
0010
0100
0001
0100
0001
1000
0100
1000
0100
0010
0001
0010
0001
1000
0010
,
0100
0001
1000
0100
0010
0001
1000
0010
1000
0000
0001
0010
0001
0000
1000
0100
,
1000
0100
1000
0100
1000
0100
0010
0001
0010
0001
0010
0001
0010
0001
1000
0010
,
1000
0010
1000
0010
1000
0010
0100
0001
0100
0001
0100
0001
0100
0001
1000
0001
,
1000
0001
1000
0001
1000
0001
0100
0010
0100
0010
0100
0010
0100
0010
1000
0001
,
1000
0001
1000
0001
1000
0001
0010
0100
0010
0100
0010
0100
0010
0100
1000
0100
,
0010
0001
0010
0100
1000
0100
0010
0001
0010
0100
1000
0001
1000
0000
1000
0010
,
0100
0001
0100
0010
1000
0010
0100
0001
0100
0010
1000
0001
1000
0000
1000
0100
,
0010
0001
0100
0010
1000
0010
0100
0001
0010
0100
1000
0001
1000
0000
1000
0010
,
0100
0001
0010
0100
1000
0100
0010
0001
0100
0010
1000
0001
1000
0000
1000
0100
,
0010
0001
0100
0010
1000
0100
0010
0001
0100
0010
1000
0001
1000
0000
1000
0010
,
0100
0001
0010
0100
1000
0010
0100
0001
0010
0100
1000
0001
1000
0000
1000
0100
,
0010
0001
0010
0100
1000
0010
0100
0001
0100
0010
1000
0001
1000
0000
1000
0010
,
0100
0001
0100
0010
1000
0100
0010
0001
0010
0100
1000
0001
1000
0000
1000
0100
,
1000
0010
0100
0001
0010
0100
1000
0100
0010
0001
0100
0010
1000
0100
1000
0001
,
1000
0001
1000
0001
1000
0010
0100
0010
0100
0010
0100
0001
1000
0000
1000
0010
,
1000
0100
0010
0001
0100
0010
1000
0010
0100
0001
0010
0100
1000
0010
1000
0001
,
1000
0001
1000
0001
1000
0100
0010
0100
0010
0100
0010
0001
1000
0000
1000
0010
,
1000
0010
1000
0010
1000
0010
0100
0001
0100
0001
0100
0001
0100
0001
1000
0100
,
1000
0100
1000
0100
1000
0100
0010
0001
0010
0001
0010
0001
0010
0001
1000
0001
,
1000
0001
1000
0001
1000
0001
0010
0100
0010
0100
0010
0100
0010
0100
1000
0001
,
1000
0001
1000
0001
1000
0001
0100
0010
0100
0010
0100
0010
0100
0010
1000
0100
,
1000
0100
1000
0100
1000
0100
1000
0100
1000
0100
1000
0100
1000
0100
0010
0001
,
0010
0001
0010
0001
0010
0001
0010
0001
0010
0001
0010
0001
0010
0001
1000
0010
,
1000
0010
1000
0010
1000
0010
1000
0010
1000
0010
1000
0010
1000
0010
0100
0001
,
0100
0001
0100
0001
0100
0001
0100
0001
0100
0001
0100
0001
0100
0001
1000
0001
,
1000
0001
1000
0001
1000
0001
1000
0001
1000
0001
1000
0001
1000
0001
0100
0010
,
0100
0010
0100
0010
0100
0010
0100
0010
0100
0010
0100
0010
0100
0010
1000
0001
,
1000
0001
1000
0001
1000
0001
1000
0001
1000
0001
1000
0001
1000
0001
0010
0100
,
0010
0100
0010
0100
0010
0100
0010
0100
0010
0100
0010
0100
0010
0100
1000
0100
,
0010
0000
0001
0010
0100
0000
1000
0100
1000
0100
0010
0001
0010
0001
1000
0010
,
0100
0000
0001
0100
0010
0000
1000
0010
1000
0010
0100
0001
0100
0001
1000
0100
,
1000
0100
0010
0001
0010
0001
1000
0100
0010
0001
1000
0010
1000
0000
1000
0100
,
1000
0010
0100
0001
0010
0100
0010
0001
0100
0010
1000
0100
1000
0000
0001
0010
,
0100
0000
1000
0100
0010
0000
0001
0010
0001
0010
0100
1000
0100
1000
0001
0100
,
0010
0000
1000
0010
0100
0000
0001
0100
0001
0100
0010
1000
0010
1000
0001
0010
,
0001
0010
0100
1000
0100
1000
0001
0100
0010
1000
0001
0010
0001
0000
0001
0100
,
0001
0010
0100
1000
0010
0100
0010
1000
0100
0010
0001
0100
0001
0010
0200
2300
,
3002
0000
0003
0000
0002
0000
0023
0000
0230
0000
2300
0000
3200
0000
0320
0000
0032
0000
0003
0000
2000
0000
3002
0000
2003
3200
0320
0230
2300
0000
3020
0000
,
0230
0000
0300
0000
0002
0000
0203
0000
0320
0000
2030
0000
3020
0000
0230
0000
0302
0000
0003
0000
2000
0000
3002
0000
2003
3020
0230
0320
2030
0000
3002
0000
,
2003
0000
3000
0000
0002
0000
0023
0000
0230
0000
0320
0000
0032
0000
0023
0000
0230
0000
0300
0000
2000
0000
3002
0000
2003
3002
2003
3002
2003
0000
3002
0000
,
2003
3000
0002
0023
0230
2300
3002
2003
3002
0000
0000
0000
0000
0000
0000
0000
,
0003
0000
0000
0000
;

//--------------- dance-single - ----------------
#NOTES:
     dance-single:
     :
     Challenge:
     16:
     0,0,0,0,0:
0000
0000
0000
0000
0000
0000
0000
0000
0000
0000
0000
0000
2000
3002
2003
3000
,
0002
0000
0023
0000
0230
0000
2300
0000
3200
0000
0320
0000
0032
0000
0003
0000
2000
0000
3002
0000
2003
3200
0320
0230
2300
3200
0320
0032
2003
0000
3000
0000
,
0002
0000
0203
0000
0320
0000
2030
0000
3020
0000
0230
0000
0302
0000
0003
0000
2000
0000
3002
0000
2003
3020
0230
0320
2030
3020
0230
0302
2003
0000
3000
0000
,
0002
0000
2003
0000
3020
0000
0230
0000
0320
0000
2030
0000
3002
0000
0003
0000
2000
0000
3002
0000
2003
3200
0320
0032
0023
0230
2300
3002
2003
0000
3000
0000
,
2000
0000
3200
0000
0320
0000
0032
0000
0023
0000
0230
0000
2300
0000
3000
0000
2000
0000
3002
0000
2003
3200
0320
0032
2003
3002
2003
3002
1003
0000
0100
0000
,
1000
0100
1000
0100
1000
0100
0010
0001
0010
0001
0010
0001
0010
0001
1000
0010
,
1000
0010
1000
0010
1000
0010
0100
0001
0100
0001
0100
0001
0100
0001
1000
0001
,
1000
0001
1000
0001
1000
0001
0100
0010
0100
0010
0100
0010
0100
0010
1000
0001
,
1000
0001
1000
0001
1000
0001
0010
0100
0010
0100
0010
0100
0010
0100
1000
0100
,
1000
0100
0010
0001
0010
0001
1000
0010
1000
0010
0100
0001
0100
0001
1000
0001
,
1000
0001
0100
0010
0100
0010
1000
0001
1000
0001
0010
0100
0010
0100
1000
0010
,
1000
0010
0100
0001
0100
0001
1000
0100
1000
0100
0010
0001
0010
0001
1000
0001
,
1000
0000
0001
0000
0010
0000
0100
0000
0010
0000
0100
0000
1000
0000
0001
0000
1000
0000
0001
0000
1000
0100
0010
0001
2000
0000
3002
0000
2003
0000
3000
0000
,
0002
0000
0023
0000
0230
0000
2300
0000
3200
0000
0320
0000
0032
0000
0003
0000
2000
0000
3002
0000
2003
3200
0320
0230
2300
3020
0230
0302
2003
0000
3000
0000
,
0002
0000
0203
0000
0320
0000
2030
0000
3020
0000
0230
0000
0302
0000
0003
0000
2000
0000
3002
0000
2003
3020
0230
0320
2030
3200
0320
0032
2003
0000
3000
0000
,
0002
0000
2003
0000
3020
0000
0230
0000
0320
0000
2030
0000
3002
0000
0003
0000
2000
0000
3002
0000
2003
3200
0320
0032
0023
0230
2300
3002
2003
0000
3000
0000
,
2000
0000
3200
0000
0320
0000
0032
0000
0023
0000
0230
0000
2300
0000
3000
0000
2000
0000
3002
0000
2003
3200
0320
0032
2003
3002
2003
3002
1003
0000
0100
0000
,
1000
0100
0010
0001
0010
0001
1000
0001
1000
0001
0100
0010
0100
0010
1000
0010
,
1000
0010
0100
0001
0100
0001
1000
0001
1000
0001
0010
0100
0010
0100
1000
0010
,
1000
0010
1000
0100
1000
0100
0010
0001
0010
0001
0100
0001
0100
0001
1000
0100
,
0010
0001
1000
0100
0010
0001
1000
0010
0100
0001
1000
0010
0100
0001
1000
0010
,
1000
0010
0100
0001
0100
0001
1000
0001
1000
0001
0100
0010
0100
0010
1000
0100
,
1000
0100
0010
0001
0010
0001
1000
0001
1000
0001
0010
0100
0010
0100
1000
0100
,
1000
0100
1000
0010
1000
0010
0100
0001
0100
0001
0010
0001
0010
0001
1000
0010
,
0100
0001
1000
0010
0100
0001
1000
0100
0010
0001
1000
0100
0010
0001
1000
0100
,
1000
0100
1000
0010
0100
0001
0010
0001
0010
0001
0010
0100
0010
0100
1000
0010
,
1000
0010
1000
0100
0010
0001
0100
0001
0100
0001
0100
0010
0100
0010
1000
0100
,
1000
0100
0010
0001
0010
0001
1000
0010
1000
0010
0100
0001
0100
0001
1000
0100
,
0010
0001
1000
0010
0100
0001
1000
0100
0010
0001
1000
0010
0100
0001
1000
0010
,
1000
0010
1000
0010
0100
0001
0010
0001
0010
0001
0010
0100
0010
0100
1000
0100
,
1000
0100
1000
0100
0010
0001
0100
0001
0100
0001
0100
0010
0100
0010
1000
0010
,
1000
0010
0100
0001
0100
0001
1000
0100
1000
0100
0010
0001
0010
0001
1000
0010
,
0100
0001
1000
0100
0010
0001
1000
0010
0100
0001
1000
0100
0010
0001
2000
3200
,
0320
0000
0030
0000
0002
0000
0023
0000
0230
0000
2300
0000
3020
0000
0230
0000
0302
0000
0003
0000
0002
0000
2003
0000
3002
0023
0032
2003
3002
0203
0302
0000
,
2003
0000
3000
0000
0002
0000
0203
0000
0320
0000
2030
0000
3200
0000
0320
0000
0032
0000
0003
0000
2000
0000
3002
0000
2003
3200
2300
3002
2003
3020
2030
0000
,
3002
0000
0003
0000
2000
0000
3200
0000
0320
0000
0032
0000
0203
0000
0320
0000
2030
0000
3000
0000
2000
0000
3002
0000
2003
3020
2030
3002
2003
3200
2300
0000
,
3002
0000
0003
0000
2000
0000
3020
0000
0230
0000
0302
0000
0023
0000
0230
0000
2300
0000
3000
0000
2000
0000
3002
0000
0023
0230
2300
3200
1300
0000
0100
0000
,
1000
0100
0010
0001
0010
0001
1000
0010
1000
0010
0100
0001
0100
0001
1000
0001
,
1000
0001
0100
0010
0100
0010
1000
0010
1000
0010
0100
0001
0100
0001
1000
0100
,
1000
0100
0010
0001
0010
0001
1000
0001
1000
0001
0010
0100
0010
0100
1000
0100
,
0010
0001
1000
0100
0010
0001
1000
0010
0100
0001
1000
0010
0100
0001
1000
0010
,
1000
0010
0100
0001
0100
0001
1000
0100
1000
0100
0010
0001
0010
0001
1000
0001
,
1000
0001
0100
0010
0100
0010
1000
0100
1000
0100
0010
0001
0010
0001
1000
0010
,
1000
0010
0100
0001
0100
0001
1000
0001
1000
0001
0010
0100
0010
0100
1000
0010
,
0100
0001
1000
0010
0100
0001
1000
0100
0010
0001
1000
0100
0010
0001
1000
0100
,
1000
0100
1000
0010
0100
0001
0010
0001
0010
0001
0010
0001
0100
0010
1000
0010
,
1000
0010
1000
0100
0010
0001
0100
0001
0100
0001
0100
0001
0010
0100
1000
0100
,
1000
0100
1000
0010
1000
0010
0100
0010
0100
0010
0100
0001
0100
0001
0010
0001
,
0010
0001
0010
0100
0010
0100
1000
0100
1000
0100
1000
0001
1000
0001
1000
0100
,
1000
0010
0100
0001
0010
0100
1000
0100
0010
0001
0100
0010
1000
0100
1000
0010
,
1000
0100
0010
0001
0100
0010
1000
0010
0100
0001
0010
0100
1000
0010
1000
0100
,
0010
0001
1000
0010
0100
0001
1000
0100
0010
0001
1000
0010
0100
0001
1000
0001
,
1000
0001
1000
0001
1000
0001
1000
0001
1000
0001
1000
0001
1000
0001
1000
0100
,
1000
0100
1000
0100
0010
0001
1000
0010
1000
0010
1000
0010
0100
0001
0010
0001
,
0010
0001
0010
0001
1000
0100
1000
0010
0100
0001
0100
0001
0100
0001
1000
0001
,
1000
0001
1000
0001
1000
0001
0100
0010
0100
0010
0100
0010
0100
0010
1000
0001
,
0100
0010
1000
0001
0100
0010
1000
0001
0100
0010
1000
0001
0100
0010
1000
0010
,
1000
0010
1000
0010
0100
0001
1000
0100
1000
0100
1000
0100
0010
0001
0100
0001
,
0100
0001
0100
0001
1000
0010
1000
0100
0010
0001
0010
0001
0010
0001
0010
0100
,
0010
0100
0010
0100
0010
0100
1000
0001
1000
0001
1000
0001
1000
0001
0010
0100
,
1000
0001
0010
0100
1000
0001
0010
0100
1000
0001
0010
0100
1000
0001
1000
0100
,
1000
0100
0010
0001
0010
0001
1000
0100
0010
0001
1000
0100
0010
0001
1000
0010
,
1000
0010
0100
0001
0100
0001
1000
0010
0100
0001
1000
0010
0100
0001
1000
0100
,
0010
0001
1000
0100
0010
0001
1000
0010
0100
0001
1000
0010
0100
0001
1000
0100
,
0010
0001
1000
0010
0100
0001
1000
0100
0010
0001
1000
0010
0100
0001
1000
0010
,
1000
0100
0010
0001
0100
0010
1000
0010
0100
0001
0010
0100
1000
0010
1000
0100
,
1000
0010
0100
0001
0010
0100
1000
0100
0010
0001
0100
0010
1000
0100
1000
0010
,
0100
0001
1000
0100
0010
0001
1000
0010
0100
0001
1000
0100
0010
0001
0100
0010
,
0100
0010
0100
0010
0100
0010
0100
0010
0100
0010
0100
0010
0100
0010
1000
0100
,
0010
0001
0100
0010
0100
0001
0010
0100
1000
0001
1000
0001
1000
0001
1000
0010
,
0100
0001
0010
0100
0010
0001
0100
0010
1000
0001
1000
0001
1000
0001
1000
0100
,
0010
0001
1000
0100
0010
0001
1000
0010
0100
0001
1000
0010
0100
0001
1000
0100
,
0010
0100
1000
0001
0010
0100
0010
0001
1000
0001
1000
0001
1000
0001
1000
0010
,
0100
0001
0010
0100
0010
0001
0100
0010
1000
0001
1000
0001
1000
0001
1000
0100
,
0010
0001
0100
0010
0100
0001
0010
0100
1000
0001
1000
0001
1000
0001
1000
0010
,
0100
0001
1000
0010
0100
0001
1000
0100
0010
0001
1000
0100
0010
0001
1000
0010
,
0100
0010
1000
0001
0100
0010
0100
0001
1000
0001
1000
0001
1000
0001
1000
0100
,
1000
0100
0010
0001
0010
0001
1000
0010
0100
0010
1000
0001
0010
0100
0010
0001
,
1000
0010
0100
0001
0010
0100
1000
0001
1000
0001
0100
0010
0100
0010
1000
0100
,
0010
0001
1000
0010
0100
0001
1000
0100
1000
0001
0100
0001
1000
0001
1000
0100
,
1000
0010
0100
0001
0010
0100
1000
0100
0010
0001
0100
0010
1000
0100
1000
0010
,
1000
0010
0100
0001
0100
0001
1000
0100
0010
0100
1000
0001
0100
0010
0100
0001
,
1000
0100
0010
0001
0100
0010
1000
0001
1000
0001
0010
0100
0010
0100
1000
0010
,
0100
0001
1000
0100
0010
0001
1000
0010
1000
0001
0010
0001
1000
0001
1000
0010
,
1000
0100
0010
0001
0100
0010
1000
0010
0100
0001
0010
0100
1000
0100
2000
3002
,
2003
0000
3000
0000
2000
0000
3200
0000
0320
0000
0032
0000
0203
0000
0320
0000
2030
0000
3000
0000
2000
0000
3200
0000
0320
0032
0023
0032
0023
0032
0023
0032
,
0203
0000
0300
0000
2000
0000
3020
0000
0230
0000
0302
0000
0023
0000
0230
0000
2300
0000
3000
0000
2000
0000
3020
0000
0230
0302
0203
0302
0203
0302
0203
0302
,
0023
0000
0030
0000
2000
0000
3200
0000
0320
0000
0032
0000
0023
0000
0230
0000
2300
0000
3000
0000
2000
0000
3200
0000
0320
0032
0023
0230
2300
3002
1003
0002
,
2003
3000
2000
3200
0320
0032
2003
3002
2003
0000
0000
0000
0000
0000
0000
0000
,
3000
0000
0000
0000
;

//--------------- dance-single - ----------------
#NOTES:
     dance-single:
     :
     Edit:
     20:
     0,0,0,0,0:
0000
0000
0000
0000
0000
0000
0000
0000
0000
0000
0000
0000
0000
0000
0000
0000
0000
0000
0000
0000
0000
0000
0000
0000
2000
0000
3002
0000
2003
0000
3002
0003
,
0002
0000
0023
0000
0230
0000
2300
0000
3200
0000
0320
0000
0032
0000
2003
3000
2000
3002
2003
3002
2003
3200
0320
0230
2300
3200
0320
0032
2003
0000
3002
0003
,
0002
0000
0203
0000
0320
0000
2030
0000
3020
0000
0230
0000
0302
0000
2003
3000
2000
3002
2003
3002
2003
3020
0230
0320
2030
3020
0230
0302
2003
0000
3002
0003
,
0002
0000
2003
0000
3020
0000
0230
0000
0320
0000
2030
0000
3002
0000
2003
3000
2000
3002
2003
3002
2003
3200
0320
0032
0023
0230
2300
3002
2003
0000
3002
0000
,
2003
0000
3200
0000
0320
0000
0032
0000
0023
0000
0230
0000
2300
0000
3002
0000
2003
3002
2003
3002
2003
3200
0320
0032
2003
3002
2003
3002
1003
0000
0100
0000
,
1000
0100
1000
0100
1000
0100
0010
0001
0010
0001
0010
0001
0010
0001
1000
0010
,
1000
0010
1000
0010
1000
0010
0100
0001
0100
0001
0100
0001
0100
0001
1000
0001
,
1000
0001
1000
0001
1000
0001
0100
0010
0100
0010
0100
0010
0100
0010
1000
0001
,
1000
0001
1000
0001
1000
0001
0010
0100
0010
0100
0010
0100
0010
0100
1000
0100
,
1000
0100
0010
0001
0010
0001
1000
0010
1000
0010
0100
0001
0100
0001
1000
0001
,
1000
0001
0100
0010
0100
0010
1000
0001
1000
0001
0010
0100
0010
0100
1000
0010
,
1000
0010
0100
0001
0100
0001
1000
0100
1000
0100
0010
0001
0010
0001
1000
0001
,
1000
0000
0001
0000
0010
0000
0100
0000
0010
0000
0100
0000
1000
0000
0001
0000
1000
0000
0001
0000
1000
0100
0010
0001
2000
0000
3002
0000
2003
0000
3002
0003
,
0002
0000
0023
0000
0230
0000
2300
0000
3200
0000
0320
0000
0032
0000
2003
3000
2000
3002
2003
3002
2003
3200
0320
0230
2300
3020
0230
0302
2003
0000
3002
0003
,
0002
0000
0203
0000
0320
0000
2030
0000
3020
0000
0230
0000
0302
0000
2003
3000
2000
3002
2003
3002
2003
3020
0230
0320
2030
3200
0320
0032
2003
0000
3002
0003
,
0002
0000
2003
0000
3020
0000
0230
0000
0320
0000
2030
0000
3002
0000
2003
3000
2000
3002
2003
3002
2003
3200
0320
0032
0023
0230
2300
3002
2003
0000
3002
0000
,
2003
0000
3200
0000
0320
0000
0032
0000
0023
0000
0230
0000
2300
0000
3002
0000
2003
3002
2003
3002
2003
3200
0320
0032
2003
3002
2003
3002
1003
0000
0100
0000
,
1000
0100
0010
0001
0010
0001
1000
0001
1000
0001
0100
0010
0100
0010
1000
0010
,
1000
0010
0100
0001
0100
0001
1000
0001
1000
0001
0010
0100
0010
0100
1000
0010
,
1000
0010
1000
0100
1000
0100
0010
0001
0010
0001
0100
0001
0100
0001
1000
0100
,
0010
0001
1000
0100
0010
0001
1000
0010
0100
0001
1000
0010
0100
0001
1000
0010
,
1000
0010
0100
0001
0100
0001
1000
0001
1000
0001
0100
0010
0100
0010
1000
0100
,
1000
0100
0010
0001
0010
0001
1000
0001
1000
0001
0010
0100
0010
0100
1000
0100
,
1000
0100
1000
0010
1000
0010
0100
0001
0100
0001
0010
0001
0010
0001
1000
0010
,
0100
0001
1000
0010
0100
0001
1000
0100
0010
0001
1000
0100
0010
0001
1000
0100
,
1000
0100
1000
0010
0100
0001
0010
0001
0010
0001
0010
0100
0010
0100
1000
0010
,
1000
0010
1000
0100
0010
0001
0100
0001
0100
0001
0100
0010
0100
0010
1000
0100
,
1000
0100
0010
0001
0010
0001
1000
0010
1000
0010
0100
0001
0100
0001
1000
0100
,
0010
0001
1000
0010
0100
0001
1000
0100
0010
0001
1000
0010
0100
0001
1000
0010
,
1000
0010
1000
0010
0100
0001
0010
0001
0010
0001
0010
0100
0010
0100
1000
0100
,
1000
0100
1000
0100
0010
0001
0100
0001
0100
0001
0100
0010
0100
0010
1000
0010
,
1000
0010
0100
0001
0100
0001
1000
0100
1000
0100
0010
0001
0010
0001
1000
0010
,
0100
0001
1000
0100
0010
0001
1000
0010
0100
0001
1000
0100
0010
0001
2000
3200
,
0320
0000
0032
0003
0002
0000
0023
0000
0230
0000
2300
0000
3020
0000
0230
0000
0302
0000
2003
0000
3002
0023
0230
2300
3002
0023
0032
2003
3002
0203
0302
0000
,
2003
0000
3002
0003
0002
0000
0203
0000
0320
0000
2030
0000
3200
0000
0320
0000
0032
0000
2003
3000
2000
3200
0320
0032
2003
3200
2300
3002
2003
3020
2030
0000
,
3002
0000
2003
3000
2000
0000
3200
0000
0320
0000
0032
0000
0203
0000
0320
0000
2030
0000
3002
0000
2003
3020
0230
0302
2003
3020
2030
3002
2003
3200
2300
0000
,
3002
0000
2003
3000
2000
0000
3020
0000
0230
0000
0302
0000
0023
0000
0230
0000
2300
0000
3002
0000
2003
3020
0230
0302
0023
0230
2300
3200
1300
0000
0100
0000
,
1000
0100
0010
0001
0010
0001
1000
0010
1000
0010
0100
0001
0100
0001
1000
0001
,
1000
0001
0100
0010
0100
0010
1000
0010
1000
0010
0100
0001
0100
0001
1000
0100
,
1000
0100
0010
0001
0010
0001
1000
0001
1000
0001
0010
0100
0010
0100
1000
0100
,
0010
0001
1000
0100
0010
0001
1000
0010
0100
0001
1000
0010
0100
0001
1000
0010
,
1000
0010
0100
0001
0100
0001
1000
0100
1000
0100
0010
0001
0010
0001
1000
0001
,
1000
0001
0100
0010
0100
0010
1000
0100
1000
0100
0010
0001
0010
0001
1000
0010
,
1000
0010
0100
0001
0100
0001
1000
0001
1000
0001
0010
0100
0010
0100
1000
0010
,
0100
0001
1000
0010
0100
0001
1000
0100
0010
0001
1000
0100
0010
0001
1000
0100
,
1000
0100
1000
0010
0100
0001
0010
0001
0010
0001
0010
0001
0100
0010
1000
0010
,
1000
0010
1000
0100
0010
0001
0100
0001
0100
0001
0100
0001
0010
0100
1000
0100
,
1000
0100
1000
0010
1000
0010
0100
0010
0100
0010
0100
0001
0100
0001
0010
0001
,
0010
0000
0000
0001
0000
0000
0010
0000
0000
0100
0000
0000
0010
0000
0000
0100
0000
0000
1000
0000
0000
0100
0000
0000
1000
0000
0000
0100
0000
0000
1000
0000
0000
0001
0000
0000
1000
0000
0000
0001
0000
0000
1000
0000
0100
0000
1000
0000
,
0100
1000
0100
1000
0100
1000
0100
1000
0100
1000
0100
1000
0100
1000
0100
1000
0100
1000
0100
1000
0100
0010
0001
0010
,
0001
0010
0001
0010
0001
0010
0001
0010
0001
0010
0001
0010
0001
0010
0001
0010
0001
0010
0001
0010
0001
1000
0010
1000
,
0010
1000
0010
1000
0010
1000
0010
1000
0010
1000
0010
1000
0010
1000
0010
1000
0010
1000
0010
1000
0010
0100
0001
0100
,
0001
0000
0100
0000
0001
0000
0100
0000
0001
0000
0100
0000
0001
0000
0100
0000
0001
0000
0100
0000
0001
0000
0100
0000
0001
0000
0100
0000
0001
0000
0100
0000
0001
0000
0100
0000
0001
0000
0100
0000
0001
0000
1000
0000
0000
0100
0000
0000
,
1000
0100
1000
0100
0010
0001
1000
0010
1000
0010
1000
0010
0100
0001
0010
0001
,
0010
0001
0010
0001
1000
0100
1000
0010
0100
0001
0100
0001
0100
0001
1000
0001
,
1000
0001
1000
0001
1000
0001
0100
0010
0100
0010
0100
0010
0100
0010
1000
0001
,
0100
0010
1000
0001
0100
0010
1000
0001
0100
0010
1000
0001
0100
0010
1000
0010
,
1000
0010
1000
0010
0100
0001
1000
0100
1000
0100
1000
0100
0010
0001
0100
0001
,
0100
0001
0100
0001
1000
0010
1000
0100
0010
0001
0010
0001
0010
0001
0010
0100
,
0010
0100
0010
0100
0010
0100
1000
0001
1000
0001
1000
0001
1000
0001
0010
0100
,
1000
0001
0010
0100
1000
0001
0010
0100
1000
0001
0010
0100
1000
0001
1000
0100
,
1000
0100
0010
0001
0010
0001
1000
0100
0010
0001
1000
0100
0010
0001
1000
0010
,
1000
0010
0100
0001
0100
0001
1000
0010
0100
0001
1000
0010
0100
0001
1000
0100
,
0010
0001
1000
0100
0010
0001
1000
0010
0100
0001
1000
0010
0100
0001
1000
0100
,
0010
0000
0000
0001
0000
0000
1000
0000
0000
0010
0000
0000
0100
0000
0000
0001
0000
0000
1000
0000
0000
0100
0000
0000
0010
0000
0000
0001
0000
0000
1000
0000
0000
0010
0000
0000
0100
0000
0000
0001
0000
0000
1000
0000
0100
0000
1000
0000
,
0100
1000
0100
1000
0100
1000
0100
1000
0100
0010
0001
0010
0001
0010
0001
0010
0001
0010
0001
0010
0001
1000
0010
1000
,
0010
1000
0010
1000
0010
1000
0010
1000
0010
0100
0001
0100
0001
0100
0001
0100
0001
0100
0001
0100
0001
1000
0001
1000
,
0001
1000
0001
1000
0001
1000
0001
1000
0001
0100
0010
0100
0010
0100
0010
0100
0010
0100
0010
0100
0010
1000
0001
1000
,
0001
0000
1000
0000
0001
0000
1000
0000
0001
0000
1000
0000
0001
0000
1000
0000
0001
0000
0010
0000
0100
0000
0010
0000
0100
0000
0010
0000
0100
0000
0010
0000
0100
0000
0010
0000
0100
0000
0010
0000
0100
0000
1000
0000
0000
0100
0000
0000
,
0010
0001
0100
0010
0100
0001
0010
0100
1000
0001
1000
0001
1000
0001
1000
0010
,
0100
0001
0010
0100
0010
0001
0100
0010
1000
0001
1000
0001
1000
0001
1000
0100
,
0010
0001
1000
0100
0010
0001
1000
0010
0100
0001
1000
0010
0100
0001
1000
0100
,
0010
0100
1000
0001
0010
0100
0010
0001
1000
0001
1000
0001
1000
0001
1000
0010
,
0100
0001
0010
0100
0010
0001
0100
0010
1000
0001
1000
0001
1000
0001
1000
0100
,
0010
0001
0100
0010
0100
0001
0010
0100
1000
0001
1000
0001
1000
0001
1000
0010
,
0100
0001
1000
0010
0100
0001
1000
0100
0010
0001
1000
0100
0010
0001
1000
0010
,
0100
0010
1000
0001
0100
0010
0100
0001
1000
0001
1000
0001
1000
0001
1000
0100
,
1000
0100
0010
0001
0010
0001
1000
0010
0100
0010
1000
0001
0010
0100
0010
0001
,
1000
0010
0100
0001
0010
0100
1000
0001
1000
0001
0100
0010
0100
0010
1000
0100
,
0010
0001
1000
0010
0100
0001
1000
0100
1000
0001
0100
0001
1000
0001
1000
0100
,
1000
0010
0100
0001
0010
0100
1000
0100
0010
0001
0100
0010
1000
0100
1000
0010
,
1000
0010
0100
0001
0100
0001
1000
0100
0010
0100
1000
0001
0100
0010
0100
0001
,
1000
0100
0010
0001
0100
0010
1000
0001
1000
0001
0010
0100
0010
0100
1000
0010
,
0100
0001
1000
0100
0010
0001
1000
0010
1000
0001
0010
0001
1000
0001
1000
0010
,
1000
0100
0010
0001
0100
0010
1000
0010
0100
0001
0010
0100
1000
0100
2000
3002
,
2003
0000
3002
0000
2003
0000
3200
0000
0320
0000
0032
0000
0203
0000
0320
0000
2030
0000
3002
0000
0023
0032
0023
0032
0023
0032
0023
0032
0023
0032
0023
0032
,
0203
0000
0302
0000
2003
0000
3020
0000
0230
0000
0302
0000
0023
0000
0230
0000
2300
0000
3002
0000
0203
0302
0203
0302
0203
0302
0203
0302
0203
0302
0203
0302
,
0023
0000
0032
0000
2003
0000
3200
0000
0320
0000
0032
0000
0023
0000
0230
0000
2300
0000
3002
0000
2003
3200
2300
3200
0320
0032
0023
0230
2300
3002
1003
0002
,
2003
3002
2003
3200
0320
0032
2003
3002
2003
0000
0000
0000
0000
0000
0000
0000
,
3000
0000
0000
0000
;
