#TITLE:OVERDOSER;
#SUBTITLE:(CLUB 2P VER.);
#ARTIST:MIRAK;
#TITLETRANSLIT:;
#SUBTITLETRANSLIT:;
#ARTISTTRANSLIT:;
#GENRE:;
#CREDIT:;
#MUSIC:OVERDOSER (CLUB 2P VER.).mp3;
#BANNER:OVERDOSER (CLUB 2P VER.).png;
#BACKGROUND:OVERDOSER (CLUB 2P VER.)-bg.png;
#CDTITLE:./CDTITLES/BEATMANIA CLASSICS.PNG;
#SAMPLESTART:7.200;
#SAMPLELENGTH:12.000;
#SELECTABLE:YES;
#OFFSET:-0.050;
#BPMS:0.000=134.050;
#STOPS:;
#DISPLAYBPM:134.000;
#BGCHANGES:;
#FGCHANGES:;

//--------------- dance-single - ----------------
#NOTES:
     dance-single:
     :
     Beginner:
     3:
     0,0,0,0,0:
0000
0000
0000
0000
,
0000
0000
0000
0000
,
0000
0000
0000
0000
,
0000
0000
0000
0000
,
1000
0000
0000
0100
0000
0000
0010
0000
,
0000
0001
0000
0000
0100
0000
0010
0000
,
1000
0000
0000
0100
0000
0000
0010
0000
,
0000
0001
0000
0000
0100
0000
0010
0000
,
1000
0000
0000
0100
0000
0000
0010
0000
,
0000
0001
0000
0000
0100
0000
0010
0000
,
1000
0000
0000
0100
0000
0000
0010
0000
,
0000
0001
0000
0000
0100
0000
0010
0000
,
1000
0000
0100
0000
,
0010
0000
0001
0000
,
1000
0000
0010
0000
,
0100
0000
0001
0000
,
1000
0000
0100
0000
,
0010
0000
0100
0000
,
1000
0000
0010
0000
,
0100
0000
0001
0000
,
0010
0000
0100
0000
,
0010
0000
0100
0000
,
1000
0000
0010
0000
,
0100
0000
0001
1000
,
0001
0000
0000
0000
0000
0000
0000
0000
0100
0010
0000
0000
0000
0000
0000
0000
,
1000
0000
0000
0000
0000
0000
0000
0000
0100
0010
0000
0000
0000
0000
0000
0000
,
0100
0000
0000
0000
0000
0000
0000
0000
0010
0001
0000
0000
0000
0000
0000
0000
,
0000
0000
0000
0000
,
0000
0000
0000
0000
0000
0000
0000
0000
1000
0000
1000
0000
1000
1000
0000
0000
,
0000
0000
0000
0000
0000
0000
0000
0000
0100
0000
0100
0000
0100
0100
0000
0000
,
0000
0000
0000
0000
0000
0000
0000
0000
0010
0000
0010
0000
0010
0010
0000
0000
,
0000
0000
0000
0000
0000
0000
0000
0000
0001
0000
0001
0000
0001
0001
0000
0000
,
1000
0000
0000
0000
0001
0000
0000
0000
0100
0000
0100
0000
0100
0100
0000
0000
,
1000
0000
0000
0000
0001
0000
0000
0000
0100
0000
0100
0000
0100
0100
0000
0000
,
1000
0000
0000
0000
0001
0000
0000
0000
0100
0000
0100
0000
0100
0100
0000
0000
,
1000
0000
0000
0000
0001
0000
0000
0000
0100
0000
0100
0000
0100
0100
0000
0000
;

//--------------- dance-single - ----------------
#NOTES:
     dance-single:
     :
     Easy:
     4:
     0,0,0,0,0:
0000
0000
0000
0000
,
0000
0000
0000
0000
,
0000
0000
0000
0000
,
0000
0000
0000
0000
,
1000
0000
0000
0100
0000
0000
0010
0000
,
0000
0001
0000
0000
0100
0000
0010
0000
,
1000
0000
0000
0100
0000
0000
0010
0000
,
0000
0001
0000
0000
0100
0000
0010
0000
,
1000
0000
0000
0100
0000
0000
0010
0000
,
0000
0001
0000
0000
0100
0000
0010
0000
,
1000
0000
0000
0100
0000
0000
0010
0000
,
0000
0001
0000
0000
0100
0000
0010
0000
,
1000
0100
0010
0001
,
1000
0010
0100
0001
,
1000
0100
0010
0001
,
1000
0010
0100
0001
,
1000
0000
0100
0000
,
0010
0000
0100
0000
,
1000
0000
0010
0000
,
0100
0000
0001
0000
,
0010
0000
0100
0000
,
0010
0000
0100
0000
,
1000
0000
0010
0000
,
0100
0001
1000
0001
,
0100
0000
0000
0000
0000
0000
0000
0000
0010
1000
0000
0000
0000
0000
0000
0000
,
0100
0000
0000
0000
0000
0000
0000
0000
0010
0100
0000
0000
0000
0000
0000
0000
,
0010
0000
0000
0000
0000
0000
0000
0000
0001
0100
0000
0000
0000
0000
0000
0000
,
0000
0000
0000
0000
,
0000
0000
0000
0000
1000
0000
0000
0000
1000
0000
1000
0000
1000
1000
0000
0000
,
0000
0000
0000
0000
0100
0000
0000
0000
0100
0000
0100
0000
0100
0100
0000
0000
,
0000
0000
0000
0000
0010
0000
0000
0000
0010
0000
0010
0000
0010
0010
0000
0000
,
0000
0000
0000
0000
0001
0000
0000
0000
0001
0000
0001
0000
0001
0001
0000
0000
,
1000
0000
0000
0000
0001
0000
0000
0000
0100
0000
0100
0000
0100
0100
0000
0000
,
1000
0000
0000
0000
0001
0000
0000
0000
0100
0000
0100
0000
0100
0100
0000
0000
,
1000
0000
0000
0000
0001
0000
0000
0000
0100
0000
0100
0000
0100
0100
0000
0000
,
1000
0000
0000
0000
0001
0000
0000
0000
0100
0000
0100
0000
0100
0100
0000
0000
;

//--------------- dance-single - ----------------
#NOTES:
     dance-single:
     :
     Medium:
     5:
     0,0,0,0,0:
0000
0000
0000
0000
,
0000
0000
0000
0000
,
0000
0000
0000
0000
,
0000
0000
0000
0000
,
1000
0000
0000
0100
0000
0000
0010
0000
,
0000
0001
0000
0000
0100
0000
0010
0000
,
1000
0000
0000
0100
0000
0000
0010
0000
,
0000
0001
0000
0000
0100
0000
0010
0000
,
1000
0000
0000
0010
0000
0000
0100
0000
,
0000
0001
0000
0000
0010
0000
0100
0000
,
1000
0000
0000
0010
0000
0000
0100
0000
,
0000
0001
0000
0000
0010
0000
0100
0000
,
1000
0100
1000
0100
,
0010
0001
0010
0001
,
1000
0010
1000
0010
,
0100
0000
0001
0000
0100
0000
0001
0100
,
1000
1100
0010
0110
,
1000
1010
0100
0101
,
0010
0110
0010
0110
,
1000
1010
0100
0001
,
1000
1001
0100
0110
,
1000
1100
0010
0110
,
0010
0011
0100
0110
,
1000
0100
0010
0100
1000
0010
0100
0001
,
1000
0000
0000
0000
1010
0000
0000
0000
0100
0010
0000
0000
1010
0000
0000
0000
,
0100
0000
0000
0000
0110
0000
0000
0000
0001
0100
0000
0000
0110
0000
0000
0000
,
0100
0000
0000
0000
0110
0000
0000
0000
1000
0100
0000
0000
0110
0000
0000
0000
,
0000
0000
0000
0000
,
1000
0000
0000
0000
1000
0000
0000
0000
1000
0000
1000
0000
1000
1000
0000
0000
,
0100
0000
0000
0000
0100
0000
0000
0000
0100
0000
0100
0000
0100
0100
0000
0000
,
0010
0000
0000
0000
0010
0000
0000
0000
0010
0000
0010
0000
0010
0010
0000
0000
,
0001
0000
0000
0000
0001
0000
0000
0000
0001
0000
0001
0000
0001
0001
0000
0000
,
1000
0000
0000
0000
0001
0000
0000
0000
0100
0000
0100
0000
0100
0100
0000
0000
,
1000
0000
0000
0000
0001
0000
0000
0000
0100
0000
0100
0000
0100
0100
0000
0000
,
1000
0000
0000
0000
0001
0000
0000
0000
0100
0000
0100
0000
0100
0100
0000
0000
,
1000
0000
0000
0000
0001
0000
0000
0000
0100
0000
0100
0000
0100
0100
0000
0000
;

//--------------- dance-single - ----------------
#NOTES:
     dance-single:
     :
     Hard:
     7:
     0,0,0,0,0:
0000
0000
0000
0000
,
0000
0000
0000
0000
,
0000
0000
0000
0000
,
0000
0000
0000
0000
,
1000
0000
0000
0100
0000
0000
0010
0000
,
0000
0000
0000
0000
0001
0000
0000
0000
0000
0000
0000
0000
0000
0000
0000
0000
0100
0000
0000
0000
0000
0010
0000
0000
0000
0000
1000
0000
0000
0000
0000
0000
,
0001
0000
0000
0000
0000
0010
0000
0000
0000
0000
0100
0000
0000
0000
0000
0000
1000
0000
0000
0000
0000
0000
0000
0000
0010
0000
0000
0000
0000
0000
0000
0000
,
0000
0000
0000
0000
0100
0000
0000
0000
0000
0000
0000
0000
0000
0000
0000
0000
0001
0000
0000
0000
0000
0010
0000
0000
0000
0000
0100
0000
0000
0000
0000
0000
,
1000
0000
0000
0000
0000
0010
0000
0000
0000
0000
0100
0000
0000
0000
0000
0000
0001
0000
0000
0000
0000
0000
0000
0000
0010
0000
0000
0000
0000
0000
0000
0000
,
0000
0000
0000
0000
0100
0000
0000
0000
0000
0000
0000
0000
0000
0000
0000
0000
1000
0000
0000
0000
0000
0100
0000
0000
0000
0000
1000
0000
0000
0000
0000
0000
,
0010
0000
0000
0000
0000
0100
0000
0000
0000
0000
0001
0000
0000
0000
0000
0000
0010
0000
0000
0000
0000
0000
0000
0000
0001
0000
0000
0000
0000
0000
0000
0000
,
1000
0100
0010
0001
0100
0000
0000
0000
0010
0000
0000
0100
0000
0000
0010
0000
,
1000
0100
1000
0100
0010
0001
0010
0001
,
1000
0010
1000
0010
0100
0001
0100
0001
,
1000
0100
1000
0100
0010
0001
0010
0001
,
1000
0000
0010
0000
1000
0000
0010
0000
0100
0000
0001
0000
0100
0001
0100
0001
,
1000
1100
0010
0110
,
1000
1010
0100
0101
,
0010
0110
0010
0110
,
1000
1010
0100
0001
,
1000
1001
0100
0110
,
1000
1100
0010
0110
,
0010
0011
0100
0110
,
1000
0000
0100
0000
0010
0000
0100
0000
1000
0010
0100
0001
1000
0010
0100
0001
,
1000
0000
0000
0000
1010
0000
0000
0000
0100
0010
0000
0000
1010
0000
0000
0000
,
0100
0000
0000
0000
0110
0000
0000
0000
0001
0100
0000
0000
0110
0000
0000
0000
,
0100
0000
0000
0000
0110
0000
0000
0000
1000
0100
0000
0000
0110
0000
0001
0000
,
0000
0000
0000
0000
,
0100
0000
0000
0000
1000
0000
0000
0000
1000
0000
1000
0000
1000
1000
0000
0000
,
0010
0000
0000
0000
0100
0000
0000
0000
0100
0000
0100
0000
0100
0100
0000
0000
,
0001
0000
0000
0000
0010
0000
0000
0000
0010
0000
0010
0000
0010
0010
0000
0000
,
1000
0000
0000
0000
0001
0000
0000
0000
0001
0000
0001
0000
0001
0001
0000
0000
,
1000
0000
0000
0000
0001
0000
0000
0000
0100
0000
0100
0000
0100
0100
0000
0000
,
1000
0000
0000
0000
0001
0000
0000
0000
0100
0000
0100
0000
0100
0100
0000
0000
,
1000
0000
0000
0000
0001
0000
0000
0000
0100
0000
0100
0000
0100
0100
0000
0000
,
1000
0000
0000
0000
0001
0000
0000
0000
0100
0000
0100
0000
0100
0100
0000
0000
;

//--------------- dance-single - ----------------
#NOTES:
     dance-single:
     :
     Challenge:
     11:
     0,0,0,0,0:
0000
0000
0000
0000
,
0000
0000
0000
0000
,
0000
0000
0000
0000
,
0000
0000
0000
0000
,
1000
0000
0000
0100
0000
0000
0010
0000
,
0000
0000
0000
0000
0001
0000
0000
0000
0000
0000
0000
0000
0000
0000
0000
0000
0100
0000
0000
0000
0000
0010
0000
0000
0000
0000
1000
0000
0000
0000
0000
0000
,
0001
0000
0000
0000
0000
0010
0000
0000
0000
0000
0100
0000
0000
0000
0000
0000
1000
0000
0000
0000
0000
0000
0000
0000
0010
0000
0000
0000
0000
0000
0000
0000
,
0000
0000
0000
0000
0100
0000
0000
0000
0000
0000
0000
0000
0000
0000
0000
0000
0001
0000
0000
0000
0000
0010
0000
0000
0000
0000
0100
0000
0000
0000
0000
0000
,
1000
0000
0000
0000
0000
0010
0000
0000
0000
0000
0100
0000
0000
0000
0100
0000
0001
0000
0010
0000
0001
0000
0010
0000
0001
0000
0010
0000
0001
0000
0000
0000
,
1000
0000
0001
0000
1000
0000
0001
0000
1000
0000
0001
0000
1000
0000
0000
0000
0100
0000
0000
0000
0000
1000
0000
0000
0000
0000
0010
0000
0000
0000
0000
0000
,
0100
0000
0000
0000
0000
0001
0000
0000
0000
0000
0010
0000
0000
0000
0000
0000
0001
0000
0100
0000
0001
0000
0100
0000
0001
0000
0100
0000
0001
0000
0000
0000
,
1000
0100
0010
0001
0100
0010
1000
0000
0001
0000
0000
0010
0000
0000
0100
0000
,
1000
0100
1000
0100
1000
0100
1000
0100
0010
0001
0010
0001
0010
0001
0010
0001
,
1000
0010
1000
0010
1000
0010
1000
0010
0100
0001
0100
0001
0100
0001
0100
0001
,
1000
0100
1000
0100
1000
0100
1000
0100
0010
0001
0010
0001
0010
0001
0010
0001
,
1000
0000
0010
0000
1000
0000
0010
0000
1000
0000
0010
0000
1000
0000
0010
0000
0100
0000
0001
0000
0100
0000
0001
0000
0100
0001
0100
0000
0001
0100
0001
0000
,
1000
0010
0110
0010
1000
1100
0110
0001
,
0100
0010
0110
0010
1000
1100
0110
0001
,
1000
0001
0011
0100
1000
1010
0110
0010
,
0100
0001
0011
0100
1000
1010
0100
1010
,
1000
0100
0110
0100
1000
1010
0110
0001
,
0010
0100
0110
0100
1000
1010
0110
0001
,
1000
0001
0101
0010
1000
1100
0110
0100
,
0010
0000
0001
0000
0100
0000
0010
0000
1000
0000
0100
0000
0010
0000
0100
0000
1000
0010
0100
0001
1000
0010
0100
0001
1000
0010
0100
0001
1000
0010
0100
0001
,
1000
0000
0010
0000
0100
0000
0010
0000
1000
0100
0010
0000
0001
0000
0100
0000
,
0010
0000
0100
0000
0010
0000
1000
0000
0100
0010
0001
0000
0100
0000
0010
0000
,
1000
0000
0010
0000
0100
0000
0001
0000
0010
0100
1000
0000
0001
0000
1000
0000
,
0000
0000
0000
0000
,
0010
0000
0000
0000
0100
0000
0000
0000
1000
0000
1000
0000
1000
1000
0000
0000
,
0001
0000
0000
0000
0010
0000
0000
0000
0100
0000
0100
0000
0100
0100
0000
0000
,
1000
0000
0000
0000
0001
0000
0000
0000
0010
0000
0010
0000
0010
0010
0000
0000
,
0100
0000
0000
0000
1000
0000
0000
0000
0001
0000
0001
0000
0001
0001
0000
0000
,
1000
0000
0000
0000
0001
0000
0000
0000
0100
0000
0100
0000
0100
0100
0000
0000
,
1000
0000
0000
0000
0001
0000
0000
0000
0100
0000
0100
0000
0100
0100
0000
0000
,
1000
0000
0000
0000
0001
0000
0000
0000
0100
0000
0100
0000
0100
0100
0000
0000
,
1000
0000
0000
0000
0001
0000
0000
0000
0100
0000
0100
0000
0100
0100
0000
0000
;

//--------------- dance-single - BLACK CHALLENGE ----------------
#NOTES:
     dance-single:
     BLACK CHALLENGE:
     Edit:
     12:
     0,0,0,0,0:
0000
0000
0000
0000
,
0000
0000
0000
0000
,
0000
0000
0000
0000
,
0000
0000
0000
0000
,
1000
0000
0000
0100
0000
0000
0010
0000
,
0000
0000
0000
0000
0001
0000
0000
0000
0000
0000
0000
0000
0000
0000
0000
0000
0100
0000
0000
0000
0000
0010
0000
0000
0000
0000
1000
0000
0000
0000
0000
0000
,
0001
0000
0000
0000
0000
0010
0000
0000
0000
0000
0100
0000
0000
0000
0000
0000
1000
0000
0000
0000
0000
0000
0000
0000
0010
0000
0000
0000
0000
0000
0000
0000
,
0000
0000
0000
0000
0100
0000
0000
0000
0000
0000
0000
0000
0000
0000
0000
0000
0001
0000
0000
0000
0000
0010
0000
0000
0000
0000
0100
0000
0000
0000
0000
0000
,
1000
0000
0000
0000
0000
0010
0000
0000
0000
0000
0100
0000
0000
0000
0100
0000
0001
0000
0010
0000
0001
0000
0010
0000
0001
0000
0010
0000
0001
0000
0000
0000
,
1000
0000
0001
0000
1000
0000
0001
0000
1000
0000
0001
0000
1000
0000
0000
0000
0100
0000
0000
0000
0000
1000
0000
0000
0000
0000
0010
0000
0000
0000
0000
0000
,
0100
0000
0000
0000
0000
0001
0000
0000
0000
0000
0010
0000
0000
0000
0000
0000
0001
0000
0100
0000
0001
0000
0100
0000
0001
0000
0100
0000
0001
0000
0000
0000
,
1000
0100
0010
0001
0100
0010
1000
0000
0001
0000
0000
0010
0000
0000
0100
0000
,
1000
0100
1000
0100
1000
0100
1000
0100
0010
0001
0010
0001
0010
0001
0010
0001
,
1000
0010
1000
0010
1000
0010
1000
0010
0100
0001
0100
0001
0100
0001
0100
0001
,
1000
0100
1000
0100
1000
0100
1000
0100
0010
0001
0010
0001
0010
0001
0010
0001
,
1000
0000
0010
0000
1000
0000
0010
0000
1000
0000
0010
0000
1000
0000
0010
0000
0100
0000
0001
0000
0100
0000
0001
0000
0100
0001
0100
0000
0001
0100
0001
0000
,
1000
0100
1000
0100
1000
0100
1000
0100
1000
0100
1000
0100
1000
0100
1000
0100
,
1000
0010
1000
0010
1000
0010
1000
0010
1000
0010
1000
0010
1000
0010
1000
0010
,
0100
0010
0100
0010
0100
0010
0100
0010
0100
0010
0100
0010
0100
0010
0100
0010
,
0100
0001
0100
0001
0100
0001
0100
0001
0100
0001
0100
0001
0100
0001
0100
0001
,
0010
0001
0010
0001
0010
0001
0010
0001
0010
0001
0010
0001
0010
0001
0010
0001
,
0010
0100
0010
0100
0010
0100
0010
0100
0010
0100
0010
0100
0010
0100
0010
0100
,
1000
0001
1000
0001
1000
0001
1000
0001
1000
0001
1000
0001
1000
0001
1000
0001
,
1000
0000
0010
0000
0100
0000
0001
0000
1000
0000
0010
0000
0100
0000
0001
0000
1000
0010
0100
0001
1000
0010
0100
0001
1000
0010
0100
0001
1000
0010
0100
0001
,
1000
0010
0100
0010
1000
0100
0010
0001
0100
0010
0100
0010
1000
0100
0010
0001
,
1000
0001
0010
0100
1000
0010
0100
0010
0100
0001
0010
0100
1000
0010
0100
0010
,
1000
0100
0010
0100
1000
0010
0100
0001
0010
0100
0010
0100
1000
0010
0100
0001
,
1000
0000
0000
0000
,
1000
0010
1000
0010
1000
0010
1000
0010
1000
0000
1000
0000
1000
1000
0000
0000
,
0100
1000
0100
1000
0100
1000
0100
1000
0100
0000
0100
0000
0100
0100
0000
0000
,
0010
0001
0010
0001
0010
0001
0010
0001
0010
0000
0010
0000
0010
0010
0000
0000
,
0001
0100
0001
0100
0001
0100
0001
0100
0001
0000
0001
0000
0001
0001
0000
0000
,
1000
0000
0000
0000
0001
0000
0000
0000
0100
0000
0100
0000
0100
0100
0000
0000
,
1000
0000
0000
0000
0001
0000
0000
0000
0100
0000
0100
0000
0100
0100
0000
0000
,
1000
0000
0000
0000
0001
0000
0000
0000
0100
0000
0100
0000
0100
0100
0000
0000
,
1000
0000
0000
0000
0001
0000
0000
0000
0100
0000
0100
0000
0100
0100
0000
0000
;
