#TITLE:N G O;
#SUBTITLE:;
#ARTIST:鍋嶋圭一;
#TITLETRANSLIT:;
#SUBTITLETRANSLIT:;
#ARTISTTRANSLIT:Keiichi Nabeshima;
#GENRE:;
#CREDIT:;
#MUSIC:NGO.ogg;
#BANNER:NGO.png;
#BACKGROUND:NGO-bg.png;
#CDTITLE:;
#SAMPLESTART:3.510;
#SAMPLELENGTH:15.000;
#SELECTABLE:YES;
#OFFSET:0.000;
#BPMS:0.000=274.809
,4.000=273.889
,54.000=68.702
,56.000=136.709
,62.000=274.025
,222.000=75.419
,234.000=78.603
,236.000=128.878
,242.000=168.750
,248.000=216.867
,252.000=274.047
,359.000=274.311
;
#STOPS:;
#DISPLAYBPM:68.000:274.000;
#BGCHANGES:;
#FGCHANGES:;

//--------------- dance-single - ----------------
#NOTES:
     dance-single:
     :
     Beginner:
     5:
     0,0,0,0,0:
0000
0000
0000
0000
,
0000
0000
0000
0000
,
0000
0000
0000
0000
,
0000
0000
0000
0000
,
0000
0000
0000
0000
,
0000
0000
0000
0000
,
0000
0000
0000
0000
,
0000
0000
0000
0000
,
0000
0000
0000
0000
,
0000
0000
1001
0000
,
0000
0000
0000
0000
,
0000
0000
0000
0000
,
0000
0000
1001
0000
,
0000
0000
0220
0000
,
0000
0000
0000
0000
,
0000
0330
1000
0000
,
0100
0000
0000
0010
,
0000
0000
0000
0001
,
0000
0000
0000
0100
,
0000
0000
0010
0000
,
0000
0000
0000
1000
,
0000
0000
0000
0001
,
0000
0000
0000
0000
,
1000
0001
1000
0000
,
0000
0100
0000
0000
,
0010
0000
0001
0000
,
0000
0100
0000
0000
,
0010
0000
1000
0000
,
0100
0000
0010
0000
,
0001
0000
1000
0000
,
0010
0000
0100
0000
,
0001
0000
1000
0000
,
0000
0000
0000
0100
0000
0000
0000
0000
,
0000
0000
0000
0010
0000
0000
0000
0000
,
0000
0000
0000
0000
,
0001
0000
0000
0000
,
0000
0010
0000
0000
,
0000
0100
0000
0000
,
0000
0000
0000
0000
,
0000
0000
1000
0000
,
0010
0000
0000
0100
,
0000
0000
0000
0001
,
0000
0000
0000
0010
,
0000
0000
0100
0000
,
0000
0000
0000
1000
,
0000
0000
0000
0001
,
0000
0000
1000
0100
,
0010
0001
1000
0000
,
0100
0000
0010
0000
,
0100
0000
1000
0000
,
0010
0000
0100
0000
,
0010
0000
1000
0000
,
0100
0000
0010
0000
,
0001
0000
1000
0000
,
0010
0000
0100
0000
,
0001
0000
2002
0000
,
0000
0000
0000
0000
,
0000
0000
0000
0000
,
3003
0000
0000
0000
,
0000
0000
0000
0000
,
0000
0000
0000
0000
,
0000
0000
0000
0000
,
0000
0000
0000
1100
0000
0000
0000
0000
0000
0011
0000
0000
0000
0000
0000
0000
,
1001
0000
0110
0000
,
0000
1000
0000
0000
,
0000
0100
0000
0000
,
0000
0010
0000
0000
,
0001
0000
0000
0000
,
0000
1000
0000
0000
,
0001
0000
0000
0000
,
1000
0010
0100
0001
,
1000
0000
0000
0000
,
0001
0000
0000
0000
,
0100
0000
0000
0000
,
0010
0000
0000
0000
,
1000
0000
0001
0000
,
1000
0000
0001
0000
,
1000
0000
0100
0000
,
0010
0000
0001
0000
,
0100
0000
0010
0000
,
1000
0000
0100
0000
,
1000
0000
0010
0000
,
0100
0000
0001
0000
,
0010
0000
0100
0000
,
1000
0000
0010
0000
,
1000
0000
1000
0000
,
0100
0000
0100
0000
,
0010
0000
0010
0000
,
0001
0010
0001
0100
,
0000
0000
0000
0000
0000
0000
0000
0000
0000
0000
0000
0000
0000
0000
0000
0000
0000
0000
0000
0000
0000
0000
0000
0000
0000
0000
0000
0000
0000
0000
0000
0000
0000
2002
0000
0000
0000
0000
0000
0000
0000
0000
0000
0000
0000
0000
0000
0000
0000
0000
0000
0000
0000
0000
0000
0000
0000
0000
0000
0000
0000
0000
0000
0000
,
0000
0000
0000
0000
,
0000
3003
0000
0000
;

//--------------- dance-single - ----------------
#NOTES:
     dance-single:
     :
     Easy:
     8:
     0,0,0,0,0:
0000
0000
0000
0000
,
0000
0000
0000
0000
,
0000
0000
0000
0000
,
0000
0000
0000
0000
,
0000
0000
0000
0000
,
0000
0000
0000
0000
,
0000
0000
0000
0000
,
0000
0000
0000
0000
,
0000
0000
0000
0000
,
0000
0000
1001
0000
,
0110
0000
1000
0000
,
0000
0000
0010
0000
,
0000
0001
0110
0000
,
1001
0000
2002
0000
,
0000
0000
0000
0000
,
0000
3003
1100
0000
,
0101
0000
0000
1000
,
0000
0100
0000
0001
,
0000
0010
0000
1000
,
0000
0000
0001
0000
,
0000
0000
0000
1000
,
0000
0100
0000
0010
,
0000
0001
0000
0000
,
1000
0100
0010
0001
1000
0000
0100
0000
,
1000
0000
0001
0100
,
0001
0000
1000
0010
,
1000
0000
0001
0010
,
0001
0000
1000
0000
,
0100
0000
0010
0000
,
0001
0000
1000
0100
,
0010
0001
0100
0010
,
1000
0000
0001
0000
2000
0000
0000
3000
,
0000
0000
0000
0200
0000
0000
0000
0300
,
0000
0110
0000
0000
0010
0000
0010
0000
,
0010
0010
0010
0010
,
0002
0000
0000
0000
0000
0000
0000
0003
,
0000
0000
0000
0000
0020
0000
0000
0030
,
0000
0000
0100
0100
,
0100
0100
2000
0000
,
3000
0000
1010
0000
,
0011
0000
0000
1000
,
0000
0010
0000
0001
,
0000
0100
0000
1000
,
0000
0000
0001
0000
,
0000
0000
0000
1000
,
0000
0100
0000
0001
,
0000
0000
0100
0000
1000
0100
0010
0001
,
1000
0100
0010
0001
1000
0000
0100
0000
,
0010
0000
0001
0010
,
0100
0000
1000
0010
,
0100
0000
0001
0100
,
0010
0000
1000
0100
,
1000
0000
0001
0100
,
0001
0000
0100
0010
,
0100
0000
0001
1000
,
0001
0000
2000
0000
,
0000
0000
0000
0000
,
0000
0000
0000
0000
,
3001
0000
0000
0000
,
0000
0000
0000
0000
,
0000
0000
0000
0000
,
0000
0000
0000
0000
,
0000
0000
0000
1100
0000
0000
0000
0000
0000
0011
0000
0000
0000
0000
0000
0000
,
1001
0000
0110
0000
,
0000
1000
0000
1000
,
0000
0100
0000
0100
,
0000
0010
0000
0000
,
0001
0000
0000
0000
,
0000
0100
0000
0000
,
0010
0000
0000
0000
,
1000
0100
0010
0001
1000
0100
0010
0001
,
1000
0000
0100
0000
,
0010
0000
0001
0000
,
0100
0000
0010
0000
,
1000
0000
0001
0000
,
1000
0100
0010
0000
,
0001
0100
0010
0000
,
1000
0100
0010
1000
,
0010
0001
0100
0010
,
1000
0100
0001
0100
,
0010
0001
0100
0010
,
1000
0100
0001
0100
,
1000
0010
0001
0010
,
1000
0100
0010
0100
,
0001
0100
0010
0100
,
1000
0010
0100
0010
,
0001
0010
0100
0010
,
1000
0100
0001
0010
,
1000
0100
0001
0000
1000
0010
0001
0000
,
0000
0000
0000
0000
0000
0000
0000
0000
0000
0000
0000
0000
0000
0000
0000
0000
0000
0000
0000
0000
0000
0000
0000
0000
0000
0000
0000
0000
0000
0000
0000
0000
0000
2002
0000
0000
0000
0000
0000
0000
0000
0000
0000
0000
0000
0000
0000
0000
0000
0000
0000
0000
0000
0000
0000
0000
0000
0000
0000
0000
0000
0000
0000
0000
,
0000
0000
0000
0000
,
0000
3003
0000
0000
;

//--------------- dance-single - ----------------
#NOTES:
     dance-single:
     :
     Medium:
     11:
     0,0,0,0,0:
0000
0000
0000
0000
,
0000
0000
0000
0000
,
0000
0000
0000
0000
,
0000
0000
0000
0000
,
0000
0000
0000
0000
,
0000
0000
0000
0000
,
0000
0000
0000
0000
,
0000
0000
0000
0000
,
0000
0000
0000
0000
,
0000
0000
1001
0000
,
0110
0000
1000
1000
,
0000
0000
0101
0000
,
0000
0010
0110
0000
,
1001
0000
0000
0000
0200
0000
0000
0001
,
0000
0010
0000
0000
0001
0000
0000
1000
,
0000
0300
1001
0000
,
0110
0000
0000
1000
,
0100
1000
0000
0001
,
0100
0001
0000
0100
,
0010
0100
0010
0000
,
0000
0000
0000
1000
,
0100
0010
0000
0001
,
0010
0100
1000
0001
,
1000
0100
0010
0001
1000
0100
1000
0000
,
0001
0100
0001
0100
0001
0000
1000
0010
,
1000
0010
1000
0010
1000
0100
1000
0100
,
1000
0000
0001
0010
0001
0010
0001
0000
,
1000
0010
1000
0000
0001
0000
0001
0010
,
0000
0010
0100
0000
0100
1000
0000
1000
,
0001
0000
0001
0000
1000
0100
1000
0010
,
0100
0001
0010
0001
1000
0010
1000
0100
,
0010
0000
0001
0000
0100
0000
0001
0000
2000
0000
0000
0000
0000
3000
1100
0000
,
0000
0000
0000
0000
0000
0000
0002
0000
0000
0000
0000
0000
0000
0003
0101
0000
,
0000
0110
0000
1000
0100
0000
0100
0000
,
0100
0000
0100
0000
0100
1000
0000
1000
,
0002
0000
0000
0000
0000
0000
0000
0000
0000
0000
0000
0000
0000
0003
0011
0000
,
0000
0000
0000
0000
0000
0000
2000
0000
0000
0000
0000
0000
0000
3000
1010
0000
,
0000
0000
0001
0010
0000
0010
0000
0010
,
0000
0010
1000
0100
0010
0001
0100
0010
,
1000
0100
0010
0001
1001
0000
0000
0000
,
0110
0000
0000
1000
,
0010
1000
0000
0001
,
0010
0001
0000
0010
,
0100
0010
0100
0000
,
0000
0000
0000
1000
,
0100
0010
0010
0001
,
0010
0000
0100
0000
1000
0010
0100
0001
,
1000
0100
0010
0001
1000
0100
1000
0000
,
0001
0100
0001
0000
1000
0010
1000
0000
,
0001
0010
0001
0000
1000
0100
1000
0100
,
0010
0001
0010
0001
1000
0010
1000
0010
,
0100
0001
0100
0001
1000
0100
1000
0000
,
0001
0100
0001
0000
1000
0010
1000
0000
,
0001
0010
0001
0000
1000
0100
0010
0100
,
1000
0100
0010
0001
0010
0100
0010
0100
,
1000
0100
0010
0001
2000
0000
3200
0000
,
0320
0032
0203
0302
,
0023
0230
2300
3020
,
1030
0000
0100
0000
,
0010
0000
0000
0000
,
0000
0000
0001
0000
,
0000
0000
0000
0000
,
0000
0000
0000
1100
0000
0000
0000
0000
0000
0011
0000
0000
0000
0000
0000
0000
,
1001
0000
0110
0000
,
0000
1000
0010
1000
,
0000
0010
0001
0010
,
0000
0001
0100
0001
,
0100
0000
0000
0000
,
0000
0010
0000
0000
,
1000
0100
0010
0001
,
1000
0100
0010
0100
1000
0010
0100
0010
,
1000
0100
0000
0100
0010
0000
0001
0000
,
0001
0010
0000
0010
0100
0000
1000
0000
,
1000
0010
0000
0010
0100
0000
0001
0000
,
0001
0100
0000
0100
0010
0000
1000
0000
,
1000
0100
1000
0000
0001
0100
0001
0000
,
1000
0010
1000
0000
0001
0010
0001
0000
,
1000
0100
1000
0010
0100
0001
0010
0100
,
1000
0100
0010
0001
0100
0010
1000
0100
,
1000
0010
1000
0100
0010
0001
0100
0010
,
1000
0010
0100
0001
0010
0100
1000
0010
,
1000
0100
0010
0100
1000
0010
0100
0001
,
0010
0100
0010
0100
1000
0010
0100
0001
,
1000
0010
0100
0010
1000
0100
0010
0001
,
0100
0010
0100
0010
1000
0100
0010
0001
,
1000
0100
0010
0100
1000
0001
0100
0010
,
1000
0100
0010
0100
1000
0010
0100
0001
,
1000
0100
1000
0001
0100
0010
1000
0100
,
1000
0100
0010
0001
1000
0100
0010
0001
,
0000
0000
0000
0000
0000
0000
0000
0000
0000
0000
0000
0000
0000
0000
0000
0000
0000
0000
0000
0000
0000
0000
0000
0000
0000
0000
0000
0000
0000
0000
0000
0000
0000
2002
0000
0000
0000
0000
0000
0000
0000
0000
0000
0000
0000
0000
0000
0000
0000
0000
0000
0000
0000
0000
0000
0000
0000
0000
0000
0000
0000
0000
0000
0000
,
0000
0000
0000
0000
,
0000
3003
0000
0000
;

//--------------- dance-single - ----------------
#NOTES:
     dance-single:
     :
     Hard:
     13:
     0,0,0,0,0:
0000
0000
0000
0000
,
0000
0000
0000
0000
,
0000
0000
0000
0000
,
0000
0000
0000
0000
,
0000
0000
0000
0000
,
0000
0000
0000
0000
,
0000
0000
0000
0000
,
0000
0000
0000
0000
,
0000
0000
0000
0000
,
0000
0000
1001
0000
,
0110
0000
1000
1000
,
0100
0010
0101
0000
,
0000
0010
0110
0000
,
1001
0000
0000
0000
0002
0000
0000
0010
,
0000
0100
0000
0000
1000
0000
0000
0100
,
0000
0013
1001
0000
,
0011
0000
0000
1000
,
0100
0010
0000
0001
,
0100
0010
0000
1000
,
0100
0010
1001
0000
,
0000
0000
0000
0001
,
0010
0100
0000
1000
,
0010
0100
0001
1001
,
1000
0000
0100
0000
0010
0000
0001
0000
0010
0000
0100
0000
1000
0000
0000
0100
0000
0000
0010
0000
0000
0100
0000
0000
,
1000
0100
0010
0001
0010
0100
0010
0100
,
1000
0100
0010
0001
1000
0010
0100
0010
,
1000
0010
0100
0001
0100
0010
0100
0010
,
1000
0010
0100
0001
1000
0100
1000
0100
,
0010
0001
0010
0001
1000
0010
1000
0010
,
0100
0001
0100
0001
0010
0100
0010
0100
,
1000
0001
1000
0001
1000
0010
0100
0001
,
1000
0100
0010
0001
1000
0100
1000
0100
,
0000
0000
0000
0001
0100
0001
0100
0001
,
0000
0110
0000
1000
0100
0000
0100
0000
,
0100
0000
0100
0000
0100
0010
0000
0010
,
0001
0100
0010
0100
0001
0010
0100
1000
,
0000
0000
1000
0100
1000
0010
0100
0001
,
0000
0000
0001
0010
0001
0100
0010
1000
,
0100
1000
0010
0100
0001
0010
0001
0010
,
0100
1000
0010
0100
1001
0000
0000
0000
,
0110
0000
0000
1000
,
0010
0100
0000
0001
,
0010
0100
0000
1000
,
0010
0100
1001
0000
,
0000
0000
0000
0001
,
1000
0010
0010
1000
,
0001
0000
0000
0001
0000
0000
1000
0100
0010
0001
0010
0100
,
1000
0000
0010
0000
0100
0000
0001
0000
0100
0000
0010
0000
1000
0000
0000
0100
0000
0000
1000
0000
0000
0100
0000
0000
,
0010
0001
0010
0001
1000
0010
1000
0010
,
0100
0001
0100
0001
0010
0100
0010
0100
,
1000
0001
1000
0001
0100
0010
0100
0010
,
1000
0001
1000
0001
1000
0100
0010
0100
,
1000
0010
0100
0001
0010
0100
0010
0100
,
1000
0010
0100
0001
1000
0100
1000
0100
,
0010
0100
0010
0100
0010
0001
0010
0001
,
0100
0001
0100
0001
2000
0000
3200
0000
,
0302
0203
2300
3002
,
0203
2300
3200
0302
,
1003
0000
0000
0000
0000
0000
0000
0000
0000
0000
0000
0000
0000
0000
0000
0000
0000
0000
0000
0000
0000
0000
0000
0000
0000
0000
0000
0100
0000
0000
0000
0000
0010
0000
0000
0000
0000
0000
0000
0000
0000
0000
0000
0000
0000
0000
0000
0000
0000
0000
0000
0000
0000
0000
0000
0000
0000
0000
0000
0000
0000
0000
0001
0000
,
0010
0100
0000
1000
0000
0000
0000
0000
0000
0000
0000
0000
0000
0010
0000
0000
,
0000
0100
0000
0000
0001
0000
0100
0000
0000
0000
0000
0000
0000
0000
0000
0000
,
0000
0000
0000
0000
0000
0000
0000
0000
0010
0000
0000
1000
0000
0000
0000
0000
,
0000
0000
0000
1100
0000
0000
0000
0000
0000
0011
0000
0000
0000
0000
0000
0000
,
1001
0000
0110
0000
,
0000
1000
0100
0001
,
0000
1000
0010
0001
,
0000
0100
0010
0001
,
0110
0000
0000
0000
,
0000
0000
0000
0000
0001
0000
0000
0000
0000
0000
0000
0001
0000
0000
0000
0000
,
1000
0100
0010
0001
,
1000
0100
0010
0100
1000
0100
0010
0001
0010
0100
1000
0100
,
1000
0010
0100
0010
1000
0100
0010
0001
,
0100
0010
0100
0010
1000
0100
0010
0001
,
1000
0100
0010
0100
1000
0010
0100
0001
,
0010
0100
0010
0100
1000
0010
0100
0001
,
1000
0100
0010
0100
1000
0010
0100
0010
,
1000
0100
0010
0100
1000
0010
0100
0000
,
0001
1000
0100
0010
1000
0010
0001
0100
,
0010
0100
0001
0100
1000
0100
0001
1000
,
0001
0010
0100
0001
0100
1000
0001
0010
,
1000
0010
0100
1000
0010
0100
0001
0010
,
0001
0100
1000
0100
0001
0010
1000
0010
,
0001
0100
0010
1000
0100
0001
0100
1000
,
0001
0010
0100
0010
1000
0010
0100
0010
,
0001
0010
1000
0010
0100
0010
1000
0010
,
0001
0100
0010
0100
1000
0100
0010
0100
,
0001
0100
1000
0100
0010
0100
1000
0100
,
0001
0010
1000
0100
0010
0001
0100
1000
,
0001
0010
0100
0001
0100
1000
0010
0100
,
0000
0000
0000
0000
0000
0000
0000
0000
0000
0000
0000
0000
0000
0000
0000
0000
0000
0000
0000
0000
0000
0000
0000
0000
0000
0000
0000
0000
0000
0000
0000
0000
0000
2002
0000
0000
0000
0000
0000
0000
0000
0000
0000
0000
0000
0000
0000
0000
0000
0000
0000
0000
0000
0000
0000
0000
0000
0000
0000
0000
0000
0000
0000
0000
,
0000
0000
0000
0000
,
0000
3003
0000
0000
;

//--------------- dance-single - ----------------
#NOTES:
     dance-single:
     :
     Challenge:
     14:
     0,0,0,0,0:
0000
0000
0000
0000
,
0000
0000
0000
0000
,
0000
0000
0000
0000
,
0000
0000
0000
0000
,
0000
0000
0000
0000
,
0000
0000
0000
0000
,
0000
0000
0000
0000
,
0000
0000
0000
0000
,
0000
0000
0000
0000
,
0000
0000
0110
0000
,
1001
0000
1000
1000
,
1000
0100
0010
0001
0110
0000
0000
0000
,
0000
0011
1010
0000
,
0110
0000
0000
0000
2000
0000
0000
0100
,
0000
0010
0000
0000
0001
0000
0000
0010
,
0000
3100
1100
0000
,
0101
0000
0000
0001
,
0010
1000
0000
1000
,
0100
0001
0000
0001
,
0010
0100
1001
0000
,
0000
0000
0000
1000
,
0010
0001
0000
0001
,
0100
0000
1000
0000
0001
0000
0100
0010
,
1000
0100
1000
0100
0010
0001
0010
0001
1000
0000
0010
0000
0100
0000
0010
0000
,
1000
0100
1000
0010
0100
0010
1000
0100
,
1000
0010
0100
0010
1000
0100
0010
0100
,
1000
0010
1000
0100
0010
0100
1000
0010
,
1000
0100
0010
0100
1000
0010
0100
0010
,
1000
0100
0010
0001
0100
0010
0100
0010
,
1000
0100
0010
0001
1000
0100
1000
0001
,
0100
0001
1000
0010
1000
0001
0010
0001
,
1000
0100
0010
0001
1000
0100
1000
1100
,
0000
0000
0000
0001
0100
0001
0100
0101
,
0000
0110
0000
1000
0100
0000
0110
0000
,
1001
0000
1000
0001
0100
0010
0100
0001
,
1000
0000
0010
0000
1000
0000
0010
1000
0010
0000
1000
0000
0010
0000
1010
0000
,
0000
0000
0000
0000
0001
0010
0001
0000
0010
0000
0001
0000
0010
0000
0011
0000
,
0000
0000
0000
0000
1100
0000
0000
0000
0100
0000
0010
0000
0001
1000
0001
0000
,
1000
0000
0010
0100
0010
0000
1000
0000
0100
0000
0010
0000
0001
0000
0100
0000
,
0010
0000
0100
0000
0010
0100
0010
0000
1001
0000
0000
0000
0000
0000
0000
0000
,
0011
0000
0000
1000
,
0100
0001
0000
0001
,
0010
1000
0000
0100
,
0001
0010
1100
0000
,
0000
0000
0000
1000
,
0100
0001
0001
0010
,
1000
0000
0000
0000
0100
0000
0000
0000
1000
0100
1000
0100
0010
0001
0010
0001
,
1000
0010
1000
0010
0100
0001
0100
0001
1000
0000
0100
0000
0010
0000
0100
0000
,
1000
0100
0010
0001
0010
0100
0010
0100
,
1000
0100
0010
0001
1000
0010
0100
0010
,
1000
0100
0010
0001
0100
0010
0100
0010
,
1000
0100
0010
0001
1000
0010
0100
0010
,
1000
0010
0100
0001
0100
0010
0100
0010
,
1000
0010
0100
0001
1000
0100
0010
0100
,
1000
0010
0100
0001
0010
0100
0010
0100
,
1000
0010
0100
0001
2000
0000
3200
0000
,
0302
0023
2030
3002
,
0203
2300
3020
0032
,
1003
0000
0000
0000
0000
0000
0000
0100
0000
0000
0000
0000
0000
0000
0010
0000
0000
0000
0000
0000
0000
0100
0000
0000
0000
0000
0000
0000
1000
0000
0000
0000
0000
0000
0000
0100
0000
0000
0000
0000
0000
0000
0010
0000
0000
0000
0000
0000
0000
0001
0000
0000
0000
0000
0000
0000
0010
0000
0000
0000
0000
0000
0000
0100
0000
0000
0000
0000
0000
0000
0010
0000
0000
0000
0000
0000
0000
0100
0000
0000
0000
0000
0000
0000
1000
0000
0000
0000
0000
0000
0000
0000
0000
0000
0000
0000
0001
0000
0000
0000
0000
0000
0000
0100
0000
0000
0000
0000
0000
0000
0010
0000
0000
0000
0000
0000
0000
0100
0000
0000
0000
0000
0000
0000
0001
0000
0000
0000
0000
0000
0000
0100
0000
0000
0000
0000
0000
0000
0010
0000
0000
0000
0000
0000
0000
1000
0000
0000
0000
0000
0000
0000
0010
0000
0000
0000
0000
0000
0000
0100
0000
0000
0000
0000
0000
0000
0010
0000
0000
0000
0000
0000
0000
0100
0000
0000
0000
0000
0000
0000
0001
0000
0000
0000
0000
0000
0000
0000
0000
0000
0000
0000
,
1000
0100
0010
0100
1000
0010
0100
0001
0010
0100
0010
0100
1000
0010
0100
0001
,
0010
0000
0000
0100
0000
0000
1000
0000
0000
0010
0000
0000
0100
0000
0000
0010
0000
0000
1000
0000
0000
0100
0000
0000
1000
0000
0000
0000
0010
0000
0000
0000
0100
0000
0000
0000
0010
0000
0000
0000
1000
0000
0000
0000
0100
0000
0000
0000
,
0010
0001
0100
0010
0100
0010
1000
0100
0010
0001
0000
0000
,
0000
0000
0000
1100
0000
0000
0000
0000
0000
0011
0000
0000
0000
0000
0000
0000
,
1000
0100
1000
0000
0110
0000
0001
0010
,
0001
0000
1000
0100
0010
0001
0100
0010
,
1000
0000
0001
0010
0100
1000
0010
0100
,
0001
0000
1000
0100
1000
0001
0100
0001
,
1000
0000
0100
0010
0100
0000
0010
0001
,
0010
0000
0000
0000
0000
0000
1001
0000
0000
0000
0000
1001
0000
0000
0000
0000
,
1001
0100
1010
0001
,
1000
0100
0010
0100
1000
0100
0010
0001
0010
0100
0010
0100
1000
0100
0010
0001
,
1000
0100
1000
0100
1000
0100
1000
0100
,
0010
0001
0010
0001
0010
0001
0010
0001
,
1000
0010
1000
0010
1000
0010
1000
0010
,
0100
0001
0100
0001
0100
0001
0100
0001
,
1000
0100
0010
0100
1000
0010
0100
0001
,
1000
0010
0100
0010
1000
0100
0010
0001
,
1000
0001
0010
0100
0001
0100
1000
0010
,
0100
0010
1000
0010
0001
0010
1000
0001
,
1000
0100
0010
1000
0010
0001
1000
0100
,
0001
0100
0010
0001
0100
0010
1000
0100
,
1000
0010
0001
0010
1000
0100
0001
0100
,
1000
0010
0100
0001
0010
1000
0010
0001
,
1000
0100
0010
0100
0001
0100
0010
0100
,
1000
0100
0001
0100
0010
0100
0001
0100
,
1000
0010
0100
0010
0001
0010
0100
0010
,
1000
0010
0001
0010
0100
0010
0001
0010
,
1000
0100
0001
0010
0100
1000
0010
0001
,
1000
0100
0010
1000
0010
0001
0100
0010
,
0000
0000
0000
0000
0000
0000
0000
0000
0000
0000
0000
0000
0000
0000
0000
0000
0000
0000
0000
0000
0000
0000
0000
0000
0000
0000
0000
0000
0000
0000
0000
0000
0000
2002
0000
0000
0000
0000
0000
0000
0000
0000
0000
0000
0000
0000
0000
0000
0000
0000
0000
0000
0000
0000
0000
0000
0000
0000
0000
0000
0000
0000
0000
0000
,
0000
0000
0000
0000
,
0000
3003
0000
0000
;

//--------------- dance-single - NGO Chart ----------------
#NOTES:
     dance-single:
     NGO Chart:
     Edit:
     15:
     0,0,0,0,0:
0000
0000
0000
0000
,
0000
0000
0000
0000
,
0000
0000
0000
0000
,
0000
0000
0000
0000
,
0000
0000
0000
0000
,
0000
0000
0000
0000
,
0000
0000
0000
0000
,
0000
0000
0000
0000
,
0000
0000
0000
0000
,
0000
0000
1010
0000
,
0011
0000
0100
0100
,
1000
0100
0010
0001
0110
0000
0000
0000
,
0000
0000
0101
0000
,
1100
0000
0000
0000
0020
0000
0000
1000
,
0000
0100
0000
0000
0001
0000
0000
1000
,
0000
0030
1100
0000
,
0101
0000
0110
0001
,
0010
0100
0000
1000
,
0010
0100
0000
0001
,
0001
0100
0110
0000
,
1001
0000
0000
1000
,
1000
0010
0000
0001
,
0100
1000
0110
0001
,
1000
0100
1000
0100
0010
0001
0010
0001
1010
0000
0010
0000
0110
0000
0000
0000
,
1001
0000
1100
0100
0110
0000
1001
0000
,
1000
0010
0100
0001
0011
0010
1010
0000
,
0110
0000
1100
0100
0101
0000
0110
0000
,
1000
0100
0010
0100
1100
0100
0000
0110
,
0010
0000
0011
0001
0000
0101
0100
0000
,
0110
0001
0110
0001
1100
0100
0001
1100
,
1000
0001
0101
1000
0100
0101
1000
0100
,
1001
0100
0110
0001
0011
0100
0010
1100
,
0000
0000
0000
1100
0100
0001
0010
0101
,
0000
0110
0000
1100
0100
0000
0110
0000
,
0101
0010
0110
0010
1100
0000
0000
0000
,
1100
0100
0001
0010
0100
0100
1000
1010
,
0000
0000
0000
0110
0001
0010
0001
0110
,
0000
0000
0000
0000
1100
0000
0000
0000
0010
0000
0010
0000
1000
0001
1000
0000
,
0001
0000
0010
0100
0010
0000
0100
0000
1000
0000
0010
0000
0100
0000
0001
0000
,
0110
0010
0110
0010
1001
0000
0000
0000
,
0110
0000
0000
0001
,
0010
1000
0000
1000
,
0100
0001
0000
0010
,
1000
0100
0001
0000
,
0000
0000
0000
0010
,
0100
0001
0001
0100
,
0010
0000
0000
0000
1000
0000
0000
0000
1000
0010
1000
0010
1000
0010
1000
0000
,
0001
0100
0001
0100
0001
0100
0001
0000
1000
0000
0100
0000
1100
0000
0000
0000
,
0001
0100
0101
0000
0010
0100
0110
0000
,
1000
0001
1001
0000
1000
0100
0010
0001
,
0100
0010
1000
0010
0100
0001
0010
0100
,
1000
0010
0100
0001
0011
0001
0010
0000
,
1010
1000
0010
0000
0110
0100
0010
0000
,
1001
0001
1000
0000
1000
0100
0010
0100
,
1000
0010
0100
0001
0010
0100
0010
0100
,
1000
0010
0100
0001
2002
0000
0000
0000
,
0000
0000
0000
0000
,
0000
0000
0000
0000
0000
0000
0000
0000
0000
0000
0000
0000
0000
0000
0000
0000
0000
0000
0000
0000
0000
0000
0000
0000
0000
0000
0000
0000
0000
0000
0000
0000
0000
0000
0000
0000
0000
0000
0000
0000
0000
0000
0000
0000
0000
0000
0000
0000
0000
0000
0000
0000
0000
0000
0000
0000
0000
0000
0000
0000
0000
0000
0000
3003
,
1100
0000
0000
0000
0000
0000
0000
0000
0000
0000
0000
0000
0000
0000
0000
0000
0000
0000
0000
0000
0000
0000
0000
0000
0000
0000
0000
0101
0000
0000
0000
0000
0011
0000
0000
0000
0000
0000
0000
0000
0000
0000
0000
0000
0000
0000
0000
0000
0000
0000
0000
0000
0000
0000
0000
0000
0000
0000
0000
0000
0000
0000
1010
0000
,
0110
1001
0000
0000
0000
0000
0000
0000
0000
0000
0000
0000
0000
1000
0000
0000
,
0000
0100
0000
0000
0000
0000
0000
0000
0010
0000
0000
0000
0000
0000
0000
0000
0000
0000
0000
0000
0000
0000
0000
0000
0000
0000
0000
0000
0000
0000
0000
0000
,
0000
0000
0001
0000
,
0000
0000
0000
1100
0000
0000
0000
0000
0000
0011
0000
0000
0000
0000
0000
0000
,
1001
0000
0011
0000
,
0000
1000
0100
0001
,
0000
0001
0010
1000
,
0000
1000
0010
0001
,
0110
0000
0000
0000
,
0110
0000
0000
0000
0000
0000
1100
0000
0000
0000
0000
0011
0000
0000
0000
0000
,
0110
0011
0101
0110
,
1000
0100
1000
0100
0010
0001
0010
0001
1000
0010
1000
0010
0100
0001
0100
0001
,
1100
0001
0000
0011
1000
0000
1001
0110
,
0101
1000
0000
1010
0001
0000
0110
1001
,
1100
0010
0000
0101
0010
0000
0110
1001
,
1010
0100
0000
0011
0100
0000
1001
0110
,
1010
0100
1010
0000
0011
0100
0011
0000
,
1001
0100
1001
0000
0110
0001
0110
0000
,
1001
0001
0100
1000
0100
0010
0001
0100
,
1000
0100
0001
0010
1000
0001
0100
1000
,
0010
0001
0100
0010
0001
0100
0010
0001
,
1000
0010
0100
1000
0100
0001
0010
0100
,
1000
0010
0001
0010
0100
1000
0001
0010
,
1000
0100
0010
1000
0010
0001
0100
0010
,
1000
0100
0001
0100
0010
0100
0001
0010
,
0100
0001
0010
1000
0010
0100
0010
0001
,
1000
0100
0001
0010
1000
0100
0001
0100
,
0010
0001
0100
0010
1000
0010
0001
0100
,
1000
0010
0001
0100
0001
0010
1000
0100
,
1000
0010
0001
0100
1000
0010
0001
0100
,
0000
0000
0000
0000
0000
0000
0000
0000
0000
0000
0000
0000
0000
0000
0000
0000
0000
0000
0000
0000
0000
0000
0000
0000
0000
0000
0000
0000
0000
0000
0000
0000
0000
2002
0000
0000
0000
0000
0000
0000
0000
0000
0000
0000
0000
0000
0000
0000
0000
0000
0000
0000
0000
0000
0000
0000
0000
0000
0000
0000
0000
0000
0000
0000
,
0000
0000
0000
0000
,
0000
3003
0000
0000
;
