#TITLE:Monolith;
#SUBTITLE:;
#ARTIST:Affinity;
#TITLETRANSLIT:;
#SUBTITLETRANSLIT:;
#ARTISTTRANSLIT:;
#GENRE:;
#CREDIT:;
#MUSIC:Monolith.ogg;
#BANNER:Monolith-bn.png;
#BACKGROUND:Monolith-bg.png;
#CDTITLE:;
#SAMPLESTART:32.038;
#SAMPLELENGTH:19.592;
#SELECTABLE:YES;
#OFFSET:-0.201;
#BPMS:0.000=98.000
,16.000=196.000
,328.000=98.000
;
#STOPS:;
#DISPLAYBPM:196.000;
#BGCHANGES:;
#FGCHANGES:;

//--------------- dance-single - ----------------
#NOTES:
     dance-single:
     :
     Beginner:
     11:
     0,0,0,0,0:
2000
3200
0320
0032
,
2003
3200
0320
0032
,
2003
3200
0320
0032
,
2003
3200
0320
0032
,
1003
0100
1000
0000
0001
0100
0001
0000
,
1000
0010
1000
0000
0001
0010
0001
0000
,
1000
0100
1000
0000
0100
0010
0100
0000
,
0010
0001
0010
0000
0001
1000
0001
0000
,
1000
0010
1000
0000
0001
0010
0001
0000
,
1000
0100
1000
0000
0001
0100
0001
0000
,
1000
0010
1000
0000
0010
0100
0010
0000
,
0100
0001
0100
0000
0001
1000
0001
0000
,
1000
0100
1000
0000
0100
0001
0100
0000
,
0001
0010
0001
0000
0010
1000
0010
0000
,
1000
0100
1000
0000
0100
0010
0100
0000
,
0010
0001
0010
0000
0001
1000
0001
0000
,
1000
0010
1000
0000
0010
0001
0010
0000
,
0001
0100
0001
0000
0100
1000
0100
0000
,
1000
0010
1000
0000
0010
0100
0010
0000
,
0100
0001
0100
0000
0001
0010
0001
0000
,
1100
0000
1010
0110
0000
0101
0000
0011
,
1100
0000
1010
0110
0000
0101
0011
0000
,
1000
0100
0010
0100
1000
0000
0010
0000
0100
0000
0001
0000
0010
0000
0100
0000
,
1000
0010
0100
0010
1000
0100
0010
0001
,
1000
0010
0100
0010
1000
0000
0100
0000
0010
0000
0001
0000
0100
0000
0010
0000
,
1000
0100
0010
0100
1000
0010
0100
0001
,
1000
0100
0010
0001
0100
0000
0010
0000
1000
0000
0100
0000
0010
0000
0001
0000
,
1000
0010
0100
0010
1000
0010
0100
0001
,
1000
0010
0100
0001
0010
0000
0100
0000
1000
0000
0010
0000
0100
0000
0001
0000
,
1000
0100
0010
0100
1000
0100
0010
0001
,
1000
0000
0010
0000
0100
0001
0010
0100
1000
0000
0010
0000
0100
0000
0010
0000
,
1000
0100
0010
0001
0100
0010
0100
0010
,
1000
0100
1000
0010
0100
0000
0001
0000
0010
0000
0001
0000
0100
0000
0010
0000
,
1000
0100
0010
0100
1000
0010
0100
0001
,
1000
0010
1000
0100
0010
0000
0001
0000
0100
0000
0001
0000
0010
0000
0100
0000
,
1000
0010
0100
0010
1000
0100
0010
0001
,
0100
0010
1000
0001
0010
0000
0001
0000
0100
0000
0010
0000
1000
0000
0100
0000
,
1000
0000
0010
0000
0100
0000
0001
0000
0010
0001
1000
0010
0100
0000
0001
0000
,
1000
0100
1000
0100
1000
0000
0001
0100
,
0001
0100
0001
0100
0001
0000
1000
0010
,
1000
0010
1000
0010
1000
0000
0001
0010
,
0001
0010
0001
0010
0001
0000
0100
0010
,
0100
0010
0100
0010
0100
0000
0001
1000
,
0001
1000
0001
1000
0001
0000
0010
0100
,
0010
0100
0010
0100
0010
0000
1000
0001
,
1100
0000
1010
0110
0000
0000
0000
0000
,
0000
1000
1000
0010
0100
0100
0000
0001
,
0001
0100
0010
0010
0000
1000
0000
1000
,
0000
0001
0001
0010
0100
0100
0000
1000
,
1000
0100
0010
0010
0000
0001
0000
0001
,
0000
1000
0010
0100
0001
0001
0000
0001
,
0100
0010
1000
1000
0000
1000
0000
1000
,
0000
0001
0010
0100
1000
1000
0000
1000
,
0100
0010
0001
0001
0001
0100
0010
1000
,
1100
0000
1010
0110
0000
0101
0000
0011
,
1001
0000
0000
0000
,
1100
0000
1010
0110
0000
0101
0000
0011
,
1001
0000
0000
0000
,
1100
0000
1010
0110
0000
0101
0000
0011
,
1100
0000
1010
0110
0000
0101
0000
0011
,
1100
0000
0000
0000
1010
0000
0110
0000
0000
0000
0101
0000
1000
0010
0100
0001
,
0011
0000
0000
0000
0000
0000
0000
1001
,
1000
0100
1000
0100
1000
0000
0010
0000
0100
0000
0001
0000
0010
0000
0001
0000
,
1000
0100
1000
0100
1000
0000
0100
0000
0010
0000
0001
0000
0100
0000
0001
0000
,
1000
0010
1000
0010
1000
0000
0100
0000
0010
0000
0001
0000
0100
0000
0001
0000
,
1000
0010
1000
0010
1000
0000
0010
0000
0100
0000
0001
0000
0010
0000
0001
0000
,
1000
0100
0010
0100
1000
0000
0010
0000
0100
0000
0001
0000
0010
0000
0001
0000
,
1000
0100
0010
0100
1000
0000
0100
0000
0010
0000
0001
0000
0100
0000
0001
0000
,
1000
0010
0100
0010
1000
0000
0100
0000
0010
0000
0001
0000
0100
0000
0001
0000
,
1000
0010
0100
0010
1000
0000
0010
0000
0100
0000
0001
0010
0001
0000
0100
0000
,
0010
0000
1000
0100
1000
0000
0010
0000
0100
0000
0001
0000
0010
0000
0001
0000
,
1000
0100
0010
0001
0100
0000
0001
0000
0100
0000
0010
0000
1000
0000
0001
0000
,
0100
0010
1000
0001
0010
0000
0001
0000
0100
0000
0010
0000
1000
0000
0001
0000
,
0100
0010
1000
0001
0010
0000
0001
0000
0010
0000
0100
0000
1000
0000
0001
0000
,
0010
0001
1000
0010
0100
0000
0001
0000
0010
0000
0100
0000
1000
0000
0001
0000
,
0010
0001
1000
0010
0100
0000
0001
0000
0100
0000
0010
0000
1000
0000
0001
0000
,
0100
0010
1000
0100
1000
0000
0010
0000
0100
0000
0001
0000
0010
0000
0001
0000
,
0100
0010
1000
0100
1000
0000
0010
0000
0100
0001
0010
0001
0100
0000
0010
0000
,
1000
1100
0100
0101
,
0001
0011
0010
1010
,
1000
1100
0100
0101
,
0001
0000
0011
0000
0010
1000
0100
0010
,
2002
0000
0000
0000
,
3003
0000
0000
0000
;

//--------------- dance-single - ----------------
#NOTES:
     dance-single:
     :
     Easy:
     12:
     0,0,0,0,0:
2000
3200
0320
0032
2003
3200
0320
0032
,
2003
3200
0320
0032
2003
3200
0320
0032
,
2003
3200
0320
0032
2003
3200
0320
0032
,
2003
3200
0320
0032
2003
3200
0320
0032
,
1003
0100
1000
0010
0100
0001
0010
0001
,
1000
0100
1000
0010
0100
0001
0010
0001
,
1000
0010
1000
0100
0010
0001
0100
0001
,
1000
0010
1000
0100
0010
0001
0100
0001
,
1000
0100
1000
0010
0100
0001
0010
0001
,
1000
0010
1000
0100
0010
0001
0100
0001
,
1000
0010
1000
0100
0010
0001
0100
0001
,
1000
0100
1000
0010
0100
0001
0010
0001
,
1000
0100
1000
0010
0100
0001
0010
0100
,
1000
0100
0010
0001
0100
0010
1000
0100
,
1000
0010
1000
0100
0010
0001
0100
0010
,
1000
0010
0100
0001
0010
0100
1000
0010
,
1000
0100
1000
0010
0100
0001
0010
0100
,
1000
0100
0010
0100
1000
0100
0010
0001
,
0010
0100
0010
0100
1000
0100
0010
0001
,
0100
0010
1000
0100
1000
0010
0100
0001
,
1100
0000
1010
0110
0000
0101
0000
0011
,
1100
0000
1010
0110
0000
0101
0000
0011
,
1000
0100
1000
0000
0001
0100
0001
0000
1000
0010
1000
0000
0001
0010
0001
0000
,
1000
0100
1000
0000
0100
0010
0100
0000
0010
0001
0010
0000
0001
1000
0001
0000
,
1000
0010
1000
0000
0001
0010
0001
0000
1000
0100
1000
0000
0001
0100
0001
0000
,
1000
0010
1000
0000
0010
0100
0010
0000
0100
0001
0100
0000
0001
1000
0001
0000
,
1000
0100
1000
0000
0001
0100
0001
0000
1000
0010
1000
0000
0001
0010
0001
0000
,
1000
0100
1000
0000
0100
0001
0100
0000
0001
0010
0001
0000
0010
1000
0010
0000
,
1000
0010
1000
0000
0001
0010
0001
0000
1000
0100
1000
0000
0001
0100
0001
0000
,
1000
0010
1000
0000
0010
0001
0010
0000
0001
0100
0001
0000
0100
1000
0100
0000
,
1000
0100
1000
0000
0001
0100
0001
0000
1000
0010
1000
0000
0001
0010
0001
0000
,
1000
0010
1000
0000
0010
0100
0010
0000
0100
0001
0100
0000
0001
1000
0001
0000
,
1000
0010
1000
0000
0001
0010
0001
0000
1000
0100
1000
0000
0001
0100
0001
0000
,
1000
0100
1000
0000
0100
0010
0100
0000
0010
0001
0010
0000
0001
1000
0001
0000
,
1000
0100
1000
0000
0001
0100
0001
0000
1000
0010
1000
0000
0001
0010
0001
0000
,
1000
0010
1000
0000
0010
0001
0010
0000
0001
0100
0001
0000
0100
1000
0100
0000
,
1000
0010
1000
0000
0001
0010
0001
0000
1000
0100
1000
0000
0001
0100
0001
0000
,
1000
0100
1000
0000
0100
0001
0100
0000
0001
0010
0001
0000
0010
1000
0010
0000
,
1000
0100
1000
0100
1000
0100
1000
0100
,
0010
0001
0010
0001
0010
0001
0010
0001
,
1000
0010
1000
0010
1000
0010
1000
0010
,
0100
0001
0100
0001
0100
0001
0100
0001
,
0010
0100
0010
0100
0010
0100
0010
0100
,
1000
0001
1000
0001
1000
0001
1000
0001
,
0100
0010
0100
0010
1000
0001
1000
0001
,
1001
0000
0000
0110
0000
0000
0000
0000
,
0000
1000
0100
1000
0100
1000
0000
0100
,
0010
0100
0010
0100
0000
0010
0000
0001
,
0000
1000
0010
1000
0010
1000
0000
0010
,
0100
0010
0100
0010
0000
0100
0000
0001
,
0000
1000
0100
1000
0100
1000
0000
0100
,
0010
0100
0010
0100
0000
0010
0000
0001
,
0000
1000
0010
1000
0010
1000
0000
0010
,
0100
0010
0100
0001
0010
0100
1000
0000
,
1100
0000
1010
0110
0000
0101
0000
0011
,
1001
0000
0000
0000
,
1100
0000
1010
0110
0000
0101
0000
0011
,
1001
0000
0000
0000
,
1100
0000
1010
0110
0000
0101
0000
0011
,
1100
0000
1010
0110
0000
0101
0000
0011
,
1100
0000
0000
0000
1010
0000
0110
0000
0000
0000
0101
0000
1000
0010
0100
0001
,
0011
0000
0000
0000
0000
0000
0000
1001
,
0001
0010
0001
0000
1000
0010
1000
0000
0001
0100
0001
0000
1000
0100
1000
0000
,
0001
0010
0001
0000
0010
0100
0010
0000
0100
1000
0100
0000
1000
0001
1000
0000
,
0001
0100
0001
0000
1000
0100
1000
0000
0001
0010
0001
0000
1000
0010
1000
0000
,
0001
0100
0001
0000
0100
0010
0100
0000
0010
1000
0010
0000
1000
0001
1000
0000
,
0001
0010
0001
0000
1000
0010
1000
0000
0001
0100
0001
0000
1000
0100
1000
0000
,
0001
0010
0001
0000
0010
1000
0010
0000
1000
0100
1000
0000
0100
0001
0100
0000
,
0001
0100
0001
0000
1000
0100
1000
0000
0001
0010
0001
0000
1000
0010
1000
0000
,
0001
0100
0001
0000
0100
1000
0100
0000
1000
0010
1000
0000
0010
0001
0010
0000
,
0001
0010
0001
0000
1000
0010
1000
0000
0001
0100
0001
0000
1000
0100
1000
0000
,
0001
0100
0001
0000
0100
0010
0100
0000
0010
1000
0010
0000
1000
0001
1000
0000
,
0001
0100
0001
0000
1000
0100
1000
0000
0001
0010
0001
0000
1000
0010
1000
0000
,
0001
0010
0001
0000
0010
0100
0010
0000
0100
1000
0100
0000
1000
0001
1000
0000
,
0001
0010
0001
0000
1000
0010
1000
0000
0001
0100
0001
0000
1000
0100
1000
0000
,
0001
0100
0001
0000
0100
1000
0100
0000
1000
0010
1000
0000
0010
0001
0010
0000
,
0001
0100
0001
0000
1000
0100
1000
0000
0001
0010
0001
0000
1000
0010
1000
0000
,
0001
0010
0001
0000
0010
1000
0010
0000
1000
0100
1000
0000
0100
0001
0100
0000
,
0001
0010
0100
1000
,
1000
0100
0010
0001
,
0001
0010
0100
1000
,
1000
0100
0010
0001
,
2002
0000
0000
0000
,
3003
0000
0000
0000
;

//--------------- dance-single - ----------------
#NOTES:
     dance-single:
     :
     Medium:
     13:
     0,0,0,0,0:
2000
3200
0320
0230
2300
3200
0320
0230
,
2300
3020
0230
0320
2030
3020
0230
0320
,
2030
3200
0320
0230
2300
3020
0230
0302
,
0023
0230
0320
0230
2300
3020
0230
0302
,
1003
0100
0010
0100
1000
0100
0010
0001
,
0010
0100
0010
0100
1000
0100
0010
0001
,
1000
0001
0010
0100
1000
0100
0010
0100
,
0010
0001
0010
0100
1000
0100
0010
0100
,
1000
0010
0100
0010
1000
0010
0100
0001
,
0100
0010
0100
0010
1000
0010
0100
0001
,
1000
0001
0100
0010
1000
0010
0100
0010
,
0100
0001
0100
0010
1000
0010
0100
0010
,
1000
0100
0010
0100
1000
0010
0100
0001
,
0010
0100
0010
0100
1000
0010
0100
0001
,
1000
0001
0010
0100
1000
0010
0100
0010
,
0100
0001
0010
0100
1000
0010
0100
0010
,
1000
0010
0100
0010
1000
0100
0010
0001
,
0100
0010
0100
0010
1000
0100
0010
0001
,
1000
0001
0100
0010
1000
0100
0010
0100
,
0010
0001
0100
0010
1000
0100
0010
0100
,
1100
0000
1010
0110
0000
0101
0000
0011
,
1100
0000
1010
0110
0000
0101
0011
0000
,
1000
0100
0010
0100
1000
0010
0100
0010
1000
0100
1000
0010
0100
0010
1000
0100
,
1000
0010
0100
0010
1000
0100
0010
0100
1000
0010
1000
0100
0010
0100
1000
0010
,
1000
0100
0010
0100
1000
0010
0100
0010
,
1000
0100
0010
0001
1000
0010
0100
0001
,
0010
0100
0010
0001
0100
0010
0100
0001
0010
0100
0010
0001
0100
0001
0010
0100
,
0010
0001
0100
0001
0010
0100
0010
0001
0100
0010
0100
0001
0010
0001
0100
0010
,
0100
0001
0010
0100
1000
0010
0100
0010
,
1000
0100
0010
0001
,
1000
0100
0010
0001
0010
0100
0010
0100
,
1000
0100
0010
0001
0010
0100
0010
0001
,
1000
0010
0100
0001
0100
0010
0100
0010
,
1000
0010
0100
0001
0100
0010
0100
0001
,
1000
0100
1000
0100
0010
0001
0010
0001
1000
0010
1000
0010
0100
0001
0100
0001
,
0010
0100
0010
0100
1000
0001
1000
0001
0100
0010
0100
0010
1000
0001
1000
0001
,
1000
0010
1000
0010
0100
0001
0100
0001
1000
0100
1000
0100
0010
0001
0010
0001
,
0100
0010
0100
0010
1000
0001
1000
0001
0010
0100
0010
0100
1000
0001
1000
0001
,
1000
0100
1000
0100
1000
0100
1000
0100
,
0010
0001
0010
0001
0010
0001
0010
0001
,
1000
0010
1000
0010
1000
0010
1000
0010
,
0100
0001
0100
0001
0100
0001
0100
0001
,
0010
0100
0010
0100
0010
0100
0010
0100
,
1000
0001
1000
0001
1000
0001
1000
0001
,
0100
0010
0100
0010
0100
0010
0100
0010
,
1100
0000
1010
0110
0000
0000
0000
0000
,
0000
1000
0100
0010
0001
0100
0000
0001
,
0010
0100
1000
0010
0000
0100
0000
0001
,
0000
1000
0010
0100
0001
0010
0000
0001
,
0100
0010
1000
0100
0000
0010
0000
0001
,
0000
1000
0100
0010
0100
1000
0000
0001
,
0010
0100
0010
0001
0000
0100
0000
0010
,
0000
1000
0010
0100
0010
1000
0000
0001
,
0100
0010
0100
0001
0010
0100
1000
0000
,
1100
0000
1010
0110
0000
0101
0000
0011
,
1001
0000
0000
0000
,
1100
0000
1010
0110
0000
0101
0000
0011
,
1001
0000
0000
0000
,
1100
0000
1010
0110
0000
0101
0000
0011
,
1100
0000
1010
0110
0000
0101
0000
0011
,
1100
0000
0000
0000
1010
0000
0110
0000
0000
0000
0101
0000
1000
0010
0100
0001
,
0011
0000
0000
0000
0000
0000
0000
1001
,
1000
0100
1000
0100
0010
0001
0010
0001
1000
0010
1000
0010
0100
0001
0100
0001
,
0010
0100
0010
0100
1000
0001
1000
0001
1000
0010
0100
0010
1000
0100
0010
0001
,
1000
0010
1000
0010
0100
0001
0100
0001
1000
0100
1000
0100
0010
0001
0010
0001
,
0100
0010
0100
0010
1000
0001
1000
0001
1000
0100
0010
0100
1000
0010
0100
0001
,
1000
0100
1000
0100
1000
0010
1000
0010
0100
0001
0100
0001
0010
0001
0010
0001
,
0100
0010
0100
0010
1000
0001
1000
0001
1000
0010
0100
0010
1000
0100
0010
0001
,
1000
0010
1000
0010
1000
0100
1000
0100
0010
0001
0010
0001
0100
0001
0100
0001
,
0010
0100
0010
0100
1000
0001
1000
0001
1000
0100
0010
0100
1000
0010
0100
0001
,
1000
0100
1000
0010
0100
0001
0010
0100
1000
0100
0010
0001
0100
0010
1000
0100
,
1000
0010
1000
0100
0010
0001
0100
0001
1000
0100
0010
0100
1000
0100
0010
0001
,
1000
0010
1000
0100
0010
0001
0100
0010
1000
0010
0100
0001
0010
0100
1000
0010
,
1000
0100
1000
0010
0100
0001
0010
0001
1000
0010
0100
0010
1000
0010
0100
0001
,
1000
0100
0010
0100
1000
0001
0100
0010
1000
0100
0010
0100
1000
0010
0100
0001
,
1000
0100
1000
0010
0100
0001
0010
0001
0100
0010
1000
0100
1000
0010
0100
0001
,
1000
0010
0100
0010
1000
0001
0010
0100
1000
0010
0100
0010
1000
0100
0010
0001
,
1000
0010
1000
0100
0010
0001
0100
0001
0010
0100
1000
0010
1000
0100
0010
0001
,
1000
0100
0010
0001
1000
0100
0010
0001
,
1000
0100
0010
0001
1000
0100
0010
0001
,
1000
0100
0010
0001
1000
0100
0010
0001
,
1000
0100
0010
0001
1000
0100
0010
0001
,
2002
0000
0000
0000
,
3003
0000
0000
0000
;

//--------------- dance-single - ----------------
#NOTES:
     dance-single:
     :
     Hard:
     14:
     0,0,0,0,0:
2000
3200
0320
0032
0203
0320
2030
3002
,
2003
3020
0230
0302
0023
0230
2300
3002
,
2003
3200
0320
0230
2300
3020
0230
0302
,
2003
3020
0230
0320
2030
3200
0320
0032
,
1003
0100
1000
0100
1000
0000
0100
0000
0010
0001
0010
0001
0010
0000
0001
0000
,
1000
0010
1000
0010
1000
0000
0010
0000
0100
0001
0100
0001
0100
0000
0001
0000
,
0010
0100
0010
0100
0010
0000
0100
0000
1000
0001
1000
0001
1000
0000
0001
0000
,
0100
0010
0100
0010
0100
0000
0010
0000
1000
0001
1000
0001
1000
0000
0001
0000
,
1000
0100
1000
0100
0010
0000
0001
0000
1000
0010
1000
0010
0100
0000
0001
0000
,
0010
0100
0010
0100
1000
0000
0001
0000
0100
0010
0100
0010
1000
0000
0001
0000
,
1000
0010
1000
0010
0100
0001
0100
0001
1000
0100
1000
0100
0010
0001
0010
0001
,
0100
0010
0100
0010
1000
0001
1000
0001
0100
0010
0100
0010
1000
0001
1000
0000
,
0001
0010
0001
0010
0001
0000
0010
0000
0100
1000
0100
1000
0100
0000
1000
0000
,
0001
0100
0001
0100
0001
0000
0100
0000
0010
1000
0010
1000
0010
0000
1000
0000
,
0100
0010
0100
0010
0100
0000
0010
0000
0001
1000
0001
1000
0001
0000
1000
0000
,
0010
0100
0010
0100
0010
0000
0100
0000
0001
1000
0001
1000
0001
0000
1000
0000
,
0001
0010
0001
0010
0100
0000
1000
0000
0001
0100
0001
0100
0010
0000
1000
0000
,
0100
0010
0100
0010
0001
0000
1000
0000
0010
0100
0010
0100
0001
0000
1000
0000
,
0001
0100
0001
0100
0010
1000
0010
1000
0001
0010
0001
0010
0100
1000
0100
1000
,
0010
0100
0010
0100
0001
1000
0001
1000
0010
0100
0010
0100
0001
1000
0001
0000
,
1100
0000
1010
0110
0000
0101
0000
0011
,
1010
0000
0000
0000
0110
0000
0101
0000
0000
0000
1001
0000
1000
0010
0100
0001
,
1000
0100
0010
0100
1000
0001
0100
0010
1000
0100
1000
0010
0100
0001
1000
0010
,
0100
0010
1000
0001
0010
0001
0100
0010
1000
0100
1000
0010
0100
0001
0010
0001
,
1000
0010
0100
0010
1000
0001
0010
0100
1000
0010
1000
0100
0010
0001
1000
0100
,
0010
0001
1000
0010
0100
0001
0010
0100
1000
0010
1000
0100
0010
0001
0100
0001
,
1000
0100
0010
0100
1000
0001
0010
0100
1000
0010
1000
0100
0010
0001
1000
0010
,
0100
0010
1000
0001
0010
0001
0100
0010
1000
0010
1000
0100
0010
0001
0100
0001
,
1000
0010
0100
0010
1000
0001
0100
0010
1000
0100
1000
0010
0100
0001
1000
0100
,
0010
0001
1000
0010
0100
0001
0010
0100
1000
0100
1000
0010
0100
0000
0001
0000
,
0010
0000
0001
0100
0010
1000
0100
0010
0100
1000
0100
0010
0001
0010
0100
0010
,
0100
1000
0100
0010
0001
0100
0010
1000
0100
1000
0010
0100
0001
0010
0001
1000
,
0001
0100
0001
0010
0100
1000
0010
0100
0010
1000
0010
0100
0001
0100
0010
0100
,
0010
1000
0010
0100
0001
0010
0100
1000
0010
1000
0100
0010
0001
0100
0001
1000
,
0010
0100
0001
1000
0100
1000
0010
0100
0001
0010
0001
0100
0010
1000
0100
0010
,
0001
0100
0010
1000
0100
0010
0001
0100
0001
0010
0100
0010
0100
1000
0001
1000
,
0100
1000
0001
0100
0010
1000
0100
0010
0001
0100
0001
0010
0100
1000
0010
0100
,
0001
0010
0100
1000
0010
0100
0001
0010
0001
0100
0010
0100
0010
0000
1000
0001
,
1000
0100
1000
0100
0010
0001
0010
0001
1000
0010
1000
0010
0100
0001
0100
0001
,
0010
0100
0010
0100
1000
0001
1000
0001
0100
0010
0100
0010
1000
0001
1000
0001
,
1000
0010
1000
0010
0100
0001
0100
0001
1000
0100
1000
0100
0010
0001
0010
0001
,
0100
0010
0100
0010
1000
0001
1000
0001
0010
0100
0010
0100
1000
0001
1000
0001
,
1000
0100
1000
0100
0010
0100
0010
0100
0010
0001
0010
0001
1000
0001
1000
0001
,
1000
0010
1000
0010
0100
0010
0100
0010
0100
0001
0100
0001
1000
0001
1000
0001
,
1000
0100
0010
0001
1000
0010
0100
0001
1000
0100
0010
0001
1000
0010
0100
0001
,
1001
0000
0000
0110
0000
0000
0000
0000
,
1000
0200
0320
0230
2300
3020
0130
0002
,
0023
0230
0320
0230
1300
0020
0130
0002
,
1003
0020
0230
0320
2030
3200
0310
0002
,
0203
0320
0230
0320
1030
0200
0310
0002
,
1003
0200
0320
0230
2300
3200
0310
0002
,
0023
0230
0320
0230
1300
0200
0310
0002
,
1003
0020
0230
0320
2030
3020
0130
0002
,
0203
0320
0230
0320
2030
3020
0230
0301
,
1100
0000
1010
0110
0000
0101
0000
0011
,
1001
0000
0000
0000
,
1100
0000
1010
0110
0000
0101
0000
0011
,
1001
0000
0000
0000
,
1100
0000
1010
0110
0000
0101
0000
0011
,
1100
0000
1010
0110
0000
0101
0000
0011
,
1100
0000
0000
0000
1010
0000
0110
0000
0000
0000
0101
0000
1000
0010
0100
0001
,
0011
0000
0000
0000
0000
0000
0000
1001
,
0001
0100
0010
0100
0001
1000
0100
0010
0001
0100
0001
0010
0100
1000
0001
0010
,
0100
0010
0001
1000
0010
1000
0100
0010
0001
0100
0001
0010
0100
1000
0010
1000
,
0001
0010
0100
0010
0001
1000
0010
0100
0001
0010
0001
0100
0010
1000
0001
0100
,
0010
1000
0001
0010
0100
1000
0010
0100
0001
0010
0001
0100
0010
1000
0100
1000
,
0001
0100
0010
0100
0001
1000
0010
0100
0001
0010
0001
0100
0010
1000
0001
0010
,
0100
0010
0001
1000
0010
1000
0100
0010
0001
0010
0001
0100
0010
1000
0100
1000
,
0001
0010
0100
0010
0001
1000
0100
0010
0001
0100
0001
0010
0100
1000
0001
0100
,
0010
1000
0001
0010
0100
1000
0010
0100
0001
0100
0001
0010
0100
1000
0010
0000
,
1000
0000
0100
0000
0010
0001
0100
0010
0100
0001
0100
0010
1000
0010
0100
0010
,
0100
0001
0100
0010
1000
0100
0010
0001
0100
0001
0010
0100
1000
0010
1000
0001
,
1000
0100
1000
0010
0100
0001
0010
0100
0010
0001
0010
0100
1000
0100
0010
0100
,
0010
0001
0010
0100
1000
0010
0100
0001
0010
0001
0100
0010
1000
0100
1000
0001
,
0010
0100
1000
0001
0100
0001
0010
0100
1000
0010
1000
0100
0010
0001
0100
0010
,
1000
0100
0010
0001
0100
0010
1000
0100
1000
0010
0100
0010
0100
0001
1000
0001
,
0100
0001
1000
0100
0010
0001
0100
0010
1000
0100
1000
0010
0100
0001
0010
0100
,
1000
0010
0100
0001
0010
0100
1000
0010
1000
0100
0010
0100
0010
0001
0100
0001
,
2000
3000
0100
0000
1000
0000
0100
0000
1000
0000
0100
0000
1000
0000
0100
0000
,
0010
0001
0010
0001
0010
0001
0010
0001
,
1000
0010
1000
0010
1000
0010
1000
0010
,
0100
0001
0100
0001
0100
0001
0100
0001
,
2002
0000
0000
0000
,
3003
0000
0000
0000
;

//--------------- dance-single - ----------------
#NOTES:
     dance-single:
     :
     Challenge:
     15:
     0,0,0,0,0:
0000
0000
0000
0000
,
0000
0000
0000
0000
,
0000
0000
0000
0000
,
0000
0000
0000
0000
,
0010
0001
1000
0010
0100
0001
0010
0100
1000
0010
1000
0100
0010
0001
0100
0001
,
0100
0010
1000
0001
0010
0001
0100
0010
1000
0100
1000
0010
0100
0001
0010
0001
,
1000
0010
1000
0100
0010
0001
0100
0001
0010
0001
1000
0010
0100
0001
0010
0100
,
1000
0100
1000
0010
0100
0001
0010
0001
0100
0010
1000
0001
0010
0001
0100
0010
,
1000
0100
1000
0010
0100
0001
0010
0100
1000
0100
0010
0001
0100
0010
1000
0100
,
1000
0010
0100
0001
0010
0100
1000
0010
0100
0001
0010
0100
1000
0100
0010
0100
,
1000
0010
1000
0100
0010
0001
0100
0010
1000
0010
0100
0001
0010
0100
1000
0010
,
1000
0100
0010
0001
0100
0010
1000
0100
0010
0001
0100
0010
1000
0010
0100
0010
,
1000
0100
0010
0100
1000
0100
0010
0100
1000
0100
0010
0001
1000
0100
0010
0001
,
0010
0100
0010
0100
0010
0100
0010
0100
1000
0100
0010
0001
1000
0100
0010
0001
,
1000
0010
0100
0010
1000
0010
0100
0010
1000
0010
0100
0001
1000
0010
0100
0001
,
0100
0010
0100
0010
0100
0010
0100
0010
1000
0010
0100
0001
1000
0010
0100
0001
,
1000
0100
0010
0100
1000
0100
0010
0100
1000
0010
0100
0001
1000
0010
0100
0001
,
0010
0100
0010
0100
0010
0100
0010
0100
1000
0010
0100
0001
1000
0010
0100
0001
,
1000
0010
0100
0010
1000
0010
0100
0010
1000
0100
0010
0001
1000
0100
0010
0001
,
0100
0010
0100
0010
0100
0010
0100
0010
1000
0100
0010
0001
1000
0100
0010
0001
,
1100
0100
0110
0011
0001
1001
0000
0110
,
1010
0000
1000
0000
1001
0000
0101
0000
0100
0000
0110
0000
1000
0010
0100
0001
,
1000
0100
0010
0100
1000
0001
0100
0010
1000
0100
1000
0010
0100
0001
1000
0010
,
0100
0010
1000
0001
0010
0001
0100
0010
1000
0100
1000
0010
0100
0001
0010
0001
,
1000
0010
0100
0010
1000
0001
0010
0100
1000
0010
1000
0100
0010
0001
1000
0100
,
0010
0001
1000
0010
0100
0001
0010
0100
1000
0010
1000
0100
0010
0001
0100
0001
,
1000
0100
0010
0100
1000
0001
0010
0100
1000
0010
1000
0100
0010
0001
1000
0010
,
0100
0010
1000
0001
0010
0001
0100
0010
1000
0010
1000
0100
0010
0001
0100
0001
,
1000
0010
0100
0010
1000
0001
0100
0010
1000
0100
1000
0010
0100
0001
1000
0100
,
0010
0001
1000
0010
0100
0001
0010
0100
1000
0100
1000
0010
0100
0001
0010
0001
,
1000
0100
1000
0010
0100
0001
0010
0100
0010
0001
0010
0100
1000
0100
0010
0100
,
0010
0001
0010
0100
1000
0010
0100
0001
0010
0001
0100
0010
1000
0100
1000
0001
,
1000
0010
1000
0100
0010
0001
0100
0010
0100
0001
0100
0010
1000
0010
0100
0010
,
0100
0001
0100
0010
1000
0100
0010
0001
0100
0001
0010
0100
1000
0010
1000
0001
,
0100
0010
1000
0001
0010
0001
0100
0010
1000
0100
1000
0010
0100
0001
0010
0100
,
1000
0010
0100
0001
0010
0100
1000
0010
1000
0100
0010
0100
0010
0001
1000
0001
,
0010
0001
1000
0010
0100
0001
0010
0100
1000
0010
1000
0100
0010
0001
0100
0010
,
1000
0100
0010
0001
0100
0010
1000
0100
1000
0010
0100
0010
0100
0001
0010
0001
,
0100
0010
1000
0001
0010
0100
0010
0001
1000
0010
1000
0100
0010
0001
0100
0001
,
0010
0001
1000
0010
0100
0001
0010
0001
1000
0100
1000
0010
0100
0001
0010
0001
,
1000
0100
1000
0010
0100
0001
0010
0100
0010
0001
0100
0010
1000
0100
0010
0100
,
1000
0010
1000
0100
0010
0001
0100
0010
0100
0001
0010
0100
1000
0010
0100
0010
,
1000
0001
0100
0010
1000
0100
0010
0100
1000
0010
0100
0001
0010
0100
0010
0100
,
1000
0001
0010
0100
1000
0010
0100
0010
1000
0100
0010
0001
0100
0010
0100
0010
,
1000
0100
0010
0100
1000
0010
0100
0001
0010
0100
0010
0100
1000
0010
0100
0001
,
1000
0100
1000
0001
0100
0001
1000
0010
1000
0001
0010
0001
1000
0001
1000
0000
,
0100
0010
0001
1000
0010
0100
0010
1000
0001
0010
0001
0100
0010
1000
0100
1000
,
0010
1000
0001
0010
0100
1000
0010
1000
0001
0100
0001
0010
0100
1000
0010
1000
,
0001
0100
0001
0010
0100
1000
0010
0100
0010
1000
0100
0010
0001
0100
0010
0100
,
0001
0010
0001
0100
0010
1000
0100
0010
0100
1000
0010
0100
0001
0010
0100
0010
,
0001
1000
0100
0010
0001
0100
0010
0100
0001
0010
0100
1000
0010
0100
0010
0100
,
0001
1000
0010
0100
0001
0010
0100
0010
0001
0100
0010
1000
0100
0010
0100
0010
,
0001
0100
0010
0100
0001
0010
0100
1000
0010
0100
0010
0100
0001
0010
0100
1000
,
0001
0100
0001
1000
0100
1000
0001
0010
0001
1000
0010
1000
0001
1000
0001
1000
,
0001
0010
0001
0010
0001
0010
0001
0010
0001
0010
0001
0010
0001
0010
0001
0010
,
0001
0100
0010
1000
0100
0010
0100
1000
0010
0100
0001
0010
0001
0100
0010
1000
,
0100
1000
0100
1000
0100
1000
0100
1000
0100
1000
0100
1000
0100
1000
0100
1000
,
0010
0100
0001
0010
0100
0010
0001
0100
0010
1000
0100
1000
0010
0100
0001
0010
,
0001
0100
0001
0100
0001
0100
0001
0100
0001
0010
0100
1000
0010
0100
0001
1000
,
0010
1000
0010
1000
0010
1000
0010
1000
0100
0010
0001
0100
0010
1000
0100
1000
,
0001
0000
0000
0000
0000
0000
0000
0000
0000
0000
0000
0000
0010
0000
0000
0000
0000
0000
0000
0000
0000
0000
0000
0000
0001
0000
0000
0000
0000
0000
0000
0000
0000
0000
0000
0000
0010
0000
0000
0000
0000
0000
0000
0000
0000
0000
0000
0000
0100
0000
0000
0000
0000
0000
0000
0000
0000
0000
0000
0000
1000
0000
0000
0000
0000
0000
0000
0000
0000
0000
0000
0000
0100
0000
0000
0000
0000
0000
0000
0000
0000
0000
0000
0000
1000
0000
0000
0000
0000
0000
0000
0000
0000
0000
0000
0000
0001
0000
0000
0000
0000
0000
0000
0000
0000
0000
0000
0000
0100
0000
0000
0000
0000
0000
0000
0000
0000
0000
0000
0000
0001
0000
0000
0000
0000
0000
0000
0000
0000
0000
0000
0000
0100
0000
0000
0000
0000
0000
0000
0000
0000
0000
0000
0000
0010
0000
0000
0000
0000
0000
0000
0000
0000
0000
1000
0000
0000
0000
0000
0000
0000
0000
0000
0010
0000
0000
0000
0000
0000
0000
0000
0000
0000
1000
0000
0000
0000
0000
0000
0000
0000
0000
0010
0000
0000
0000
0000
0000
0000
0000
0000
0000
,
1000
0100
0010
0001
1000
0100
0010
0001
1000
0100
0010
0001
1000
0100
0010
0001
,
1000
0010
0100
0010
1000
0001
0010
0100
1000
0010
1000
0100
0010
0001
1000
0100
,
0010
0100
1000
0001
0100
0001
0010
0100
1000
0010
1000
0100
0010
0001
0100
0001
,
1000
0100
0010
0100
1000
0001
0100
0010
1000
0100
1000
0010
0100
0001
1000
0010
,
0100
0001
1000
0100
0010
0001
0100
0010
1000
0100
1000
0010
0100
0001
0010
0001
,
1000
0010
0100
0010
1000
0001
0100
0010
1000
0100
1000
0010
0100
0001
1000
0100
,
0010
0100
1000
0001
0100
0001
0010
0100
1000
0100
1000
0010
0100
0001
0010
0001
,
1000
0100
0010
0100
1000
0001
0010
0100
1000
0010
1000
0100
0010
0001
1000
0010
,
0100
0001
1000
0100
0010
0001
0100
0010
1000
0010
1000
0100
0010
0001
0100
0001
,
1000
0010
1000
0100
0010
0001
0100
0010
0100
0001
0100
0010
1000
0010
0100
0010
,
0100
0001
0100
0010
1000
0100
0010
0001
0100
0001
0010
0100
1000
0010
1000
0001
,
1000
0100
1000
0010
0100
0001
0010
0100
0010
0001
0010
0100
1000
0100
0010
0100
,
0010
0001
0010
0100
1000
0010
0100
0001
0010
0001
0100
0010
1000
0100
1000
0001
,
0010
0100
1000
0001
0100
0001
0010
0100
1000
0010
1000
0100
0010
0001
0100
0010
,
1000
0100
0010
0001
0100
0010
1000
0100
1000
0010
0100
0010
0100
0001
1000
0001
,
0100
0001
1000
0100
0010
0001
0100
0010
1000
0100
1000
0010
0100
0001
0010
0100
,
1000
0010
0100
0001
0010
0100
1000
0010
1000
0100
0010
0100
0010
0001
0100
0001
,
1000
0100
1000
0010
0100
0001
0010
0001
1000
0100
1000
0010
0100
0001
0010
0001
,
1000
0010
1000
0100
0010
0001
0100
0001
1000
0010
1000
0100
0010
0001
0100
0001
,
1000
0100
1000
0010
0100
0001
0010
0001
1000
0010
1000
0100
0010
0001
0100
0001
,
1000
0010
1000
0100
0010
0001
0100
0001
1000
0100
1000
0010
0100
0001
0010
0001
,
2002
0000
0000
0000
,
3003
0000
0000
0000
;
