#TITLE:Leakage Voltage;
#SUBTITLE:;
#ARTIST:Doin;
#TITLETRANSLIT:;
#SUBTITLETRANSLIT:;
#ARTISTTRANSLIT:;
#GENRE:;
#CREDIT:;
#MUSIC:Leakage Voltage.ogg;
#BANNER:Leakage Voltage-bn.png;
#BACKGROUND:Leakage Voltage-bg.png;
#CDTITLE:;
#SAMPLESTART:0.000;
#SAMPLELENGTH:0.000;
#SELECTABLE:YES;
#OFFSET:-0.126;
#BPMS:0.000=90.000
,54.000=180.000
;
#STOPS:;
#BGCHANGES:0.000=Leakage Voltage.avi=1.000=0=0=0=StretchNoLoop====,
99999.000=-nosongbg-=1.000=0=0=0=StretchNoLoop====
;
#FGCHANGES:;

//--------------- dance-single - ----------------
#NOTES:
     dance-single:
     :
     Beginner:
     2:
     0,0,0,0,0:
0000
0000
0000
0000
,
0000
0000
0000
0000
,
0000
0000
0000
0000
,
0000
0000
0000
0000
,
0000
0000
1000
0000
,
0100
0000
0010
0000
,
0001
0000
0100
0000
,
0010
0000
1000
0000
,
0001
0000
2000
0000
,
3200
0000
0320
0000
,
0032
0203
0320
0000
,
2030
0000
0002
0000
,
0000
0000
0000
0000
,
0000
0000
3003
0000
1000
0000
0000
1000
,
0000
0000
1000
0000
0000
1000
0000
0000
,
0001
0000
0000
0001
0000
0000
0001
0000
,
0000
0001
0000
0000
1000
0000
0000
0000
,
0000
0100
0000
0000
,
0010
0000
0000
0001
,
0000
0000
0010
0000
,
0000
0100
0000
0000
,
1000
0000
0000
0001
,
0000
0001
0000
0000
1000
0000
0000
0000
,
0000
0010
0000
0000
,
0100
0000
0000
0001
,
0000
0000
0100
0000
,
0000
0010
0000
0000
,
1000
0000
0000
0001
,
0000
0001
0000
0000
2000
0000
0000
3200
,
0000
0000
0320
0000
0000
0032
0000
2003
,
0000
0000
0000
0000
3002
0000
0000
0023
,
0000
0230
2300
0000
,
3002
0000
0000
0000
2003
0000
0000
3200
,
0000
0000
0320
0000
0000
0032
0000
0000
,
2003
0000
0000
3020
0000
0000
0230
0000
,
0000
0302
0000
0000
2003
0000
0000
3002
,
0000
0000
1003
0000
,
0000
0000
0010
0000
,
0000
0000
0001
0000
,
0000
0000
0010
0000
,
0000
0000
1000
0000
,
0000
0000
0100
0000
,
0000
0000
0001
0000
,
0000
0000
0100
0000
,
0000
0000
0000
0000
1000
0000
0000
0100
,
0000
0000
0010
0000
0000
0000
0000
0001
,
0000
0000
0000
0000
1000
0000
0000
0001
,
0000
0000
0010
0000
0000
0100
0000
0000
,
1000
0000
0000
0000
0001
0000
0000
1000
,
0000
0000
0010
0000
0000
0000
0000
0100
,
0000
0000
0000
0000
0001
0000
0000
1000
,
0000
0000
0001
0000
0000
0100
0000
0000
,
0010
0000
0000
0000
1000
0000
0000
0001
,
0000
0000
1000
0000
0000
0000
0000
0100
,
0000
0000
0000
0000
0001
0000
0000
0100
,
0000
0000
1000
0000
0000
0010
0000
0000
,
0001
0000
0000
0000
0010
0000
0000
1000
,
0000
0000
0100
0000
0000
0000
0000
0010
,
0000
0000
0000
0000
0001
0000
0000
0010
,
0000
0100
1000
0000
,
0000
0000
0000
0000
0001
0000
0000
1000
,
0000
0000
0010
0000
0100
0000
0000
1000
,
0000
0000
0000
0000
0001
0000
0000
0100
,
0000
0000
0010
0000
0000
1000
0000
0000
,
0010
0000
0000
0000
0001
0000
0000
0010
,
0000
0000
0100
0000
1000
0000
0000
0001
,
0000
0000
0000
0000
1000
0000
0000
0001
,
0000
0000
0100
0000
0000
0010
0000
0000
,
1000
0000
0000
0002
0000
0000
0000
0000
,
0000
0000
0000
0000
,
0000
0003
0000
0000
;

//--------------- dance-single - ----------------
#NOTES:
     dance-single:
     :
     Easy:
     5:
     0,0,0,0,0:
0000
0000
0000
0000
,
0000
0000
0000
0000
,
0000
0000
0000
0000
,
0000
0000
0000
0000
,
0000
0000
0000
0000
1000
0001
1000
0000
,
0001
1000
0001
0000
1000
0010
1000
0000
,
0010
1000
0010
0000
0100
0010
0100
0000
,
0010
0100
0010
0000
0100
0001
0100
0000
,
0001
0100
0001
0000
2000
0000
0000
0000
,
3200
0000
0320
0000
,
0032
0203
0320
0000
,
2030
0000
0002
0000
,
0000
0000
0000
0000
,
0000
0000
0000
3003
1000
0000
0000
1000
,
0000
0000
1000
0000
0000
1000
0000
0000
,
0001
0000
0000
0001
0000
0000
0001
0000
,
0000
0001
0000
0000
1000
0000
0000
0100
,
0000
0000
0010
0000
0000
0001
0000
0000
,
0001
0000
0000
0010
0000
0000
0100
0000
,
0000
1000
0000
0000
1000
0000
0000
0010
,
0000
0000
0100
0000
0000
0001
0000
0000
,
0001
0000
0000
0010
0000
0000
1000
0000
,
0000
1000
0000
0000
0001
0000
0000
0010
,
0000
0000
0100
0000
0000
1000
0000
0000
,
0100
0000
0000
0010
0000
0000
0100
0000
,
0000
1000
0000
0000
0010
0000
0000
0100
,
0000
0000
0001
0000
0000
0010
0000
0000
,
0100
0000
0000
0010
0000
0000
0001
0000
,
0000
0001
0000
0000
1000
0000
0000
0100
,
0000
0000
0010
0000
0001
0000
0000
0010
,
0000
0000
0100
0000
1000
0000
0000
0010
,
0000
0100
0001
0000
,
0100
0010
1000
0100
,
1000
0100
0010
0001
,
0010
0001
1000
0010
,
1000
0000
0010
0000
0100
0001
0000
0001
,
0000
0001
0000
0001
1000
0000
0000
0100
,
0000
0000
0010
0000
0001
0000
0000
1000
,
0000
0001
1000
0001
1000
0000
0001
0000
,
0000
0010
0100
0000
,
1000
0000
0001
0000
1000
0000
0000
0010
,
0000
0000
0100
0000
0001
0000
0000
1000
,
0000
0010
0100
0010
0100
0000
0001
0000
,
0000
0100
0010
0000
,
1000
0000
0001
0000
1000
0000
0000
0010
,
0000
0000
0001
0000
0010
0000
0000
1000
,
0000
0001
0000
0000
1000
0000
0000
0100
,
0000
0000
0001
0000
0000
0100
0000
0000
,
1000
0000
0001
1000
0001
0000
0000
0010
,
0000
0000
1000
0000
0100
0000
0000
0001
,
0000
1000
0000
0000
0001
0000
0000
0100
,
0000
0000
1000
0000
0000
0010
0000
0000
,
0001
0000
1000
0000
0001
0000
0000
0010
,
0000
0000
0100
0000
1000
0000
0000
0001
,
0000
0000
1000
0000
0100
0000
0000
0010
,
0000
0000
0001
0000
0000
0100
0000
0000
,
0010
0000
1000
0001
0010
0000
0100
0000
,
0000
1000
0000
0000
0001
0000
0010
0000
,
0000
1000
0000
0000
0001
0000
0000
0100
,
0000
0000
1000
0000
0001
1000
0001
0000
,
1000
0001
1000
0000
0001
0000
0000
0010
,
0000
0000
1000
0000
0010
0000
0000
0001
,
0000
0000
1000
0000
0100
0000
0000
0010
,
0000
0000
0001
0000
0000
0010
0000
0000
,
0100
0000
1000
0000
0010
0000
0000
0100
,
0000
0001
0010
0100
,
0000
0000
1000
0000
0010
0000
0000
0100
,
0000
0000
0010
0000
1000
0000
0000
0001
,
0000
1000
0000
0020
0000
0000
0000
0000
,
0000
0000
0000
0000
,
0000
0030
0000
0000
;

//--------------- dance-single - ----------------
#NOTES:
     dance-single:
     :
     Medium:
     8:
     0,0,0,0,0:
0000
0000
0000
0000
,
0000
0000
0000
0000
,
0000
0000
0000
0000
,
0000
0000
0000
0000
,
0000
0000
0000
0000
0000
0000
0000
0000
1000
0000
0100
0000
0010
0000
0000
0010
,
0001
0000
0010
0000
0100
0000
0000
0100
1000
0000
0010
0000
0100
0000
0000
0100
,
0001
0000
0100
0000
0010
0000
0000
0010
1000
0000
0100
0000
0010
0000
0000
0001
,
0100
0000
0010
0000
1000
0000
0000
0010
0100
0000
0001
0000
0010
0000
0000
0100
,
1000
0000
0010
0000
1000
0000
0000
0001
2000
0000
0000
0000
0000
0000
0000
0000
,
3200
0000
0320
0000
,
0032
0203
0320
0000
,
2030
0000
0002
0000
,
0000
0000
0000
0000
,
0000
0000
3003
0000
1000
0000
0000
1000
,
0000
0000
0001
0000
0000
0001
0000
0000
,
0100
0000
0000
0100
0000
0000
0010
0000
,
0000
0000
0010
0000
0000
0000
0000
0000
1000
0000
0000
0100
0000
0000
0010
0000
,
0000
0001
0000
0000
1000
0000
0000
0010
0000
0000
0200
0300
0000
0002
0003
0000
,
1000
0000
0000
0100
0000
0000
0010
0000
0000
0100
0000
0000
1000
0000
0000
0100
,
0000
0000
0010
0000
0000
0002
0000
0003
0001
0000
0000
0010
0000
0000
0100
0000
,
0000
1000
0000
0000
0001
0000
0000
0100
0000
0000
0040
0000
0000
2030
3000
0000
,
0001
0000
0000
0010
0000
0000
0100
0000
0000
0010
0000
0000
0001
0000
0000
0001
,
0000
0000
1000
0000
0000
1000
0000
0000
0001
0000
0000
0010
0000
0000
0100
0000
,
0000
1000
0000
0000
0001
0000
0000
0010
0000
0000
0100
0000
0000
0010
0000
0000
,
0001
0000
0000
0100
0000
0000
0010
0000
0000
1000
0000
0000
0001
0000
0000
0100
,
0000
0000
0010
0000
0000
0100
0000
0000
0001
0000
0000
0010
0000
0000
0001
0000
,
0000
0010
0000
0000
0100
0000
0000
1000
0000
0000
0100
0000
0000
1000
0000
0000
,
0001
0000
0000
1000
0000
0000
0001
0000
0000
1000
0000
0000
0001
0000
0000
0001
,
0000
0000
1000
0000
0000
1000
0000
0000
0002
0000
0000
0000
0013
0000
0020
0000
,
0000
0130
0200
0000
1300
2000
0000
3200
,
0000
0310
0020
0031
0002
0000
0103
0200
,
0000
0310
0020
1030
2000
3020
0030
0020
,
0130
0200
0301
0002
1003
0100
1000
0001
,
0100
0001
1000
0010
1000
0001
0010
0001
,
1000
0100
0010
0001
1000
0100
0010
0100
,
1000
0001
0010
0100
0010
0001
1000
0001
,
0000
0001
0000
1000
1001
0000
0001
0001
,
0000
0010
0010
0000
0100
0100
0000
1000
,
0000
0000
0001
0000
0010
0000
0100
1000
0100
0000
0000
0000
1000
0000
1000
0000
,
0000
0100
0100
0010
0010
0001
0000
1000
,
0100
0010
0001
1000
0001
0000
0001
0001
,
0000
0100
0100
0000
0010
0010
0000
1000
,
0000
0000
0001
0000
0100
0000
0010
1000
0010
0000
0000
0000
1000
0000
1000
0000
,
0000
0010
0010
0100
0100
0001
0000
1000
,
0010
0100
0001
1000
0001
0000
1000
0100
,
0000
1000
0100
0000
1000
0100
0010
0001
,
0000
0010
0001
0010
0001
0000
0001
0010
,
0000
0001
0010
0100
1000
0100
0000
1000
,
0100
0000
0010
0000
0001
0000
0010
0001
0010
0000
0000
0000
1000
0000
0010
0000
,
0000
1000
0010
0000
1000
0010
0100
0001
,
0000
0100
0001
0100
0001
0000
0001
0100
,
0000
0001
0100
0010
1000
0001
0000
1000
,
0010
0000
0100
0000
0002
0000
1000
0003
0001
0000
0000
0000
1000
0000
0100
0000
,
0000
1000
0100
0000
1000
0010
0100
0001
,
0000
0010
0001
0010
0001
0000
0001
0100
,
0000
0001
0010
0100
1000
0001
0000
1000
,
0010
0000
0100
0000
0001
0000
0100
0001
0100
0000
0000
0000
1000
0000
0010
0000
,
0000
1000
0010
0000
1000
0100
0010
0001
,
0000
0100
0001
0100
0001
0000
0001
0010
,
0000
0001
0100
0010
2000
0001
0010
0100
,
0010
0001
3010
0100
1000
0000
1000
0010
,
0000
0010
0010
0000
0100
0001
0010
0100
,
0000
1000
0100
0010
0001
0000
0001
0100
,
0000
0010
0100
0100
1000
0001
0000
1000
,
0100
0010
0001
0100
0001
0000
0001
1000
,
0000
0001
1000
0100
0010
0001
0100
0010
,
0000
0010
0010
1000
0100
0000
0010
0001
,
0000
0001
0010
0100
1000
0010
0000
1000
,
0010
0100
0001
0020
0000
0000
0000
0000
,
0000
0000
0000
0000
,
0000
0030
0000
0000
;

//--------------- dance-single - ----------------
#NOTES:
     dance-single:
     :
     Hard:
     10:
     0,0,0,0,0:
0000
0000
0000
0000
,
0000
0000
0000
0000
,
0000
0000
0000
0000
,
0000
0000
0000
0000
,
0000
0000
0000
0000
0000
0000
0000
0000
1001
0000
1000
0000
0100
0010
0000
0001
,
1000
0000
0001
0000
0010
0100
0000
1000
0001
0000
1000
0000
0010
0100
0000
0001
,
1000
0000
0001
0000
0100
0010
0000
1000
0001
0000
1000
0000
0010
1000
0000
1000
,
0100
0000
0001
0000
0100
0001
0000
0001
0010
0000
0100
0000
0010
0100
0000
0100
,
0001
0000
0010
0000
0100
0010
0000
0010
2000
0000
0000
0000
0000
0000
0000
0000
,
3200
0000
0320
0000
,
0032
0203
0320
0000
,
2030
0000
0002
0000
,
0000
0000
0000
0000
,
0000
0000
0000
0000
0000
0000
0000
3003
1000
0000
0000
1000
0000
0000
1000
0000
,
0000
1000
0000
0000
0001
0000
0000
0001
0000
0000
0001
0000
0000
0001
0000
0000
,
1001
0000
0000
1001
0000
0000
1001
0000
0000
1001
0000
0000
1001
0000
0000
1001
,
0000
0000
0000
0000
1000
0000
0000
0100
0000
0000
0010
0000
0000
0001
0000
0000
1000
0000
0000
0100
0000
0000
0000
0000
0000
0010
0000
0000
0001
0000
0000
0000
,
0000
0000
0001
0000
0000
0000
0000
0000
1000
0000
0000
0100
0000
0000
0010
0000
0000
0100
0000
0000
1000
0000
0000
0200
0300
0000
0000
0000
0000
0020
0030
0000
,
0001
0000
0000
0100
0000
0000
0000
0000
0000
0010
0000
0000
1000
0000
0000
0000
0000
0000
1000
0000
0000
0000
0000
0000
0001
0000
0000
0010
0000
0000
0100
0000
,
0000
0010
0000
0000
0001
0000
0000
0000
0000
0000
0020
0000
0000
0000
0030
0000
1000
0000
0000
0100
0000
0000
0000
0000
0000
0100
0000
0000
0001
0000
0000
0000
,
0000
0000
0001
0000
0000
0000
0000
0000
1000
0000
0000
0010
0000
0000
0100
0000
0000
0010
0000
0000
1000
0000
0000
0200
0300
0000
0200
0300
0000
0200
0300
0000
,
0100
0000
0000
0010
0000
0000
0000
0000
0000
0100
0000
0000
0001
0000
0000
0000
0000
0000
0001
0000
0000
0000
0000
0000
1001
0000
0000
0000
0000
0000
1001
0000
,
0000
0000
0000
0000
0110
0000
0000
0000
0000
0000
0110
0000
0000
0000
0000
0000
1000
0000
0000
0100
0000
0000
0000
0000
0000
1000
0000
0000
0010
0000
0000
0000
,
0000
0000
0001
0000
0000
0000
0000
0000
0010
0000
0000
0100
0000
0000
1000
0000
0000
0200
0300
0000
0000
0000
0000
0020
0000
0000
0030
0000
0000
0000
0000
0000
,
0010
0000
0000
1000
0000
0000
0000
0000
0000
0001
0000
0000
0100
0000
0000
0000
0000
0000
0100
0000
0000
0000
0000
0000
0010
0000
0000
1000
0000
0000
0100
0000
,
0000
1000
0000
0000
0010
0000
0000
0200
0000
0000
0300
0000
0000
0000
0000
0000
1000
0000
0000
0010
0000
0000
2000
3000
0000
0001
0000
0000
0100
0000
0000
0000
,
0000
0000
0001
0000
0000
0000
0000
0000
1000
0000
0000
0100
0000
0000
1000
0000
0000
0002
0003
0000
0000
0000
0000
0000
0000
0000
0200
0000
0000
0300
0000
0000
,
0001
0000
0000
0010
0000
0000
0000
0000
0000
0100
0000
0000
1000
0000
0000
0000
0000
0000
0001
0000
0000
0000
0000
0000
0110
0000
0000
0000
0000
0000
0110
0000
,
0000
0000
1001
0000
0000
1001
0000
0000
2000
0000
0000
0000
3200
0000
0320
0000
,
0000
0032
0023
0000
0230
2300
0000
3020
,
0000
0230
0302
0203
0320
0000
2030
3200
,
0000
0320
0032
0203
0320
2030
0000
3002
,
0023
0000
0230
0000
2300
0000
3002
0000
2003
3200
2300
3000
2000
0000
3002
0203
,
0302
0003
0002
0000
2003
3020
2030
3000
2000
0000
3002
0023
0032
0003
0002
0000
,
2003
0000
3200
0000
0320
0000
0032
0000
2003
3002
2003
3002
2003
3002
2003
3002
,
2003
3002
2003
3002
2003
3002
2003
3002
2003
0000
3002
0000
0203
0000
0320
0000
,
0030
0000
0020
0000
0030
0000
0020
0030
1001
0000
0000
0000
1000
0000
0100
0000
,
0000
0010
0001
0000
1000
0100
0000
0100
,
0000
0000
0000
0010
0000
0000
0001
0000
0000
0001
1000
0001
1000
0000
0000
0000
0000
0000
0001
0000
0000
1000
0000
0000
,
0000
1000
0010
0100
0001
0010
0000
0001
,
0010
0000
0100
0000
1000
0000
0001
1000
0001
0000
0000
0000
1000
0000
0010
0000
,
0000
0100
0001
0000
1000
0010
0000
0010
,
0000
0000
0000
0100
0000
0000
0001
0000
0000
1000
0001
1000
0001
0000
0000
0000
0000
0000
1000
0000
0000
0001
0000
0000
,
0000
0001
0010
0100
1000
0010
0000
1000
,
0010
0000
0100
0000
0001
0000
1000
0001
1000
0000
0000
0000
1000
0000
1000
0000
,
0000
0001
0001
0000
1000
0100
0010
0001
,
0000
0000
0001
0000
1000
0000
0001
1000
0001
0000
0000
0000
1000
0000
0010
0000
,
0000
0100
0001
0010
0100
1000
0000
0001
,
0100
0000
0000
0010
0000
0000
1000
0000
0000
0001
1000
0001
1000
0000
0000
0000
0000
0000
0001
0000
0000
0001
0000
0000
,
0000
1000
1000
0000
0001
0010
0100
1000
,
0000
0000
1000
0000
0001
0000
1000
0001
1000
0000
0000
0000
0001
0000
0100
0000
,
0000
0010
1000
0100
0010
0001
0000
1000
,
0010
0000
0100
0000
0001
0000
1000
0001
1000
0000
0000
0000
0010
0000
0010
0000
,
0000
0100
0100
0000
1000
0010
0100
0001
,
0000
0000
0100
0000
0010
0000
0100
0010
0100
0000
0000
0000
0100
0000
0001
0000
,
0000
0010
1000
0100
0010
0001
0000
1000
,
0001
0000
0000
0100
0000
0000
0010
0000
0000
0100
0010
0100
0010
0000
0000
0000
0000
0000
0100
0000
0000
0100
0000
0000
,
0000
0010
0010
0000
0001
0100
0010
1000
,
0000
0000
0010
0000
0100
0000
0010
0100
0010
0000
0000
0000
0010
0000
1000
0000
,
0000
0000
0100
0000
0001
0000
1000
0000
0001
1000
0001
0000
1000
0001
1000
0000
,
0001
1000
0001
0000
1000
0001
1000
0000
1001
0000
0000
0000
1000
0000
0100
0000
,
0000
0001
0001
0000
1000
0100
0010
0100
,
0000
0000
0001
0000
0010
0000
0100
0001
0100
0000
0000
0000
0001
0000
0010
0000
,
0000
1000
1000
0100
0010
0001
0000
0001
,
0100
0000
0010
0000
1000
0000
0001
1000
0001
0000
0000
0000
1000
0000
0001
0000
,
0000
0000
0100
0000
0001
1000
0001
1000
0001
0000
1000
0001
1000
0001
1000
0000
,
0000
0000
0001
0000
0010
0000
0100
1000
0100
0000
0000
0000
1000
0000
0001
0000
,
0000
1000
0010
0100
0001
0000
1000
0100
,
0010
0001
0100
0020
0000
0000
0000
0000
,
0000
0000
0000
0000
,
0000
0030
0000
0000
;

//--------------- dance-single - ----------------
#NOTES:
     dance-single:
     :
     Challenge:
     12:
     0,0,0,0,0:
0000
0000
0000
0000
,
0000
0000
0000
0000
,
0000
0000
0000
0000
,
0000
0000
0000
0000
,
0000
0000
0000
0000
0000
0000
0000
0000
1001
0000
0100
0001
0100
0010
0000
0100
,
0010
0000
0001
0010
0100
1000
0000
0010
0100
0000
1000
0001
0010
0001
0000
1000
,
0100
0000
0001
0010
0100
0010
0000
0001
0010
0000
0100
0010
1000
0100
0000
0010
,
1000
0000
0010
0001
1000
0010
0000
0100
0001
0000
0010
0100
1000
0010
0000
0100
,
0001
0000
0010
0001
0100
0010
0000
0100
2000
0000
0000
0000
0000
0000
0000
0000
,
3200
0000
0320
0000
,
0032
0203
0320
0000
,
2030
0000
0000
0000
0000
0000
0000
3000
2002
0000
0000
0000
0000
0000
0000
0000
,
0000
0000
0000
0000
,
0000
0000
0000
0000
0000
0000
0000
3003
1000
0000
0000
1000
0000
0000
0001
0000
,
0000
0001
0000
0000
0100
0000
0000
0100
0000
0000
0010
0000
0000
0010
0000
0000
,
1010
0000
0000
0101
0000
0000
1100
0000
0000
0011
0000
0000
0110
0000
0000
1001
,
0000
0000
0000
0000
1000
0000
0000
0100
0000
0000
0010
0000
0000
0001
0000
0000
1000
0000
0000
0100
0000
0000
0010
0000
0000
0100
0000
0000
1000
0000
0000
0010
,
0000
0000
0100
0000
0000
0001
0000
0000
0010
0000
0000
0100
0000
0000
0010
0000
0000
0001
0000
0000
0010
0000
0000
0200
0300
0000
0000
0000
0000
0020
0030
0000
,
0100
0000
0000
1000
0000
0000
0010
0000
0000
0100
0000
0000
0001
0000
0000
0010
0000
0000
0001
0000
0000
0010
0000
0000
0100
0000
0000
1000
0000
0000
0001
0000
,
0000
0100
0000
0000
0001
0000
0000
0100
0000
0000
0020
0000
0000
1030
0000
0000
0100
0000
0000
0010
0000
0000
0100
0000
0000
0010
0000
0000
0001
0000
0000
0100
,
0000
0000
0010
0000
0000
0100
0000
0000
0010
0000
0000
1000
0000
0000
0100
0000
0000
0010
0000
0000
0001
0000
0000
0020
0030
0000
0020
0030
0000
0020
0030
0000
,
0010
0000
0000
0100
0000
0000
1000
0000
0000
0001
0000
0000
0010
0000
0000
0100
0000
0000
1000
0000
0000
0100
0000
0000
0011
0000
0000
0000
0000
0000
0110
0000
,
0000
0000
0000
0000
1100
0000
0000
0000
0000
0000
1001
0000
0000
0000
0000
0000
1000
0000
0000
0100
0000
0000
0010
0000
0000
0001
0000
0000
1000
0000
0000
0010
,
0000
0000
0100
0000
0000
0001
0000
0000
1000
0000
0000
0100
0000
0000
0010
0000
0000
1000
0000
0000
0010
0000
0000
0100
0000
0000
2000
0000
0000
3000
0000
0000
,
0001
0000
0000
0010
0000
0000
0100
0000
0000
1000
0000
0000
0001
0000
0000
0100
0000
0000
0010
0000
0000
1000
0000
0000
0001
0000
0000
0010
0000
0000
0100
0000
,
0000
0001
0000
0000
0010
0000
0000
1000
0000
0000
0001
0000
0000
0100
0000
0000
1000
0000
0000
0010
0000
0000
0100
0000
0000
1000
0000
0000
0100
0000
0000
0010
,
0000
0000
0001
0000
0000
0010
0000
0000
0100
0000
0000
0001
0000
0000
0200
0300
0000
0010
0000
0000
0000
0000
0000
0020
0000
0000
0030
0000
0000
1000
0000
0000
,
0100
0000
0000
0010
0000
0000
0001
0000
0000
1000
0000
0000
0010
0000
0000
0100
0000
0000
0001
0000
0000
0000
0000
0000
1010
0000
0000
0000
0000
0000
0110
0000
,
0000
0000
0101
0000
0000
1001
0000
0000
0002
0000
0000
0000
0023
0000
0230
0000
,
0000
2300
3200
0000
0320
0032
0000
0023
,
0000
2030
3200
0320
0032
0000
2003
3200
,
0000
0320
0032
0023
0230
2300
0000
3002
,
0023
0000
0230
0000
2300
0000
3020
0000
2030
3200
0320
0230
0320
0230
2300
3002
,
0023
0230
0320
0230
0320
0032
2003
3200
0320
0230
0320
0032
0203
0320
0230
0320
,
2030
3200
0320
0032
2003
3020
0230
0302
2003
3020
0230
0320
2030
3200
0320
0230
,
2300
3200
0320
0032
0203
0320
2030
3200
0320
0032
2003
3020
0230
0302
2003
0000
,
0000
0000
0002
0000
0000
3000
2000
3003
1001
0000
0000
0000
0010
0000
0101
0000
,
0000
0010
1100
0000
0100
0010
0001
0100
,
0000
0000
0000
0000
1000
0000
0000
0000
0100
0000
0000
0000
0010
0001
0010
0001
0010
0000
0000
0000
0000
0000
0000
0000
0001
0000
0000
0000
0010
0000
0000
0000
,
0000
0100
1000
0010
0100
0001
1000
0100
,
0010
0000
0100
0000
1000
0000
0100
0010
0001
0000
0000
0000
1000
0000
1100
0000
,
0000
0001
0011
0000
0100
1001
0000
0110
,
0000
0000
0000
0000
0001
0000
0000
0000
0010
0000
0000
0000
0100
1000
0100
1000
0100
0000
0000
0000
0000
0000
0000
0000
0010
0000
0000
0000
0001
0000
0000
0000
,
0000
0010
0001
0100
0001
0010
0000
0100
,
1000
0000
0010
0000
0100
0000
0001
1000
1001
0000
0000
0000
0100
0000
0101
0000
,
0000
0010
1010
0000
1000
0110
0001
0110
,
0000
0000
0000
1000
0000
0000
0010
0000
0000
0100
0001
0100
0001
0000
0000
0000
0000
0000
0010
0000
0000
1000
0000
0000
,
0000
1000
0100
0010
0001
0100
0001
0100
,
0010
0000
0000
0000
1000
0000
0000
0000
0100
0000
0000
0000
0010
0001
0010
0001
0010
0000
0000
0000
0000
0000
0000
0000
0100
0000
0000
0000
0110
0000
0000
0000
,
0000
0001
1001
0000
1100
0100
0010
0011
,
0000
0000
0000
0010
0000
0000
0100
0000
0000
0001
1000
0001
1000
0000
0000
0000
0000
0000
1000
0000
0000
0001
0000
0000
,
0000
0010
0100
1000
0100
0010
0001
0010
,
0100
0000
1000
0100
0010
0001
0100
0010
1000
0000
0000
0000
0010
0000
0101
0000
,
0000
0100
1010
0000
0110
0010
0100
1001
,
0000
0000
0000
1000
0000
0000
0001
0000
0000
0100
0010
0100
0010
0000
0000
0000
0000
0000
1000
0000
0000
0100
0000
0000
,
0000
0001
0100
0010
1000
0200
0000
1300
,
0100
0000
0000
0000
0010
0000
0000
0000
0001
0000
0000
0000
1000
0010
1000
0010
1000
0000
0000
0000
0000
0000
0000
0000
0001
0000
0000
0000
1010
0000
0000
0000
,
0000
1000
0101
0000
1001
1000
0001
0110
,
0000
0000
0000
0001
0000
0000
0100
0000
0000
0010
1000
0010
1000
0000
0000
0000
0000
0000
0100
0000
0000
0010
0000
0000
,
0000
0000
1000
0000
0010
0000
0100
0000
0001
0010
0001
1000
0010
1000
0001
0100
,
0001
1000
0100
1000
0001
0010
0100
1000
1001
0000
0000
0000
1100
0000
1100
0000
,
0000
0011
0011
0000
0100
0010
0001
1001
,
0000
0000
0000
0100
0000
0000
0001
0000
0000
1000
0010
1000
0010
0000
0000
0000
0000
0000
0100
0000
0000
1001
0000
0000
,
0000
1000
0100
0010
0001
0100
0000
0001
,
0100
0000
0010
0000
1000
0000
0100
0010
0001
0000
0000
0000
0101
0000
0101
0000
,
0000
0000
1000
0100
0010
0100
0010
0001
1000
0010
0100
0010
0100
0001
1000
0000
,
0000
0000
0000
0100
0000
0000
0010
0000
0000
0001
0010
0001
0010
0000
0000
0000
0000
0000
0100
0000
0000
0011
0000
0000
,
0000
0010
1100
0010
0001
0100
0010
1000
,
0100
0000
0010
0000
0001
0010
0100
1000
0020
0000
0000
0000
0000
0000
0000
0000
,
0000
0000
0000
0000
,
0000
0030
0000
0000
;
