#TITLE:Interference;
#SUBTITLE:;
#ARTIST:Doin;
#TITLETRANSLIT:;
#SUBTITLETRANSLIT:;
#ARTISTTRANSLIT:;
#GENRE:;
#CREDIT:;
#MUSIC:Interference.ogg;
#BANNER:Interference-bn.png;
#BACKGROUND:Interference-bg.png;
#CDTITLE:;
#SAMPLESTART:5.844;
#SAMPLELENGTH:21.285;
#SELECTABLE:YES;
#OFFSET:-0.190;
#BPMS:0.000=180.405
,1.000=90.202
,25.000=180.405
,57.000=45.101
,64.000=90.202
,65.000=180.405
,97.000=90.202
,113.000=180.405
,209.000=90.202
,217.000=45.101
,221.000=22.551
,223.000=11.275
;
#STOPS:;
#BGCHANGES:;
#FGCHANGES:;

//--------------- dance-single - ----------------
#NOTES:
     dance-single:
     :
     Beginner:
     2:
     0,0,0,0,0:
0000
0000
0000
0000
,
0000
0000
0000
0000
,
0000
1000
0000
0000
,
0000
0001
0000
0000
,
0000
1000
0000
0000
,
0000
0001
0000
0000
,
0000
1000
0000
0100
,
0000
0001
0000
0100
,
0000
1000
0000
0001
,
0000
0100
0100
0100
,
0000
1000
0000
0010
,
0000
0001
0000
0010
,
0000
1000
0000
0001
,
0000
0010
0010
0010
,
0000
2000
0000
0000
,
0000
0000
0000
0000
,
3002
0003
1000
0000
0000
0000
0100
0000
,
0000
0010
0000
1000
,
0000
0010
0000
0001
,
0000
0100
0100
0100
,
0000
0001
0000
0010
,
0000
0100
0000
0001
,
0000
0100
0000
1000
,
0000
0010
0010
0010
,
0000
1000
0000
0000
,
0000
0001
0000
0000
,
0000
1000
0000
0000
,
0000
0001
0000
0000
,
0000
1000
0100
1000
,
0000
0001
0100
0001
,
0000
1000
0100
0010
,
0001
0100
0010
1000
,
0000
0001
0010
0001
,
0000
1000
0010
1000
,
0000
0001
0010
0100
,
1000
0010
0100
0001
,
0000
1000
0000
0100
,
0000
0001
0000
0100
,
0000
1000
0000
0010
,
0000
0001
0010
1000
,
0001
1000
0000
0010
,
0000
0001
0000
0010
,
0000
1000
0000
0100
,
0000
0001
0100
1000
,
0001
1000
0000
0100
,
0000
0010
0000
0001
,
0000
1000
0000
0010
,
0000
0100
0001
0010
,
0100
1000
0000
0010
,
0000
0100
0000
0001
,
0000
1000
0000
0100
,
0000
0010
0001
0100
,
0010
1000
0000
0000
,
0000
0001
0000
0000
,
0000
1000
0000
0001
,
0000
0000
0000
0000
1000
0100
0010
0000
0001
0010
0100
1000
2002
0000
0000
0000
,
3003
0000
0000
0000
;

//--------------- dance-single - ----------------
#NOTES:
     dance-single:
     :
     Easy:
     6:
     0,0,0,0,0:
0000
0000
0000
0000
,
0000
0000
0000
0000
,
0000
1000
0100
0010
,
0000
0001
0010
0100
,
0000
1000
0010
0100
,
0000
0001
0100
0010
,
0000
1000
0100
0010
,
0001
1000
0010
0100
,
0010
1000
0100
0010
,
0100
1000
0010
0010
,
0100
0001
1000
0100
,
0010
0001
0010
0100
,
1000
0010
0100
0001
,
1000
0010
0010
0001
,
0100
2000
0001
0001
,
0000
0000
0000
0000
0000
0001
0000
0000
,
3002
0003
1001
0000
0100
0000
0001
0000
,
0010
1000
0100
0010
,
0001
0100
0010
1000
,
0100
0000
0010
0000
0001
0000
0010
0100
,
1000
0100
0010
0001
,
0100
0010
1000
0010
,
0001
0010
0100
1000
,
0100
0000
0010
0000
0010
0000
1000
0001
,
1000
0001
2000
0000
0000
3000
0200
0000
,
0000
0300
0020
0000
0000
0030
0002
0000
,
0000
0003
0020
0000
0000
0030
0200
0000
,
0000
0300
2000
0000
0000
3000
0002
0000
,
1003
0001
1000
0001
1000
0000
0000
0000
0100
0000
0000
0000
0010
0000
0000
0000
,
0001
0000
0010
0000
0100
0000
1000
0001
,
1000
0001
0010
0100
,
1000
0000
0100
0000
0010
0000
0001
1000
,
0001
1000
0010
0100
,
0001
0000
0100
0000
0010
0000
1000
0001
,
1000
0001
0100
0010
,
1000
0000
0010
0000
0100
0000
0001
1000
,
0001
0000
1000
0000
0100
0000
0010
0001
,
0100
0000
0010
0000
1000
0000
0100
0010
,
0001
1000
0100
0001
,
0100
0000
1000
0100
0010
0100
0010
0100
,
0010
0100
1000
0000
0010
0000
0100
0001
,
0010
0000
0100
0000
1000
0000
0010
0100
,
0001
1000
0010
0001
,
0010
0000
1000
0010
0100
0010
0100
0010
,
0100
0010
1000
0000
0010
0000
0100
0001
,
0010
0000
1000
0000
0100
0000
0010
0001
,
0100
1000
0010
0001
,
0010
0000
1000
0001
1000
0001
1000
0001
,
1000
0010
0001
0000
0010
0000
0100
1000
,
0010
0000
0001
0000
0100
0000
0010
1000
,
0100
0001
0010
1000
,
0010
0000
0001
1000
0001
1000
0001
1000
,
0001
0100
1000
0000
0100
0000
0010
0000
,
0000
0001
0010
0100
0000
0000
0000
0000
1000
0000
0000
0000
0010
0000
0100
0000
,
0001
0000
0000
0000
0100
0000
0000
0000
0010
0000
0000
0000
0000
1000
0000
0000
0100
0000
0010
0000
0001
0100
0010
0000
1000
0000
0010
0000
0100
0000
0001
0000
,
0010
0000
0000
0000
0100
0000
0000
0000
1000
0000
0000
0000
0001
0000
0000
0000
1000
0000
0000
0000
0100
0000
0000
0000
0010
0000
0000
0000
0000
0001
0010
0100
0000
0000
0000
0000
1000
0000
0000
0000
0100
0000
0010
0000
0001
0000
1000
0000
2002
0000
0000
0000
0000
0000
0000
0000
0000
0000
0000
0000
0000
0000
0000
0000
,
3003
0000
0000
0000
;

//--------------- dance-single - ----------------
#NOTES:
     dance-single:
     :
     Medium:
     8:
     0,0,0,0,0:
0000
0000
0000
0000
,
0000
0000
0000
0000
,
0000
1000
0100
0010
,
0000
0001
1000
0010
0000
0000
0000
0000
0100
0000
0000
0000
0001
0000
1000
0000
,
0100
0000
0010
0000
0001
0000
0000
0000
0000
1000
0000
0000
0010
0000
0100
0000
,
0001
1000
0100
0000
0010
0000
0001
0000
1000
0000
0010
0000
0100
0000
0001
0000
,
1000
0001
1000
0100
0010
0000
0000
0000
,
0001
0010
0100
0010
1000
0000
0100
0000
,
0010
0001
1000
0010
0100
0001
0010
0000
,
0100
0100
1000
0010
0100
0000
0000
0001
,
0010
0100
1000
0010
0100
0000
0000
0000
,
0010
1000
0001
0010
0100
0000
0001
0000
,
1000
0100
0010
0100
1000
0010
0100
0000
,
0001
0010
0100
1000
0001
0000
0000
1000
,
0100
0000
0000
0000
0010
0000
0000
0000
1000
0000
0000
0000
0000
0000
0000
0000
0100
0000
0000
0000
0000
0000
0000
0000
0010
0000
0000
0001
0000
0000
0000
0000
,
0000
0000
0000
0001
0000
0000
0000
0000
0000
0000
0010
0000
0000
0000
0000
0000
0100
0000
1000
0000
0001
0000
0000
0000
0000
0000
1000
0001
0000
0000
0000
0001
,
2002
0000
0000
3003
1000
0000
0100
0000
0010
0000
0000
0000
0000
0000
0000
0000
,
0001
0100
0010
0001
0100
0000
0010
0000
,
1000
1000
0100
0010
0001
0100
0010
0000
,
0001
0010
0100
0001
0100
0000
0000
1000
,
0100
0010
1000
0010
0001
0000
0000
0000
,
0100
0010
0001
0100
0010
0000
0001
0000
,
0010
0010
1000
0100
0010
0001
0100
0000
,
0010
1000
0100
0010
1000
0000
0000
0100
,
0010
0000
0100
0000
1000
0100
0010
0000
0000
0000
0001
0010
0100
1000
0100
0000
,
0010
0000
0001
0010
0100
1000
0100
0010
0001
0000
0010
0100
1000
0010
0100
0000
,
0000
0001
0010
0100
1000
0010
0100
0000
0000
0000
0001
0100
0010
1000
0010
0000
,
0100
0000
0001
0100
0010
1000
0010
0100
0001
0000
0010
0100
1000
0010
0100
0000
,
0000
0001
0010
0100
1000
0000
0100
0000
0010
0000
0000
0000
0000
0000
0000
0000
,
0001
0100
0010
0100
1000
0000
0110
0000
,
0001
0010
1000
0100
0010
0001
0100
0000
,
0010
0010
1000
0100
0010
0000
0001
0010
,
0100
1000
0010
0001
1000
0000
0000
0000
,
0100
0010
0001
0010
1000
0000
0110
0000
,
0010
0001
0100
0010
1000
0100
0001
0000
,
0010
1000
0100
0010
0001
0000
0000
1000
,
0010
0000
0100
0000
0001
0000
0000
0000
0110
0000
1000
0010
1000
0000
0000
0000
,
0110
0000
0000
0000
0001
0000
0000
0000
0110
0000
1000
0100
1000
0000
0100
0000
,
0010
0000
0001
0000
0000
0000
0000
0000
0110
0000
1000
0001
1000
0000
0000
0000
,
0110
0001
0010
1000
,
0010
0000
0000
0000
0001
0000
0000
0000
0110
0000
0001
0100
0001
0000
0010
0000
,
0000
0000
1000
0000
0100
0000
0010
0001
,
0010
0001
0100
1000
,
0100
0001
0100
1000
,
0010
0000
0000
0000
1000
0000
0000
0000
0110
0000
0001
0010
0001
0000
0000
0000
,
0110
0000
0000
0000
1000
0000
0000
0000
0110
0000
0001
1000
0001
0000
0010
0000
,
0100
1000
0000
0000
0110
0000
0010
0000
,
0001
1000
0100
0001
,
0100
0000
0000
0000
1000
0000
0000
0000
0110
0000
0000
0000
0001
0100
0010
0000
,
0000
0000
1100
0000
0010
0000
0100
0001
,
0010
0100
0100
0001
,
0001
1000
0010
0100
,
1000
0001
1000
0001
1000
0000
0000
0000
0100
0000
0000
0000
0010
0000
0000
0000
,
0000
0001
0010
0100
0000
0000
0000
0000
1000
0000
0000
0000
0100
0000
0010
0000
,
0001
0000
0000
0000
0010
0000
0000
0000
0100
0000
0000
0000
0000
1000
0000
0000
0100
0000
0010
0000
0001
0010
0100
0000
1000
0000
0100
0000
0010
0000
0001
0000
,
0010
0000
0000
0000
0100
0000
0000
0000
1000
0000
0000
0000
0100
0000
0000
0000
0010
0000
0000
0000
0001
0000
0000
0000
0010
0000
0000
0000
0000
0100
1000
0100
0000
0000
0000
0000
0010
0000
0000
0000
0001
0000
0010
0000
0100
0000
1000
0000
2002
0000
0000
0000
0000
0000
0000
0000
0000
0000
0000
0000
0000
0000
0000
0000
,
3003
0000
0000
0000
;

//--------------- dance-single - ----------------
#NOTES:
     dance-single:
     :
     Hard:
     11:
     0,0,0,0,0:
0000
0000
0000
0000
,
0000
0000
0000
0000
,
0000
1000
0100
0010
,
0000
0001
0010
0100
0000
0000
0000
0000
1000
0000
0000
0000
0010
0000
0100
0000
,
0001
0000
0010
0000
0100
0000
0000
0000
0000
1000
0000
0000
0010
0000
0100
0000
,
0001
0100
0010
0000
1000
0000
0100
0000
0010
0000
0001
0000
0100
0000
0010
0000
,
1000
0000
0001
0000
1000
0000
0100
0000
0110
0000
0000
0000
1000
0010
1000
0010
,
1000
0000
0010
0000
0001
0000
0010
0000
0110
0000
0000
0000
0001
0100
0001
0100
,
0001
0000
0100
0000
1000
0000
0010
0000
0110
0000
0000
0000
1000
0100
1000
0100
,
1000
0000
0100
0000
0001
0000
0100
0000
0110
0000
0000
0000
0001
0010
0001
0010
,
0001
0000
0010
0000
1000
0000
0100
0000
1001
0000
0000
0000
0100
1000
0100
1000
,
0100
0000
1000
0000
0001
0000
0010
0000
1001
0000
0000
0000
0010
0001
0010
0001
,
0010
0000
0001
0000
1000
0000
0010
0000
1001
0000
0000
0000
0010
1000
0010
1000
,
0010
0000
1000
0000
0001
0000
0100
0000
1001
0000
0000
0000
0100
0001
0100
0001
,
0100
0000
0000
0000
0001
0000
0000
0000
1000
0100
1000
0000
0000
0000
0001
0100
0001
0100
0001
0000
1000
0000
0001
1000
0001
0010
0001
1000
0010
1000
0000
0000
,
0000
0001
1000
0010
0100
0010
0000
1000
0000
0001
1000
0100
1000
0000
0000
0000
0001
0100
0001
1000
0010
0100
0010
0000
0000
0000
1000
0100
0010
0001
0000
0001
,
2002
0000
0000
3003
1000
0000
0100
0000
0101
0000
0000
0000
1000
0010
1000
0010
,
1000
0000
0010
0000
0001
0000
0010
0000
1010
0000
0000
0000
0001
0100
0001
0100
,
0001
0000
0100
0000
1000
0000
0010
0000
0011
0000
0000
0000
1000
0100
1000
0100
,
1000
0000
0100
0000
0001
0000
0100
0000
1100
0000
0000
0000
0001
0010
0001
0010
,
0001
0000
0010
0000
1000
0000
0100
0000
1010
0000
0000
0000
0100
1000
0100
1000
,
0100
0000
1000
0000
0001
0000
0010
0000
0101
0000
0000
0000
0010
0001
0010
0001
,
0010
0000
0001
0000
1000
0000
0010
0000
1100
0000
0000
0000
0010
1000
0010
1000
,
0010
0000
1000
0000
0001
0000
0100
0000
0011
0000
0000
0000
0100
0001
0100
0001
,
1000
0001
1000
0001
2000
0000
0000
0000
0000
0000
3000
0000
0200
0000
0000
0000
,
0000
0300
0020
0000
0000
0030
0002
0000
,
0000
0003
0200
0000
0000
0300
0020
0000
,
0000
0000
0000
0000
0030
0000
0000
0000
2000
0000
0000
0000
0000
0000
0000
0000
0000
0000
0000
0000
3000
0000
0000
0000
0002
0000
0000
0000
0003
0000
1000
0001
,
1000
0100
0010
0001
1000
0010
0100
0001
1000
0000
0000
0000
0100
0000
0000
0000
0110
0000
0000
0000
1000
0000
0010
0000
1000
0000
0010
0000
1000
0000
0010
0000
,
1000
0000
0010
0000
0001
0000
0010
0000
0110
0000
0001
0100
0001
0100
0001
0100
,
0001
0000
0100
0000
1000
0000
0010
0000
0110
0000
1000
0100
1000
0100
1000
0100
,
1000
0000
0100
0000
0001
0000
0100
0000
0110
0000
0001
0010
0001
0010
0001
0010
,
0001
0000
0010
0000
1000
0000
0100
0000
1001
0000
0100
1000
0100
1000
0100
1000
,
0100
0000
1000
0000
0001
0000
0010
0000
1001
0000
0010
0001
0010
0001
0010
0001
,
0010
0000
0001
0000
1000
0000
0010
0000
1001
0000
0010
1000
0010
1000
0010
1000
,
0010
0000
1000
0000
0001
0000
0100
0000
1001
0000
0100
0001
0100
0001
0100
0001
,
0100
0000
0001
0000
1000
0000
0100
0000
0101
0000
1000
0010
1000
0010
1000
0010
,
1000
0000
0010
0000
0001
0000
0010
0000
1010
0000
0001
0100
0001
0100
0001
0100
,
0001
0000
0100
0000
1000
0000
0010
0000
0011
0000
1000
0100
1000
0100
1000
0100
,
1000
0000
0100
0000
0001
0000
0100
0000
1100
0000
0001
0010
0001
0010
0001
0010
,
0001
0000
0010
0000
1000
0000
0100
0000
1010
0000
0100
1000
0100
1000
0100
1000
,
0100
0000
1000
0000
0001
0000
0010
0000
0101
0000
0010
0001
0010
0001
0010
0001
,
0010
0000
0001
0000
1000
0000
0010
0000
1100
0000
0010
1000
0010
1000
0010
1000
,
0010
0000
1000
0000
0001
0000
0100
0000
0011
0000
0100
0001
0100
0001
0100
0001
,
0100
0000
0001
0000
1000
0000
0100
0000
0011
0000
0100
0001
0100
0001
0100
0001
,
0100
0000
1000
0000
0001
0000
0100
0000
1010
0000
0100
1000
0100
1000
0100
1000
,
0100
0000
0001
0000
1000
0000
0010
0000
0101
0000
0010
0001
0010
0001
0010
0001
,
0010
0000
1000
0000
0001
0000
0010
0000
1100
0000
0010
1000
0010
1000
0010
1000
,
0010
0000
0001
0000
1000
0000
0100
0000
0110
0000
1000
0010
1000
0010
1000
0010
,
1000
0000
0010
0000
0001
0000
0010
0000
1001
0000
0010
0001
0010
0001
0010
0001
,
0010
0000
0001
0000
1000
0000
0010
0000
0110
0000
1000
0100
1000
0100
1000
0100
,
1000
0000
0100
0000
0001
0000
0100
0000
1001
0000
0100
0001
0100
0001
0100
0001
,
0100
0001
1000
0000
0100
0000
0010
0000
,
0000
0001
0010
0100
0000
0000
0000
0000
1000
0000
0000
0000
0100
0000
0010
0000
,
0001
0000
0000
0000
0010
0000
0000
0000
0100
0000
0000
0000
0000
1000
0000
0000
0100
0000
0010
0000
0001
0010
0100
0000
1000
0000
0010
0000
0100
0000
0001
0000
,
1000
0000
0000
0000
0100
0000
0000
0000
0010
0000
0000
0000
0001
0000
0000
0000
1000
0000
0000
0000
0100
0000
0000
0000
0010
0000
0000
0000
0000
0001
0010
0100
0000
0000
0000
0000
1000
0000
0000
0000
0100
0000
0010
0000
0001
0000
1000
0000
2002
0000
0000
0000
0000
0000
0000
0000
0000
0000
0000
0000
0000
0000
0000
0000
,
3003
0000
0000
0000
;

//--------------- dance-single - ----------------
#NOTES:
     dance-single:
     :
     Challenge:
     13:
     0,0,0,0,0:
0000
0000
0000
0000
,
0000
0000
0000
0000
,
0000
1000
0100
0010
,
0000
0001
0010
0100
0000
0000
0000
0000
0100
0000
0000
0000
0010
0000
0001
0000
,
0100
0000
0010
0000
1000
0000
0000
0000
0000
0010
0000
0000
0001
0000
0010
0000
,
1000
0100
0010
0000
0001
0000
1000
0000
0010
0000
0100
0000
0001
0000
0001
0000
,
1000
0000
1000
0000
1000
0000
0100
0000
1100
0000
0001
0010
0100
1000
0001
0010
,
0100
0000
0010
0000
1000
0000
0010
0000
1010
0000
0001
0100
0010
1000
0001
0100
,
0010
0000
0100
0000
1000
0000
0001
0000
1001
0000
0001
0010
0100
1000
0001
0100
,
0010
0000
0001
0000
0100
0000
0010
0000
0110
0000
0001
0100
0010
1000
0001
0010
,
0100
0000
0010
0000
1100
0000
0100
0000
0101
0000
1000
0100
0010
0001
1000
0100
,
0010
0000
0100
0000
0001
0000
0010
0000
0011
0000
1000
0010
0100
0001
1000
0010
,
0100
0000
0010
0000
0001
0000
1000
0000
1001
0000
1000
0100
0010
0001
1000
0010
,
0100
0000
1000
0000
0010
0000
0100
0000
0110
0000
1000
0010
0100
0001
1000
0100
,
0010
0000
0000
0000
0001
0000
0000
0000
1000
0100
0010
0000
0000
0000
0001
0010
0001
0010
0100
0000
0100
0000
1000
0100
1000
0100
0010
1000
0100
0010
0000
0000
,
0000
0001
0100
0001
0100
0010
0000
0010
0000
0100
1000
0100
0010
0000
0000
0000
0001
0010
1000
0001
1000
0100
0010
0000
0000
0000
0001
0010
1000
0100
0001
0100
,
2002
0000
0000
3003
1000
0100
1000
0000
1010
0000
0001
0010
0100
1000
0001
0010
,
0100
1000
0001
0000
1000
0010
1000
0000
1100
0000
0001
0100
0010
1000
0001
0100
,
0010
1000
0001
0000
1000
0001
1000
0000
0110
0000
0001
0010
0100
1000
0001
0100
,
0010
1000
0100
0000
0100
0010
0100
0000
1001
0000
0001
0100
0010
1000
0001
0010
,
0100
1000
0010
0000
0001
0010
0001
0000
0101
0000
1000
0100
0010
0001
1000
0100
,
0010
0001
1000
0000
0001
0100
0001
0000
0011
0000
1000
0010
0100
0001
1000
0010
,
0100
0001
1000
0000
0001
1000
0001
0000
0110
0000
1000
0100
0010
0001
1000
0010
,
0100
0001
0010
0000
0010
0100
0010
0000
1001
0000
1000
0100
0010
0001
1000
0000
,
1000
0001
1000
0001
1000
0001
1000
0001
2000
0000
3000
0000
0000
0000
2000
0000
3000
0000
0000
0000
2000
0000
3000
0000
0200
0000
0300
0000
0000
0000
0200
0000
,
0300
0000
0200
0300
0020
0030
0000
0020
0030
0000
0020
0030
0002
0003
0000
0002
,
0003
0000
0002
0003
0200
0300
0000
0200
0300
0000
0200
0300
0020
0030
0000
0020
,
0030
0000
0000
0000
0020
0000
0030
0000
2000
0000
3000
0000
0000
0000
2000
0000
3000
0000
0000
0000
2000
0000
3000
0000
0002
0000
0003
0000
0000
0000
1000
0100
,
0010
0000
0001
0000
1000
0000
0000
0000
1000
0001
1000
0001
1000
0001
1000
0001
1000
0000
0000
0000
0100
0000
0000
0000
1000
0000
0000
0000
0010
0000
0000
0000
1100
0000
0000
0000
0000
0000
0000
0000
0001
0000
0000
0000
0010
0000
0000
0000
0100
0000
0000
0000
1000
0000
0000
0000
0001
0000
0000
0000
0010
0000
0000
0000
,
0100
1000
0010
0000
1000
0010
1000
0100
1010
0000
0001
0100
0010
1000
0001
0100
,
0010
1000
0100
0000
1000
0010
1000
0001
1010
0000
0001
0010
0100
1000
0001
0100
,
0010
1000
0100
0000
1000
0100
1000
0001
1100
0000
0001
0100
0010
1000
0001
0010
,
0100
1000
0010
0000
0001
0010
0001
0100
0011
0000
1000
0010
0100
0001
1000
0010
,
0100
0001
0010
0000
0001
0100
0001
0010
0101
0000
1000
0100
0010
0001
1000
0100
,
0010
0001
0100
0000
0001
0010
0001
1000
0011
0000
1000
0010
0100
0001
1000
0100
,
0010
0001
0100
0000
0001
0100
0001
1000
0101
0000
1000
0100
0010
0001
1000
0010
,
0100
0001
0010
0000
1000
0100
1000
0100
1000
0100
0010
0001
1000
0010
0100
0001
,
0010
0000
0100
0000
1000
0010
1000
0010
1000
0010
0100
0001
1000
0100
0010
0001
,
0100
0000
0010
0000
1000
0100
0010
0100
1000
0010
0100
0001
1000
0100
0010
0001
,
0100
0000
0010
0000
1000
0010
0100
0010
1000
0100
0010
0001
1000
0010
0100
0001
,
0010
0000
0100
0000
1100
0000
1100
0000
1100
0000
1000
0010
0100
0001
1000
0010
,
0100
0001
0010
0000
1010
0000
1010
0000
1010
0000
1000
0100
0010
0001
1000
0100
,
0010
0001
0100
0000
1001
0000
1001
0000
1001
0000
1000
0100
0010
0001
1000
0010
,
0100
0001
0010
0000
0110
0000
0110
0000
0110
0000
1000
0010
0100
0001
1000
0100
,
0010
0001
0100
0000
1000
0100
1000
0000
0001
0100
0001
0010
0100
1000
0001
0100
,
0010
1000
0100
0000
1000
0010
1000
0000
0001
0010
0001
0100
0010
1000
0001
0010
,
0100
1000
0010
0000
1000
0100
1000
0100
1100
0000
1010
0000
0001
0010
0001
0010
,
0011
0000
0101
0000
1000
0100
0010
0000
0001
0100
0010
0000
1000
0100
0001
0000
,
0001
0010
1000
0000
1000
0100
0001
0000
0110
0000
1000
0100
0010
0100
1000
0100
,
0010
0001
0100
0000
0001
0010
1000
0000
0110
0000
0001
0010
0100
0010
0001
0010
,
0100
1000
0010
0000
1100
0000
0000
0000
0110
0000
0000
0000
0011
0000
0000
0000
,
1001
0000
0000
0000
1000
0100
0010
0100
1000
0100
0010
0001
1000
0010
0100
0001
,
1000
0001
1000
0001
1000
0001
1000
0000
0000
0000
0000
0000
0100
0000
0000
0000
0000
0000
0010
0000
0000
0000
0000
0000
,
0000
0001
0010
0100
0000
0000
0000
0000
1000
0000
0000
0000
0010
0000
0100
0000
,
0001
0000
0000
0000
0010
0000
0000
0000
1000
0000
0000
0000
0000
0100
0000
0000
0010
0000
0001
0000
0010
0100
1000
0000
0001
0000
0010
0000
0100
0000
1000
0000
,
0010
0000
0000
0000
0100
0000
0000
0000
0001
0000
0000
0000
1000
0000
0000
0000
1000
0000
0000
0000
0100
0000
0000
0000
0010
0000
0000
0000
0000
0001
0010
0100
0000
0000
0000
0000
1000
0000
0000
0000
0010
0000
0100
0000
0001
0000
1000
0000
2002
0000
0000
0000
0000
0000
0000
0000
0000
0000
0000
0000
0000
0000
0000
0000
,
3003
0000
0000
0000
;

//--------------- dance-single - ----------------
#NOTES:
     dance-single:
     :
     Edit:
     13:
     0,0,0,0,0:
0000
0000
0000
0000
,
0000
0000
0000
0000
,
0000
1000
0100
0010
,
0000
0001
0010
0100
0000
0000
0000
0000
0100
0000
0000
0000
0010
0000
0001
0000
,
0100
0000
0010
0000
1000
0000
0000
0000
0000
0010
0000
0000
0001
0000
0010
0000
,
1000
0100
0010
0000
0001
0000
1000
0000
0010
0000
0100
0000
0001
0000
0001
0000
,
1000
0000
1000
0001
1000
0000
0100
0000
1100
0000
0001
0010
0100
1000
0001
0010
,
0100
0000
0010
0000
1000
0000
0010
0000
1010
0000
0001
0100
0010
1000
0001
0100
,
0010
0000
0100
0000
1000
0000
0001
0000
1001
0000
0001
0010
0100
1000
0001
0100
,
0010
0000
0001
0000
0100
0000
0010
0000
0110
0000
0001
0100
0010
1000
0001
0010
,
0100
0000
0010
0000
1100
0000
0100
0000
0101
0000
1000
0100
0010
0001
1000
0100
,
0010
0000
0100
0000
0001
0000
0010
0000
0011
0000
1000
0010
0100
0001
1000
0010
,
0100
0000
0010
0000
0001
0000
1000
0000
1001
0000
1000
0100
0010
0001
1000
0010
,
0100
0000
1000
0000
0010
0000
0100
0000
0110
0000
1000
0010
0100
0001
1000
0100
,
0010
0000
0000
0000
0001
0000
0000
0000
1000
0100
0010
0000
0000
0000
0001
0010
0001
0010
0100
0000
0100
0000
1000
0100
1000
0100
0010
1000
0100
0010
0000
0000
,
0000
0000
0001
0000
0100
0000
0001
0000
0100
0000
0010
0000
0000
0000
0010
0000
0000
0000
0100
0000
1000
0100
1000
0100
0010
0001
0010
0001
1000
0010
1000
0010
0100
0001
0100
0001
1000
0001
1000
0001
0100
0010
0100
0010
1000
0001
1000
0001
0010
0100
0010
0100
1000
0010
0100
0001
1000
0100
0010
0100
1000
0010
0100
0010
,
1000
0100
0010
0001
0100
0010
1000
0001
1000
0000
0100
0000
1000
0000
0000
0000
1010
0000
0000
0000
0001
0000
0010
0000
0100
0000
1000
0000
0001
0000
0010
0000
,
0100
1000
0001
0000
1000
0010
1000
0000
1100
0000
0001
0100
0010
1000
0001
0100
,
0010
1000
0001
0000
1000
0001
1000
0000
0110
0000
0001
0010
0100
1000
0001
0100
,
0010
1000
0100
0000
0100
0010
0100
0000
1001
0000
0001
0100
0010
1000
0001
0010
,
0100
1000
0010
0000
0001
0010
0001
0000
0101
0000
1000
0100
0010
0001
1000
0100
,
0010
0001
1000
0000
0001
0100
0001
0000
0011
0000
1000
0010
0100
0001
1000
0010
,
0100
0001
1000
0000
0001
1000
0001
0000
0110
0000
1000
0100
0010
0001
1000
0010
,
0100
0001
0010
0000
0010
0100
0010
0000
1001
0000
1000
0100
0010
0001
1000
0001
,
1000
0001
1000
0001
1000
0001
1000
0001
1000
0000
0100
0000
0010
0000
0000
0000
0000
0000
0000
0000
0001
0000
0010
0000
1000
0000
0010
0000
0100
0000
0000
0000
,
0001
0000
0010
0100
1000
0100
0010
0001
0100
0000
0010
0100
1000
0010
0100
0000
,
0000
0001
0010
0100
1000
0100
0010
0001
0100
0010
0100
0001
1000
0010
0100
0001
,
0010
0000
0100
0000
0001
0000
0010
0000
1000
0000
0100
0000
0010
0000
0100
0000
1000
0000
0001
0000
0010
0000
0100
0000
0001
0000
0010
0000
0100
0000
1000
0100
,
0010
0000
0001
0000
1000
0000
0001
0000
1000
0001
1000
0001
1000
0001
1000
0001
1000
0000
0000
0000
0100
0000
0000
0000
1000
0000
0000
0000
0010
0000
0000
0000
1100
0000
0000
0000
0000
0000
0000
0000
0001
0000
0000
0000
0010
0000
0000
0000
0100
0000
0000
0000
1000
0000
0000
0000
0001
0000
0000
0000
0010
0000
0000
0000
,
0100
1000
0010
0000
1000
0010
1000
0100
1010
0000
0001
0100
0010
1000
0001
0100
,
0010
1000
0100
0000
1000
0010
1000
0001
1010
0000
0001
0010
0100
1000
0001
0100
,
0010
1000
0100
0000
1000
0100
1000
0001
1100
0000
0001
0100
0010
1000
0001
0010
,
0100
1000
0010
0000
0001
0010
0001
0100
0011
0000
1000
0010
0100
0001
1000
0010
,
0100
0001
0010
0000
0001
0100
0001
0010
0101
0000
1000
0100
0010
0001
1000
0100
,
0010
0001
0100
0000
0001
0010
0001
1000
0011
0000
1000
0010
0100
0001
1000
0100
,
0010
0001
0100
0000
0001
0100
0001
1000
0101
0000
1000
0100
0010
0001
1000
0010
,
0100
0001
0010
0000
1000
0100
1000
0100
1000
0100
0010
0001
1000
0010
0100
0001
,
0010
0000
0100
0000
1000
0010
1000
0010
1000
0010
0100
0001
1000
0100
0010
0001
,
0100
0000
0010
0000
1000
0100
0010
0100
1000
0010
0100
0001
1000
0100
0010
0001
,
0100
0000
0010
0000
1000
0010
0100
0010
1000
0100
0010
0001
1000
0010
0100
0001
,
0010
0000
0100
0000
1000
0100
0010
0100
1000
0100
1000
0010
0100
0001
1000
0010
,
0100
0001
0010
0000
1000
0010
0100
0010
1000
0010
1000
0100
0010
0001
1000
0100
,
0010
0001
0100
0000
1000
0001
0010
0001
1000
0001
1000
0100
0010
0001
1000
0010
,
0100
0001
0010
0000
0100
0010
1000
0001
0100
0010
1000
0010
0100
0001
1000
0100
,
0010
0001
0100
0000
1000
0100
1000
0100
0001
0100
0001
0010
0100
1000
0001
0100
,
0010
1000
0100
0000
1000
0010
1000
0010
0001
0010
0001
0100
0010
1000
0001
0010
,
0100
1000
0010
0000
1000
0100
1000
0100
1100
0000
1010
0000
0001
0010
0001
0010
,
0011
0000
0101
0000
1000
0100
0010
0001
1000
0010
0100
0001
1000
0100
0001
0010
,
1000
0010
0001
0100
1000
0100
0001
0000
0110
0000
1000
0100
0010
0100
1000
0100
,
0010
0001
0100
0000
0001
0010
1000
0000
0110
0000
0001
0010
0100
0010
0001
0010
,
0100
1000
0010
0000
1000
0100
1000
0100
0010
0001
0010
0001
1000
0010
1000
0010
,
0100
0001
0100
0001
1000
0100
0010
0100
1000
0100
0010
0001
1000
0010
0100
0001
,
1000
0000
0001
0000
1000
0000
0001
0000
1000
0000
0001
0000
2000
0000
0000
3000
0000
0000
0000
0000
0000
2000
0000
0000
3100
0000
0000
0000
0000
0000
2000
0000
0000
3000
0000
0000
0020
0000
0000
0030
0000
0000
0000
0000
0000
2000
0000
0000
,
3000
0001
0010
0100
1000
0000
0000
0000
1000
0000
0000
0000
0010
0000
0100
0000
,
0001
0000
0000
0000
0010
0000
0000
0000
1000
0000
0000
0000
0000
0100
0000
0000
0010
0000
0001
0000
0010
0100
1000
0000
0001
0000
0010
0000
0100
0000
1000
0000
,
0010
0000
0000
0000
0100
0000
0000
0000
0001
0000
0000
0000
1000
0000
0000
0000
1000
0000
0000
0000
0100
0000
0000
0000
0010
0000
0000
0000
0000
0001
0010
0100
0000
0000
0000
0000
1000
0000
0000
0000
0010
0000
0100
0000
0001
0000
1000
0000
2002
0000
0000
0000
0000
0000
0000
0000
0000
0000
0000
0000
0000
0000
0000
0000
,
3003
0000
0000
0000
;
