#TITLE:Ignition STARTS;
#SUBTITLE:;
#ARTIST:Banya;
#TITLETRANSLIT:;
#SUBTITLETRANSLIT:;
#ARTISTTRANSLIT:;
#GENRE:;
#CREDIT:;
#MUSIC:Ignition Starts.ogg;
#BANNER:Ignition Starts-bn.png;
#BACKGROUND:Ignition Starts-bg.png;
#CDTITLE:;
#SAMPLESTART:25.019;
#SAMPLELENGTH:29.579;
#SELECTABLE:YES;
#OFFSET:-0.370;
#BPMS:0.000=146.050;
#STOPS:;
#BGCHANGES:-0.370=Ignition Starts.avi=1.000=0=0=0=StretchNoLoop====,
99999.000=-nosongbg-=1.000=0=0=0=StretchNoLoop====;
#FGCHANGES:;

//--------------- dance-single - ----------------
#NOTES:
     dance-single:
     :
     Beginner:
     3:
     0,0,0,0,0:
0000
0000
0000
0000
,
0000
0000
0000
0000
,
0000
0000
0000
0000
,
0000
0000
0000
0000
,
0000
0000
0000
0000
,
0000
0000
0000
0000
,
0000
0000
0000
0000
,
0000
0000
0000
0000
,
0000
0000
0000
0000
,
1001
0000
0000
0000
,
1000
0000
0000
0000
,
1001
0000
0000
0000
,
0001
0000
0000
0000
,
0000
0000
0000
0000
,
1000
0000
0000
0100
0000
0000
0010
0000
0000
0000
0000
0001
0000
1000
0000
0000
,
1001
0000
0000
0000
,
0001
0000
0000
0000
,
0000
0000
0000
1000
0000
0100
0000
0000
,
0010
0000
0000
0000
,
0000
0000
0000
0000
0000
0000
0000
0000
0000
0000
0000
0000
0000
0000
0000
0000
0000
0000
0000
0000
0000
0000
0000
0001
0000
0000
0000
0000
0000
0000
0000
0000
,
0000
0000
0010
0000
0000
0000
0100
0000
0000
0000
0000
0000
0000
0000
1000
0000
0000
0000
0000
0000
0000
0000
0000
0001
0000
0000
0000
0000
0000
0000
0000
0000
,
1000
0000
0000
0000
0000
0000
0000
0000
0000
0000
0000
0000
0000
0000
0000
0100
,
0000
0000
0000
0000
0000
0000
0000
0010
0000
0000
0000
0000
0000
0000
0000
0000
,
0001
0000
1000
0000
,
0000
0000
0000
1000
0000
0100
0000
0010
0000
0000
0001
0000
0000
1000
0000
0000
,
1001
0000
0000
0000
1000
0000
0000
0100
0000
0000
0000
0010
0000
0001
0000
0000
,
0000
0000
0000
0000
0010
0000
0100
0000
1000
0000
0000
0001
0000
0000
0000
0000
,
0000
0000
0000
0000
,
0000
0000
0000
0000
,
1000
0000
0100
0000
,
0000
0010
0000
0000
0000
0000
0000
0000
0000
0000
0000
0001
0000
0000
0000
0000
,
0000
0000
0000
0000
0000
1000
0000
0000
0000
0000
0000
0000
0000
0000
0000
0000
,
1001
0000
0000
0000
,
1000
0000
0000
0000
,
0100
0000
0000
0000
,
0010
0000
0000
0000
,
0001
0000
0000
0000
,
0100
0000
0000
0000
,
0010
0000
0000
0000
,
1000
0000
0000
0000
,
0001
0000
0000
0000
,
1001
0000
0000
0000
,
1000
0000
0000
0000
,
0100
0000
0000
0000
,
0010
0000
0000
0000
,
1001
0000
0000
0000
,
0001
0000
0000
0000
,
0010
0000
0000
0000
,
0100
0000
0000
0000
,
0000
0000
0000
0000
,
0000
0000
0000
0000
,
0000
0000
0000
0000
,
1100
0000
0000
0000
;

//--------------- dance-single - ----------------
#NOTES:
     dance-single:
     :
     Easy:
     7:
     0,0,0,0,0:
0000
0000
0000
0000
,
0000
0000
0000
0000
,
0000
0000
0000
0000
,
0000
0000
0000
0000
,
0000
0000
0000
0000
,
0000
0000
0000
0000
,
0000
0000
0000
0000
,
0000
0000
0000
0000
,
0000
0000
0000
0000
,
1001
0000
0100
0000
0010
1000
0010
0000
,
0001
0000
0001
0000
0000
0001
1000
0000
,
0100
0000
0001
0000
0010
0100
1000
0000
,
0010
0000
0100
0000
1000
0100
0001
0000
,
1000
0000
0000
0000
,
0001
0000
0000
0000
,
1010
0000
0101
0000
0100
0010
0100
0000
,
0101
0000
1010
0000
0010
0100
0010
0000
,
0000
1000
0000
0001
,
0000
0000
0100
0000
0000
0010
0010
0000
,
0000
0000
1000
0010
0000
0100
0100
0000
,
0000
0000
0010
0000
0001
1000
0001
0000
,
0000
1001
0001
0000
0100
0000
1000
0000
,
0010
0010
0010
0000
0100
0000
0001
0000
,
0000
1000
1000
0000
1001
0001
0001
0000
,
0100
0000
0010
0000
0000
1000
0001
1000
,
1001
0000
0000
0000
,
0000
0000
0000
0000
,
1001
0000
0000
0000
,
1000
0000
0000
0000
,
0001
0000
1000
0000
,
0001
0000
0000
0000
,
0000
0000
0000
0000
,
0100
0000
0000
0010
,
1000
0100
0010
0000
0001
0010
1000
0000
,
1001
0000
0011
0000
1000
0100
1000
0000
,
1010
0000
0011
0000
0101
0010
0101
0000
,
0010
0100
0001
1000
0100
1000
0001
0000
,
0001
0010
0100
0000
1000
0100
0001
0000
,
1001
0000
1100
0000
0001
0010
0001
0000
,
0101
0000
1100
0000
1010
0100
1010
0000
,
0100
0010
1000
0001
0010
0001
1000
0000
,
0110
0000
1001
0000
0010
1000
0001
0000
,
0100
1000
0010
0100
1000
0010
0001
0000
,
0100
0001
1000
0000
0010
0100
0001
0000
,
0100
0001
0010
0100
1000
0010
1000
0000
,
1001
0000
0110
0000
0100
0001
1000
0000
,
0010
0001
0100
0010
0001
0100
1000
0000
,
0100
1000
0010
0000
0100
0010
1000
0000
,
0100
1000
0100
0010
0001
0100
0001
0000
,
1001
0000
0000
0000
0000
0000
0000
1001
,
1001
0000
0000
0000
,
1001
0000
0000
0000
,
1101
0000
0000
0000
;

//--------------- dance-single - ----------------
#NOTES:
     dance-single:
     :
     Medium:
     10:
     0,0,0,0,0:
0000
0000
0000
0000
,
0001
0000
0000
1000
0000
0000
0100
0000
0000
0010
0000
0000
0100
0000
1000
0000
,
0010
0000
0000
1000
0000
0000
0100
0000
0000
1000
0000
0000
0010
0000
0100
0000
,
0001
0000
0000
1000
0000
0000
0010
0000
0000
0100
0000
0000
0010
0000
1000
0000
,
0001
0000
0000
1000
0000
0000
0010
0000
0100
0001
1000
0000
0100
0000
0100
1000
,
0010
0000
0000
0100
0000
0000
0001
0000
0000
1000
0000
0000
0100
0000
1000
0000
,
0010
0000
0000
0100
0000
0000
0001
0000
0000
0100
0000
0000
1000
0000
0001
0000
,
0100
0000
0000
0010
0000
0000
1000
0000
1010
0000
0000
0000
0001
0000
0100
0000
,
1100
0000
0000
0000
0110
0000
0000
0000
0100
0001
0100
0000
0001
0100
0010
1000
,
0010
0100
0010
0000
0100
0000
0100
0010
0000
0010
1000
0000
0100
1000
0010
0100
,
0001
0000
0001
0100
0001
0000
1000
0000
0100
0000
1000
0000
0010
0000
0000
0000
,
1000
0100
1000
0000
0100
0000
0100
1000
0000
1000
0010
0000
0010
0001
0100
0010
,
1000
0000
1000
0010
1000
0000
0001
0000
0010
0000
0001
0000
0100
0000
0000
0000
,
0100
1000
0010
0000
0110
0000
1000
0100
0000
0100
1000
0000
0001
0100
0001
1000
,
0100
0000
0000
0000
,
1000
0100
1000
0000
0010
0000
0100
0010
0000
0010
0100
0000
0001
0100
0001
0100
,
0010
0000
0100
0010
1000
0000
0001
0000
1000
0000
0100
0000
0110
0000
0000
0000
,
0010
0100
0010
0010
0100
0010
1000
0000
,
1000
0000
0001
0100
0001
0000
0001
0000
1000
0000
0100
0000
1010
0000
0000
0000
,
0100
0010
0100
0100
0010
0100
0001
0000
,
0001
0000
1000
0010
1000
0000
1000
0000
0001
0000
0010
0000
0101
0000
0000
0000
,
1000
0100
1000
1000
0001
0100
0010
0000
,
0010
0000
1000
0100
1000
0000
1000
0000
0010
0000
0100
0000
1010
0000
0000
0000
,
0001
0010
0001
0001
1000
0010
0100
0000
,
0100
0000
0001
0010
0001
0000
0001
0000
0100
0000
0010
0000
0101
0000
0000
0000
,
1110
0000
0000
0000
,
0000
0000
0000
0000
,
1101
0000
0000
0000
,
1000
0000
0000
0000
,
0001
0000
0100
0000
,
0010
0000
0000
1000
1100
0000
0000
0000
,
1000
0010
0100
0000
0001
0000
0100
0001
0000
0001
0100
0000
0010
1000
0100
1000
,
0001
0000
0000
0000
,
1001
0000
0100
0010
0000
0010
0100
0000
0101
0000
0100
0000
1010
0000
0000
0000
,
0100
0010
1000
0001
0000
0001
0100
0000
0010
0000
0100
0001
0000
0001
1000
0000
,
0110
0000
0100
1000
0000
1000
0100
0000
1010
0000
0100
0000
0101
0000
0000
0000
,
0010
0100
0001
1000
0000
1000
0010
0000
0100
0000
0010
1000
0000
1000
0001
0000
,
1100
0000
0001
0100
0000
0100
0001
0000
1010
0000
0100
0010
0000
0011
0000
0010
,
1000
0100
1000
0010
0000
0010
0100
0000
0001
0000
0001
0100
0000
0100
0001
0000
,
0101
0000
1000
0100
0000
0100
1000
0000
0101
0000
0100
0010
0000
1100
0000
0100
,
0001
0010
0001
0100
0000
1000
0100
0000
1000
0000
1000
0010
0000
0010
1000
0000
,
0011
0000
0100
0010
0000
0010
0100
0000
1010
0000
0100
0001
0000
1100
0000
1000
,
0001
0100
0010
1000
0000
1000
0010
0000
0100
0000
0100
0010
0000
0010
0100
0000
,
1100
0000
0010
0100
0000
0100
0010
0000
0101
0000
0010
1000
0000
0011
0000
0001
,
1000
0010
0100
0001
0000
0001
0100
0000
0010
0000
0100
0010
0000
0010
0100
0000
,
0101
0000
0100
0010
0000
0010
1000
0000
0110
0000
0010
1000
0000
1010
0000
1000
,
0010
0100
0001
0100
0000
0100
0010
0000
0010
0000
0010
1000
0000
1000
0100
0000
,
1010
0000
0010
0100
0000
0100
0001
0000
0011
0000
0100
0001
0000
0101
0000
0001
,
0100
0010
1000
0010
0000
0010
1000
0000
1000
0000
1000
0010
0000
0010
0100
0000
,
0101
0000
0000
0000
0000
0000
0000
0100
,
1010
0000
0000
0000
,
0111
0000
0000
0000
0000
0000
0000
0100
,
1111
0000
0000
0000
;

//--------------- dance-single - ----------------
#NOTES:
     dance-single:
     :
     Hard:
     11:
     0,0,0,0,0:
0000
0000
0000
0000
,
0000
0000
0000
0000
,
0000
0000
0000
0000
,
0000
0000
0000
0000
,
0000
0000
0000
0000
,
2000
0000
0000
0010
0000
0000
0010
0000
0000
0010
0000
0000
3010
0000
0100
0000
,
0002
0000
0000
0100
0000
0000
0100
0000
0000
0100
0000
0000
0103
0000
0010
0000
,
2000
0000
0000
3100
0000
0000
1000
0000
0002
0000
0000
0103
0000
0000
0001
0000
,
1000
0000
0000
0000
0001
0000
0000
0000
0100
0010
0100
0010
0100
0001
1000
0100
,
1000
0010
0100
0000
0110
0000
1000
0100
1000
0010
0100
0000
0001
0100
0010
1000
,
0100
0000
0000
0000
0000
0000
1000
0000
0010
0100
0001
0000
0010
0000
0110
0000
,
0001
0100
0010
0000
0110
0000
0001
0010
0001
0100
0010
0000
1000
0010
0100
0001
,
0010
0000
0000
0000
0000
0000
0001
0000
0100
0010
1000
0000
0100
0000
0110
0000
,
0001
0100
0001
0000
1100
0000
0001
0100
0001
1000
0100
0000
1000
0001
0100
0010
,
1000
0000
0000
0000
,
1000
0010
1000
0000
0011
0000
1000
0010
1000
0001
0010
0000
0001
0100
1000
0010
,
0001
0000
0000
0000
0000
0000
0100
0010
1000
0100
1000
0000
0010
0000
0100
0000
,
0001
0010
0001
1000
0001
0100
0010
1000
,
0010
1000
0100
1000
0010
1000
0100
0001
,
0010
1000
0100
0010
0100
1000
0100
0001
,
0010
0100
1000
0100
0010
0001
0100
1000
,
0010
0100
0001
0010
0001
1000
0010
0100
,
0010
0001
0010
1000
0100
0010
0001
0010
,
0100
0000
1000
0010
0100
0000
0001
1000
,
0010
0000
0100
0000
0001
0000
1000
0000
0100
1000
0010
0100
0001
1000
0010
0100
,
0001
0000
0000
0000
,
0000
0000
0000
0000
,
1000
0100
1000
0000
0101
0000
1000
0100
1000
0001
0100
0000
0001
0100
0010
1000
,
0001
0100
0001
1000
,
1101
0000
0111
0000
,
0000
1011
0000
0000
0000
0000
0000
0000
0000
0000
0000
1110
0000
0000
0000
0000
,
0000
1101
0000
0000
,
0001
1000
0001
1000
0001
1000
0001
1000
0010
0100
0010
1000
0001
0100
0010
0100
,
0001
0100
0010
1000
0010
0100
0001
1000
0010
0100
0001
1000
0100
1000
0001
0100
,
0010
1000
0010
0001
0010
0100
0010
1000
0001
1000
0100
0010
0002
0000
0003
0000
,
1000
0010
0100
0001
0100
0010
1000
0001
0100
0010
1000
0001
0010
0001
1000
0010
,
0100
0001
0100
0010
0100
1000
0100
0001
1000
0001
0010
0100
2000
0000
3000
0000
,
0010
0100
0001
1000
0001
0100
0010
1000
0010
1000
0100
0010
0001
0100
0010
1000
,
0100
1000
0100
0010
0001
0100
0010
0001
0010
0100
0010
1000
0001
0100
0002
0003
,
0100
0010
1000
0001
1000
0010
0100
0001
0100
0001
0010
0100
1000
0010
0100
0001
,
0010
0001
0010
0100
1000
0010
0100
1000
0100
0010
0100
0001
1000
0010
2000
3000
,
0010
1000
0001
0000
0101
0000
0100
0010
1000
0100
1000
0000
0010
1000
0001
0100
,
0010
0001
0010
1000
0100
1000
0010
1000
0100
0010
0001
1000
0100
0010
0002
0003
,
0100
0010
1000
0001
0010
0100
1000
0001
1000
0100
0001
0010
0100
0001
0100
0010
,
0001
0100
1000
0010
0100
1000
0100
0001
0100
0010
1000
0100
1000
0010
0100
0001
,
0010
0001
1000
0000
1010
0000
0010
0100
0001
0010
0001
0000
0100
0010
1000
0010
,
0100
1000
0100
0001
0010
0001
0100
0001
0010
0100
1000
0001
0010
0100
2000
3000
,
0010
0100
0001
1000
0100
0010
0001
1000
0001
0010
1000
0100
0010
1000
0010
0100
,
1000
0010
0001
0100
0010
0001
0100
1000
0010
0100
1000
0100
0010
0100
1000
0100
,
1010
0000
0000
0000
0000
0000
0000
0100
,
1101
2000
0020
0000
,
0100
0000
0000
0000
0000
0000
0000
0000
0000
0000
0000
0000
0000
0000
0000
0000
0000
0000
0000
0000
0000
0000
0000
0000
0000
0000
0000
0000
0000
0000
0000
0000
0000
0000
0000
0000
0000
0000
0000
0000
0000
0000
0000
0000
0000
0000
0000
0000
0000
0000
0000
0000
0000
0000
0000
0000
0000
0000
0000
0000
0000
0000
0000
3030
,
1111
0000
0000
0000
;

//--------------- dance-single - ----------------
#NOTES:
     dance-single:
     :
     Challenge:
     12:
     0,0,0,0,0:
0002
0000
0000
0000
0000
0000
0000
0000
0000
0000
0000
0000
0000
0000
0000
0003
,
1001
0000
0000
1000
0000
0000
1000
0000
0000
1000
0000
0000
1000
0000
1000
0000
,
1100
0000
0000
0100
0000
0000
0100
0000
0000
0100
0000
0000
0100
0000
0100
0000
,
0100
0110
0000
0010
0000
0000
0010
0000
0000
0010
0000
0000
0010
0000
0010
0000
,
0011
0000
0000
0001
0000
0000
0001
0000
1000
0001
1000
0000
0001
0000
0001
1000
,
1001
0000
0000
1000
0000
0000
0100
0000
0000
0010
0000
0000
0001
0000
1000
0000
,
1001
0000
0000
0001
0000
0000
0010
0000
0000
0100
0000
0000
1000
0000
0001
0000
,
1001
0000
0000
1000
0000
0000
0100
0000
0110
0010
0000
0000
0001
0000
1000
0000
,
1001
0000
0000
0000
0000
0000
0001
0000
0000
0000
0000
0000
0010
0000
0000
0000
1000
0000
0100
0000
0010
0000
0001
0000
1000
0001
1000
0001
1000
0001
1000
0001
,
1000
0100
0010
0000
0101
0000
0010
1000
0100
0001
1000
0000
0100
0010
0100
0010
,
0001
0010
0001
0010
0001
0000
1000
0100
0010
0001
0010
0100
1000
0000
0001
0000
,
1000
0010
0100
0000
0011
0000
0100
1000
0010
0001
1000
0000
0010
0100
0010
0100
,
0001
0100
0001
0100
0001
0000
1000
0010
0100
0001
0100
0010
1000
0000
0001
0000
,
1000
0100
1000
0000
0110
0000
0001
0010
0001
0100
0010
0000
1000
0100
0010
0001
,
1000
0000
0000
0000
,
1000
0100
0001
0000
0110
0000
0100
0001
0010
0100
1000
0000
0010
0100
0001
0010
,
1000
0100
0010
0100
1000
0000
0010
0100
0001
0010
0100
1000
0100
0000
0010
0000
,
0001
0100
0010
0000
0011
0000
0100
0010
0001
0010
0100
0000
1001
0000
0010
0000
,
1000
0010
0100
0000
1100
0000
0010
0100
1000
0100
0010
0000
1001
0000
0100
0000
,
0001
0010
0100
0000
0101
0000
0100
0001
0010
0001
0100
0000
0110
0000
0001
0000
,
1000
0100
0010
0000
1010
0000
0010
1000
0100
1000
0010
0000
0110
0000
1000
0000
,
1000
0100
0001
0000
1001
0000
0010
0100
0001
0010
0100
0000
1100
0000
0101
0000
,
0001
0010
1000
0000
1001
0000
0100
0010
1000
0100
0010
0000
0011
0000
1010
0000
,
1000
0010
0001
0000
1001
0000
0100
0010
0001
0100
0010
0000
1010
0000
0011
0000
,
0001
0100
1000
0000
1001
0000
0010
0100
1000
0010
0100
0000
0101
0000
1100
0000
,
1001
0000
0000
0000
,
0000
0000
0000
0000
,
1000
0100
0010
0000
0011
0000
0001
0010
0100
1000
0010
0000
0100
0001
0010
0100
,
1000
0000
0000
0000
,
1000
0000
0000
0100
0000
0000
0010
0000
0000
0001
0000
0000
0010
0000
0100
0000
,
1000
0000
0000
0010
0000
0000
0100
0000
0000
0001
0000
0000
0100
0000
0010
0000
,
1000
0100
0001
0000
0110
0000
0001
0010
0100
0010
1000
0000
0100
0001
0010
0100
,
1000
0000
0100
0000
0001
0000
0100
0000
1000
0000
0010
0000
0001
0000
0010
0000
1000
0100
0010
0001
1000
0010
0100
0001
1000
0001
1000
0001
1000
0001
1000
0001
,
1000
0100
0010
0001
0010
0100
1000
0000
1000
0010
0100
0001
0100
0010
1000
0000
,
1000
0010
0100
0001
0100
0010
1000
0000
1000
0100
0010
0001
0010
0100
1000
0000
,
1000
0100
0010
0001
0100
0010
1000
0000
1000
0010
0100
0001
0010
0100
1000
0000
,
1000
0010
0100
0001
0010
0100
1000
0000
1000
0100
0010
0001
0100
0010
1000
0000
,
1000
0100
0010
0001
0100
0010
1000
0000
1000
0100
0010
0001
0100
0010
1000
0000
,
1000
0010
0100
0001
0010
0100
1000
0000
1000
0010
0100
0001
0010
0100
1000
0000
,
1000
0100
0010
0001
0100
0010
1000
0000
1000
0100
0010
0001
0010
0100
1000
0000
,
1000
0010
0100
0001
0010
0100
1000
0000
1000
0010
0100
0001
0100
0010
1000
0000
,
1000
0100
0001
0100
1000
0000
0001
0010
1000
0010
0001
0000
1000
0100
0001
0010
,
1000
0000
0100
0010
0000
0010
0001
0000
0001
0010
0100
1000
0100
0010
0001
0000
,
1000
0100
1000
0100
1000
0100
0001
0000
0001
0100
0001
0100
0001
0100
1000
0000
,
1000
0010
1000
0010
1000
0010
0001
0010
0001
0010
0001
0010
0001
0010
1000
0000
,
0001
0100
1000
0100
0001
0000
1000
0010
0001
0010
1000
0000
0001
0100
1000
0010
,
0001
0000
0010
0100
0000
0100
1000
0000
1000
0100
0010
0001
0010
0100
1000
0000
,
0001
0010
0001
0010
0001
0100
1000
0000
1000
0010
1000
0010
1000
0100
0001
0000
,
0001
0100
0001
0100
0001
0010
1000
0100
1000
0100
1000
0100
1000
0010
0001
0000
,
1001
0000
0000
0100
0000
0000
0100
0000
0000
0100
0000
0000
0100
0000
1001
0000
,
1001
0000
0000
0100
0020
0000
0130
0000
0020
0100
0000
0000
0100
0000
0130
0000
,
1021
0000
0030
0100
0000
0000
0100
0000
0000
0100
0000
0000
0100
0000
0100
0000
,
2222
3333
0000
0000
;
