#TITLE:Hypnosis;
#SUBTITLE:;
#ARTIST:BanYa;
#TITLETRANSLIT:;
#SUBTITLETRANSLIT:;
#ARTISTTRANSLIT:;
#GENRE:;
#CREDIT:;
#MUSIC:Hypnosis.ogg;
#BANNER:Hypnosis-bn.png;
#BACKGROUND:Hypnosis-bg.png;
#CDTITLE:;
#SAMPLESTART:28.371;
#SAMPLELENGTH:21.317;
#SELECTABLE:YES;
#OFFSET:-0.059;
#BPMS:0.000=180.135;
#STOPS:;
#BGCHANGES:;
#FGCHANGES:;

//--------------- dance-single - ----------------
#NOTES:
     dance-single:
     :
     Beginner:
     2:
     0,0,0,0,0:
0000
0000
0000
0000
,
0000
0000
0000
0000
,
0000
0000
0000
0000
,
0000
0000
0000
0000
,
0000
0000
0000
0000
,
0000
0000
0000
0000
,
0000
0000
0000
0000
,
0000
0000
0000
0000
,
0000
1000
0000
0100
,
0000
0010
0000
0100
,
0000
1000
0000
0001
,
0000
0100
0000
0010
,
0000
1000
0000
0000
,
0000
0000
0000
0000
,
0000
0100
0000
0000
,
0000
0000
0000
0000
,
0000
0010
0000
0000
,
0000
0000
0000
0000
,
0000
0001
0000
0000
,
0000
0000
0000
0000
,
0000
0000
0000
0000
,
0000
1000
0100
1000
,
0000
0001
0100
0001
,
0000
1000
0010
1000
,
0000
0001
0010
0001
,
0000
1000
0100
1000
,
0000
0010
0100
0001
,
0000
0010
0001
0100
,
0000
0010
1000
0100
,
0000
1000
0000
0000
,
0000
0000
0000
0000
,
0000
0010
0000
0000
,
0000
0000
0000
0000
,
0000
0100
0000
0000
,
0000
0000
0000
0000
,
0000
0001
0000
0000
,
0000
0000
0000
0000
,
0000
1000
0000
0100
,
0000
1000
0000
0100
,
0000
0010
0000
0001
,
0000
0010
0000
0001
,
0000
1000
0000
0010
,
0000
1000
0000
0010
,
0000
0100
0000
0001
,
0000
0100
0000
0001
,
0000
1000
0000
0100
,
0000
0010
0000
0100
,
0000
1000
0000
0010
,
0000
0100
0000
0001
,
0000
0010
0000
0100
,
0000
0010
0000
0100
,
0000
1000
0000
0010
,
0000
0100
0000
0001
,
0000
0000
0000
0000
,
0000
0000
0000
0000
,
0000
0000
0000
0000
,
0000
0000
0000
0000
,
0000
1000
0100
1000
,
0100
1000
0010
1000
,
0010
0100
0010
0100
,
0010
0100
0001
0100
,
0001
0010
0001
0010
,
0001
0010
0100
0010
,
0100
1000
0100
1000
,
0100
1000
0001
1000
,
0001
1000
0100
1000
,
0010
0100
0001
0010
,
0001
0100
0010
1000
,
0100
1000
0000
0001
,
0000
1001
0000
0000
0000
0000
0000
0000
;

//--------------- dance-single - ----------------
#NOTES:
     dance-single:
     :
     Easy:
     6:
     0,0,0,0,0:
0000
0000
0000
0000
,
0000
0000
0000
0000
,
0000
0000
0000
0000
,
0000
0000
0000
0000
,
0000
1000
0000
1000
,
0000
0001
0000
0001
,
0000
0100
0000
0100
,
0000
0010
0000
0010
,
0000
1000
0100
1000
,
0100
0010
0001
0010
,
0001
1000
0010
1000
,
0010
0100
0001
0100
,
0001
0000
1000
0000
0000
0100
0000
0000
,
0010
0000
0000
0001
0000
0000
0101
0000
,
0000
0000
0001
0000
0000
0010
0000
0000
,
0100
0000
0000
1000
0000
0000
1010
0000
,
0000
0000
1000
0000
0000
0010
0000
0000
,
0100
0000
0000
0001
0000
0000
0011
0000
,
0000
0000
0001
0000
0000
0100
0000
0000
,
0010
0000
0000
1000
0000
0000
1100
0000
,
0000
0000
0000
0000
,
0000
1100
0100
1000
,
0100
1000
0101
0000
0100
0000
0001
0000
,
0100
0001
1010
0000
0010
0000
1000
0000
,
0010
1000
0011
0000
0010
0000
0001
0000
,
0010
0001
1010
0000
0100
0000
1000
0000
,
0100
1000
0101
0000
0010
0000
0001
0000
,
0010
0001
1100
0000
0010
0000
1000
0000
,
0010
1000
0011
0000
0100
0000
0001
0000
,
0100
0001
1000
0000
0000
0100
0000
0000
,
0010
0000
0000
0100
0000
0000
1000
0000
,
0000
0000
0001
0000
0000
0100
0000
0000
,
0010
0000
0000
0100
0000
0000
0001
0000
,
0000
0000
1000
0000
0000
0010
0000
0000
,
0100
0000
0000
0010
0000
0000
1000
0000
,
0000
0000
0001
0000
0000
0010
0000
0000
,
0100
0000
0000
0010
0000
0000
0001
0000
,
0000
1000
0100
1000
,
0100
0010
0001
0010
,
0001
1000
0010
1000
,
0010
0100
0001
0100
,
0001
0010
0100
0010
,
0100
1000
0001
1000
,
0001
0100
0010
0100
,
0010
1000
0001
1000
,
0001
1000
0100
1000
,
0010
0100
0001
0010
,
0001
1000
0010
1000
,
0100
0010
0001
0100
,
0001
1000
0100
1000
,
0010
0100
0001
0010
,
0100
1000
0100
0010
,
0001
0100
0010
1000
,
0100
1000
0000
0000
,
0000
0000
0000
0000
,
0000
0001
0000
0000
,
0000
0000
0000
0000
,
0000
1000
0100
1000
,
0010
0000
0100
0000
0001
0000
0010
0100
,
1000
0100
0010
0001
,
0100
0000
0010
0000
1000
0000
0100
1000
,
0001
0010
0001
0100
,
0010
0000
1000
0000
0100
0000
0010
0001
,
0010
0100
1000
0010
,
0100
0000
0001
0000
0010
0000
0001
1000
,
0100
0000
1000
0100
1000
0000
0010
0100
,
0001
0000
0010
0100
1000
0000
0100
0010
,
0001
0000
0100
0010
1000
0000
0100
1000
,
0001
0010
0100
1000
,
0001
1001
0000
0000
0000
0000
0000
0000
;

//--------------- dance-single - ----------------
#NOTES:
     dance-single:
     :
     Medium:
     9:
     0,0,0,0,0:
0000
0000
0000
0000
,
0000
0000
0000
0000
,
0000
0000
0000
0000
,
0000
0000
0000
0000
,
0000
1000
0100
1000
,
0100
0010
0001
0010
,
0001
1000
0010
1000
,
0010
0100
0001
0100
,
0001
0000
1000
0100
1000
0100
1000
0100
,
1000
0100
0010
0001
0010
0001
0010
0001
,
0010
0001
1000
0010
1000
0010
1000
0010
,
1000
0010
0100
0001
0100
0001
0100
0001
,
0100
0001
1000
0000
1000
0100
0000
0100
,
0010
0000
0010
0001
0000
0001
1000
0010
,
0100
0000
0001
0000
0001
0010
0000
0010
,
0100
0000
0100
1000
0000
1000
0001
0100
,
0010
0000
1000
0000
1000
0010
0000
0010
,
0100
0000
0100
0001
0000
0001
1000
0100
,
0010
0000
0001
0000
0001
0100
0000
0100
,
0010
0000
0010
1000
0000
1000
0001
0010
,
0100
0000
0000
0000
,
0000
1100
0101
0011
,
0000
0000
1000
0100
1000
0000
0010
0000
0000
0000
0100
0000
0000
0000
0001
0000
,
0000
0010
0011
0000
1010
0000
1100
0000
,
0000
0000
0001
0010
0001
0000
0100
0000
0000
0000
0010
0000
1000
0000
0000
0000
,
0100
1010
0011
0101
,
0000
0000
1000
0010
1000
0000
0100
0000
0000
0000
0010
0000
0000
0000
0001
0000
,
0000
0100
0101
0000
1100
0000
1010
0000
,
0000
0000
0001
0100
0001
0000
0010
0000
0000
0000
0100
0000
1000
0000
0000
0000
,
0010
0000
1000
0000
1000
0100
0000
0100
,
0010
0000
0000
0000
0010
0000
0001
0000
0000
0000
0001
0000
0100
0010
0100
0000
,
0000
0000
0001
0000
0001
0010
0000
0010
,
0100
0000
0000
0000
0100
0000
1000
0000
0000
0000
1000
0000
0010
0100
0010
0000
,
0000
0000
1000
0000
1000
0010
0000
0010
,
0100
0000
0000
0000
0100
0000
0001
0000
0000
0000
0001
0000
0010
0100
0010
0000
,
0000
0000
0001
0000
0001
0100
0000
0100
,
0010
0000
0000
0000
0010
0000
1000
0000
0000
0000
1000
0000
0100
0010
0100
0000
,
0000
0000
0000
0000
1000
0100
1000
0000
0100
0000
0000
0000
0010
0000
0001
0000
,
0100
0000
0010
0000
1000
0001
1000
0000
0100
0000
0010
0000
1000
0000
0010
0000
,
0001
0000
1000
0000
0001
0010
0001
0000
0010
0000
0000
0000
0100
0000
1000
0000
,
0010
0000
0100
0000
0001
1000
0001
0000
0010
0000
0100
0000
0001
0000
0100
0000
,
1000
0000
0001
0000
1000
0010
1000
0000
0010
0000
0000
0000
0100
0000
0001
0000
,
0010
0000
0100
0000
1000
0001
1000
0000
0010
0000
0100
0000
1000
0000
0100
0000
,
0001
0000
1000
0000
0001
0100
0001
0000
0100
0000
0000
0000
0010
0000
1000
0000
,
0100
0000
0010
0000
0001
1000
0001
0000
0100
0000
0010
0000
0001
0000
0010
0000
,
1000
0000
0001
0000
1000
0100
1000
0000
0100
0000
0000
0000
0010
0000
0000
0001
,
0000
0000
0100
0000
0010
1000
0100
0000
0010
0000
0000
0000
0001
0000
0000
0100
,
0000
0000
0010
0000
1000
0100
1000
0000
0010
0000
0000
0000
1000
0000
0000
0010
,
0000
0000
1000
0000
0010
0100
0001
0000
0010
0000
0000
0000
0100
0000
0000
1000
,
0000
0000
0010
0000
0100
0001
0010
0000
0100
0000
0000
0000
1000
0000
0000
0010
,
0000
0000
1000
0000
0100
0010
0001
0000
0100
0000
0010
0000
0100
0000
0000
0001
,
0000
0000
0010
0000
0100
1000
0010
0000
0100
0000
0000
0000
0001
0000
0000
0010
,
0000
0000
0100
0000
1000
0010
0100
0000
0010
0000
0000
0000
1000
0000
0000
0100
,
0000
0010
0000
0000
0000
0000
0000
0000
,
0000
0000
0000
0000
,
0000
0000
0000
0000
,
0000
0000
0000
0000
,
0000
0000
1000
0100
1000
0010
0100
0001
,
0010
0100
1000
0100
0010
0001
0100
0010
,
1000
0100
1000
0010
1000
0100
0010
0001
,
0100
0010
1000
0010
0100
0001
0010
0100
,
1000
0010
1000
0100
0010
0100
1000
0010
,
0100
0001
0010
0100
0010
0100
1000
0010
,
0100
0001
1000
0010
0100
0010
1000
0100
,
0010
0001
0100
0010
0100
0010
1000
0100
,
0010
0001
1000
0010
0100
1000
0100
0001
,
1000
0010
0001
0100
0010
0001
0010
1000
,
0001
0100
1000
0010
0100
0001
0010
0100
,
1000
0001
1000
0000
0100
0000
0010
0000
,
0001
1001
0000
0000
0000
0000
0000
0000
;

//--------------- dance-single - ----------------
#NOTES:
     dance-single:
     :
     Hard:
     10:
     0,0,0,0,0:
0000
0000
1000
0000
0100
0000
0010
0001
,
0000
0100
0000
0010
0000
0100
0000
0010
,
0000
1000
0001
0000
0010
0000
0100
1000
,
0000
0010
0000
0100
0000
0010
0100
0000
,
0001
0000
1000
0000
0010
0000
0100
0010
,
0000
0001
0000
0010
0000
1000
0000
0010
,
0000
0100
0001
0000
0010
0000
0100
0010
,
0000
1000
0000
0010
0000
0001
0010
0000
,
0100
0000
1100
0000
1010
0000
0110
0101
,
0000
0011
0000
0011
0000
1001
0000
1001
,
0000
0110
0011
0000
0101
0000
0110
1010
,
0000
1100
0000
1100
0000
1001
1001
0000
,
0110
0000
1100
0000
0000
1010
0000
0000
,
0110
0000
0000
0000
0000
0000
0101
0000
0000
0000
0011
0000
0100
0010
0100
0000
,
1001
0000
0011
0000
0000
0101
0000
0000
,
0110
0000
0000
0000
0000
0000
1010
0000
0000
0000
1100
0000
0010
0100
0010
0000
,
1001
0000
1100
0000
0000
1010
0000
0000
,
0110
0000
0000
0000
0000
0000
0101
0000
0000
0000
0011
0000
1000
0010
0100
0000
,
1001
0000
0011
0000
0000
0101
0000
0000
,
0110
0000
0000
0000
0000
0000
1010
0000
0000
0000
1100
0000
0001
0100
0010
0000
,
1000
0001
1000
0001
0000
0000
0000
0000
0000
0000
0000
0000
0000
0000
0000
0000
,
0000
0000
1100
0000
1010
0000
0110
0101
,
0000
0011
0000
0101
0000
1100
0000
1010
,
0000
1001
0011
0000
0101
0000
0110
1010
,
0000
1100
0000
0101
0000
0011
1010
0000
,
1001
0000
1010
0000
1100
0000
1001
0011
,
0000
0101
0000
1100
0000
1010
0000
0011
,
0000
0110
0101
0000
0011
0000
1001
1100
,
0000
1010
0000
0011
0000
0101
1100
0000
,
0110
0000
1000
0000
1000
0100
0000
0100
,
0010
0000
0000
0000
0010
0000
0001
0000
0000
0000
0001
0000
0100
0010
1000
0100
,
0010
0000
0001
1000
0001
0000
0000
0000
0001
0000
0010
0000
0000
0000
0010
0000
,
0100
0000
0000
0000
0100
0000
1000
0000
0000
0000
1000
0000
0010
0100
0001
0010
,
0100
0000
1000
0001
1000
0000
0000
0000
1000
0000
0010
0000
0000
0000
0010
0000
,
0100
0000
0000
0000
0100
0000
0001
0000
0000
0000
0001
0000
0010
0100
1000
0010
,
0100
0000
0001
1000
0001
0000
0000
0000
0001
0000
0100
0000
0000
0000
0100
0000
,
0010
0000
0000
0000
0010
0000
1000
0000
0000
0000
1000
0000
0100
0010
0001
0100
,
0010
0000
1000
0001
1000
0100
1000
0000
0010
0000
0100
0000
0001
0000
0010
0001
,
0000
0100
0001
0000
1000
0010
1000
0000
0100
0000
0010
0000
0001
0000
0100
0001
,
0000
0010
0001
0000
1000
0100
1000
0000
0010
0000
0100
0000
0001
0000
0010
0001
,
0000
0100
0001
0000
1000
0010
1000
0000
0100
0000
0010
0000
0001
0000
0100
0001
,
0000
0010
0001
0000
1000
0010
0100
0000
0001
0000
0010
0000
0100
0000
0010
0001
,
0000
0100
0010
0000
1000
0100
0010
0000
0001
0000
0100
0000
0010
0000
0100
0001
,
0000
0010
0100
0000
1000
0010
0100
0000
0001
0000
0010
0000
0100
0000
0010
0001
,
0000
0100
0010
0000
1000
0100
0010
0000
0001
0000
0100
0000
0010
0000
0100
0001
,
0000
0010
0001
0000
1000
0100
0010
0000
1000
0000
0010
0000
0001
0000
0100
0010
,
0000
1000
0100
0000
1000
0010
0100
0000
1000
0000
0100
0000
0001
0000
0010
0100
,
0000
1000
0010
0000
1000
0100
0010
0000
1000
0000
0010
0000
0001
0000
0100
0010
,
0000
1000
0100
0000
1000
0010
0100
0000
1000
0000
0100
0000
0001
0000
0010
0100
,
0000
1000
0010
0000
1000
0100
0001
0000
0100
0000
0010
0000
0001
0000
0100
0010
,
0000
1000
0100
0000
1000
0001
0100
0000
1000
0000
0100
0000
0010
0000
0100
0001
,
0000
0010
0001
0000
1000
0100
0001
0000
0100
0000
0010
0000
0001
0000
0100
0010
,
0000
1000
0100
0000
1000
0001
0100
0000
1000
0000
0100
0000
0010
0000
0100
0001
,
0000
0010
0001
0000
1000
0000
0000
0000
1000
0000
0000
0000
1000
0000
1000
0000
,
0000
0100
0000
0100
0000
0100
0000
0100
,
0000
0100
0010
0000
0010
0000
0010
0010
,
0000
0001
0000
0001
0000
0001
0001
0000
,
0001
0000
1000
0000
1000
0100
0000
0100
,
0010
0000
0000
0000
0010
0000
0001
0000
0000
0000
0001
0000
1000
0010
0100
0001
,
0010
0000
0001
1000
0001
0000
0000
0000
0001
0000
0010
0000
0000
0000
0010
0000
,
0100
0000
0000
0000
0100
0000
1000
0000
0000
0000
1000
0000
0001
0100
0010
1000
,
0100
0000
1000
0001
1000
0000
0000
0000
1000
0000
0010
0000
0000
0000
0010
0000
,
0100
0000
0000
0000
0100
0000
0001
0000
0000
0000
0001
0000
1000
0100
0010
0001
,
0100
0000
0010
1000
0001
0000
0000
0000
0001
0000
0100
0000
0000
0000
0100
0000
,
0010
0000
0000
0000
0010
0000
1000
0000
0000
0000
1000
0000
0001
0010
0100
1000
,
0010
0000
0100
0010
1000
0000
0000
0000
1000
0000
0100
0000
0000
0000
0100
0000
,
0010
0000
0000
0000
0010
0000
1000
0000
0000
0000
1000
0000
0010
0100
1000
0010
,
0100
0000
0001
1000
0001
0000
0000
0000
0001
0000
1000
0000
0000
0000
0010
0000
,
0100
1100
0101
0011
,
1010
1001
0000
0000
0000
0000
0000
0000
;

//--------------- dance-single - ----------------
#NOTES:
     dance-single:
     :
     Challenge:
     13:
     0,0,0,0,0:
0000
0000
0000
0000
,
0000
0000
0000
0000
,
0000
0000
0000
0000
,
0000
0000
0000
0000
0000
0100
1000
0010
0100
0001
0010
0001
0100
0010
0100
0010
,
1000
0100
0010
0001
1000
0000
0000
0000
0100
0000
0000
0000
1000
0000
0000
0000
,
0100
0010
0001
0010
,
0001
1000
0010
1000
,
0010
0000
0000
0000
0100
0001
0100
0001
0100
0000
0001
0010
0001
0100
0001
0100
,
0010
1000
0010
1000
0001
0000
0010
0000
0001
0000
0010
0000
0001
0000
0100
0000
,
0001
0100
0010
0100
0010
0100
0010
1000
,
0010
1000
0100
1000
0100
1000
0100
0010
,
0100
0000
0010
0000
0001
0010
0001
0010
0001
0000
0100
0010
0100
0001
0010
0100
,
1000
0001
0010
0100
1000
0000
0010
0000
1000
0000
0010
0000
0001
0000
0010
0000
,
0001
0010
1000
0100
1000
0100
0001
0100
,
0001
0100
1000
0100
1000
0100
0010
0100
,
0010
0100
0010
0001
0010
0001
0010
0100
,
0010
0100
1000
0100
1000
0100
0001
0100
,
0001
0100
1000
0010
1000
0010
0001
0010
,
0001
0010
1000
0100
1000
0010
0100
0001
,
0010
0001
0100
0010
1000
0100
1000
0010
,
1000
0001
1000
0001
0000
0000
0000
0000
0000
0000
0000
0000
0000
0000
0000
0000
,
0000
0000
0000
0000
0100
0010
1000
0001
0010
0001
0100
0010
0100
0001
0010
0000
,
0100
0000
1000
0010
1000
0100
1000
0100
0010
0100
0010
0100
1000
0010
1000
0010
,
0100
0000
0010
0100
0010
1000
0001
0100
0010
1000
0100
0010
0100
1000
0010
0000
,
0100
0000
0001
0010
0001
0100
0001
0100
0010
0100
0010
0100
0001
0010
0001
0010
,
0100
0000
0010
0100
0010
0001
1000
0010
0100
0001
0010
0001
0100
0001
0010
0000
,
0100
0000
0010
0001
1000
0100
1000
0100
0010
0001
0010
0001
1000
0010
1000
0010
,
0100
0000
0001
0100
0010
0100
0001
1000
0100
0001
0100
1000
0010
0100
0001
0000
,
0010
0000
0100
0010
0001
0100
0001
0100
0010
1000
0010
1000
0100
1000
0100
1000
,
0001
0000
1000
0001
1000
0000
0100
1000
0100
0000
1000
0100
1000
0000
0010
1000
,
0010
0000
1000
0010
1000
0000
0010
0100
0010
0000
0100
0010
0100
0000
0001
0100
,
0001
0000
0100
0001
0100
0000
0001
0010
0001
0000
0010
0001
0010
0000
0100
0010
,
0100
0000
0010
0100
0010
0000
0100
1000
0100
0000
1000
0100
1000
0000
0001
1000
,
0001
0000
1000
0001
1000
0000
0010
1000
0010
0000
1000
0010
1000
0000
0100
1000
,
0100
0000
1000
0100
1000
0000
0100
0010
0100
0000
0010
0100
0010
0000
0001
0010
,
0001
0000
0010
0001
0010
0000
0001
0100
0001
0000
0100
0001
0100
0000
0010
0100
,
0010
0000
0100
0010
0100
0000
0010
1000
0010
0000
1000
0010
1000
0100
0010
0001
,
1000
0001
1000
0001
1000
0000
0100
0000
1000
0000
0100
0000
1000
0000
0100
0000
,
1000
0100
1000
0010
1000
0010
1000
0010
,
1000
0010
0100
0010
0100
0010
0100
0010
,
0100
0010
0100
0001
0100
0001
0100
0001
,
0100
0001
0010
0001
0010
0001
0010
0001
,
0010
0001
0010
0100
0010
0100
0010
0100
,
0010
0100
1000
0100
1000
0100
1000
0100
,
1000
0000
0100
0000
1000
0000
0001
0000
1000
0000
0001
0000
1000
0000
0001
0100
,
0010
1000
0100
0010
0001
0100
0010
0000
0100
0000
0001
0010
0100
1000
0010
0100
,
0010
1000
0001
0000
1000
0010
0100
0000
0010
0000
1000
0100
0010
0001
0100
0010
,
0100
0001
1000
0001
1000
0100
0010
0000
0100
0000
1000
0010
0100
0001
0010
0100
,
0010
0001
1000
0000
0001
0010
0100
0000
0010
0000
0001
0100
0010
1000
0100
0010
,
0100
1000
0001
1000
0001
0010
0001
0000
0100
0000
0010
1000
0100
1000
0010
0100
,
0001
0010
0001
0000
1000
0100
1000
0000
0010
0000
0100
0001
0010
0001
0100
0010
,
1000
0100
1000
0000
0001
0100
0001
0000
0010
0000
0100
1000
0010
1000
0100
0010
,
0001
0100
0001
0000
1000
0010
1000
0000
0100
0000
0010
0001
0100
0001
0010
0100
,
1000
0010
1000
0001
1000
0000
0000
0000
0100
0000
0000
0000
1000
0000
0010
0000
,
0000
0100
0000
0100
0000
0001
0000
0001
,
0000
0010
0001
0000
0010
0000
0001
0100
,
0000
0000
0010
0000
0000
0000
0010
0000
0000
0000
1000
0100
1000
0000
0001
0000
,
1000
0000
0001
1000
0010
0000
1000
0001
0010
0100
0010
0001
1000
0100
0010
1000
,
0010
0000
0001
0010
0001
0000
0100
0010
1000
0000
0100
0010
0001
0010
0100
1000
,
0010
0000
1000
0100
0010
0000
0001
0100
0010
1000
0100
1000
0001
0100
0010
0001
,
0010
0000
0100
0010
0001
0000
1000
0010
0100
0000
0010
0100
0001
0100
0010
1000
,
0100
0000
0001
0100
0010
0000
0001
0100
0010
0100
0001
0010
0001
0100
0010
0001
,
0010
0000
0100
0010
0001
0000
0100
0001
0010
0000
0100
1000
0010
0100
0001
0010
,
0001
0000
0100
0001
0010
0000
0001
1000
0100
0010
0100
1000
0001
0010
0100
0001
,
0100
0000
1000
0100
0010
0000
0100
1000
0010
0100
0010
1000
0100
0010
0001
0000
,
0010
0000
0100
1000
0010
0000
1000
0001
0010
0001
0100
0010
0001
0010
1000
0100
,
0010
0000
0100
1000
0100
0000
0010
0001
0100
0000
0010
1000
0010
0001
0010
0100
,
0001
0000
0100
0001
0100
0000
0010
1000
0100
0010
0001
0100
1000
0100
0001
0010
,
0100
0000
1000
0001
1001
0000
0000
0000
1100
0000
0000
0000
0101
0000
0000
0000
,
0011
1010
0000
0000
0000
0000
0000
0000
;

//--------------- dance-single - Old Challenge Chart ----------------
#NOTES:
     dance-single:
     Old Challenge Chart:
     Edit:
     13:
     0,0,0,0,0:
0000
0000
0000
0000
,
0000
0000
0000
0000
,
0000
0000
0000
0000
,
0000
0000
0000
0000
0000
0100
1000
0010
0100
0001
0010
0001
0100
0010
0100
0010
,
1000
0100
0010
0001
1000
0000
0000
0000
0100
0000
0000
0000
1000
0000
0000
0000
,
0100
0010
0001
0010
,
0001
1000
0010
1000
,
0010
0000
0000
0000
0100
0001
0100
0001
0100
0000
0001
0010
0001
0100
0001
0100
,
0010
1000
0010
1000
0001
0000
0010
0000
0001
0000
0010
0000
0001
0000
0100
0000
,
0001
0100
0010
0100
0010
0100
0010
1000
,
0010
1000
0100
1000
0100
1000
0100
0010
,
0100
0000
0010
0000
0001
0010
0001
0010
0001
0000
0100
0010
0100
0001
0010
0100
,
1000
0001
0010
0100
1000
0000
0010
0000
1000
0000
0010
1000
0001
0000
0010
0000
,
0001
0000
0010
0001
1000
0000
0100
0000
1000
0000
0100
1000
0001
0000
0100
0000
,
0001
0000
0100
0001
1000
0000
0100
0000
1000
0000
0100
1000
0010
0000
0100
0000
,
0010
0000
0100
0001
0010
0000
0001
0000
0010
0000
0001
1000
0010
0000
0100
0000
,
0010
0000
0100
0001
1000
0000
0100
0000
1000
0000
0100
1000
0001
0000
0100
0000
,
0001
0000
0100
0001
1000
0000
0010
0000
1000
0000
0010
1000
0001
0000
0010
0000
,
0001
0000
0010
0001
1000
0000
0100
0000
1000
0000
0010
0100
0001
0000
0010
0000
,
0001
0000
0100
0010
1000
0000
0100
0000
0010
0000
0001
0000
0100
0000
0010
0000
,
1000
0001
1000
0001
0000
0000
0000
0000
0000
0000
0000
0000
0000
0000
0000
0000
,
0000
0000
0000
0000
0100
0010
1000
0001
0010
0001
0100
0010
0100
0001
0010
0100
,
1000
0010
0100
0010
1000
0100
1000
0100
0010
0100
0010
0100
1000
0010
1000
0010
,
0100
0010
0100
0010
0100
0001
1000
0010
0100
0001
0010
0100
0010
0001
0100
0010
,
1000
0100
0010
0100
1000
0010
1000
0010
0100
0010
0100
0010
1000
0100
1000
0100
,
0010
0100
0010
0100
0010
0001
1000
0010
0100
0001
0010
0001
0100
0001
0010
0100
,
1000
0010
0100
0010
1000
0100
1000
0100
0001
0100
0001
0100
1000
0010
1000
0010
,
0001
0010
0001
0010
0100
0010
1000
0001
0010
1000
0010
0001
0100
0010
1000
0001
,
0010
0001
0010
0100
1000
0010
1000
0010
0100
0001
0100
0001
0010
0001
0010
0001
,
1000
0001
1000
0001
1000
0100
1000
0100
1000
0100
1000
0100
1000
0100
1000
0100
,
1000
0100
1000
0100
1000
0010
1000
0010
1000
0010
1000
0010
1000
0010
1000
0010
,
1000
0010
1000
0010
0100
0010
0100
0010
0100
0010
0100
0010
0100
0010
0100
0010
,
0100
0010
0100
0010
0100
0001
0100
0001
0100
0001
0100
0001
0100
0001
0100
0001
,
0100
0001
0100
0001
0010
0001
0010
0001
0010
0001
0010
0001
0010
0001
0010
0001
,
0010
0001
0010
0001
0010
0100
0010
0100
0010
0100
0010
0100
0010
0100
0010
0100
,
0010
0100
0010
0100
1000
0100
1000
0100
1000
0100
1000
0100
1000
0100
1000
0100
,
1000
0100
1000
0100
1000
0001
1000
0001
1000
0001
1000
0001
1000
0001
1000
0001
,
1000
0001
1000
0001
1000
0000
0100
0000
1000
0000
0100
0000
1000
0000
0100
0000
,
1000
0100
1000
0010
1000
0010
1000
0010
,
1000
0010
0100
0010
0100
0010
0100
0010
,
0100
0010
0100
0001
0100
0001
0100
0001
,
0100
0001
0010
0001
0010
0001
0010
0001
,
0010
0001
0010
0100
0010
0100
0010
0100
,
0010
0100
1000
0100
1000
0100
1000
0100
,
1000
0000
0100
0000
1000
0000
0001
0000
1000
0000
0001
0000
1000
0000
0001
0100
,
0010
1000
0100
0010
0001
0100
0010
0000
0100
0000
0001
0010
0100
1000
0010
0100
,
0010
1000
0001
0000
1000
0010
0100
0000
0010
0000
1000
0100
0010
0001
0100
0010
,
0100
0001
1000
0001
1000
0100
0010
0000
0100
0000
1000
0010
0100
0001
0010
0100
,
0010
0001
1000
0000
0001
0010
0100
0000
0010
0000
0001
0100
0010
1000
0100
0010
,
0100
1000
0001
1000
0001
0010
0001
0000
0100
0000
0010
1000
0100
1000
0010
0100
,
0001
0010
0001
0000
1000
0100
1000
0000
0010
0000
0100
0001
0010
0001
0100
0010
,
1000
0100
1000
0000
0001
0100
0001
0000
0010
0000
0100
1000
0010
1000
0100
0010
,
0001
0100
0001
0000
1000
0010
1000
0000
0100
0000
0010
0001
0100
0001
0010
0100
,
1000
0010
1000
0001
1000
0000
0100
1000
0100
1000
0100
1000
0100
1000
0100
0000
,
0000
0000
1000
0010
0000
0000
0100
0010
0100
0010
0100
0010
0100
0010
0100
0000
,
0010
0000
0100
0000
0001
0000
0010
0001
0010
0001
0010
0001
0010
0001
0010
0000
,
0001
0000
0010
0100
0000
0000
1000
0100
1000
0100
1000
0100
1000
0000
0001
0000
,
1000
0000
0001
1000
0010
0100
0001
1000
0100
0010
0100
1000
0001
0010
0100
0001
,
0100
1000
0010
0100
0001
0010
0001
0100
0010
1000
0100
0010
0001
0010
0100
1000
,
0010
0100
0001
0010
0100
1000
0001
0100
0010
1000
0100
1000
0001
0100
0010
0001
,
0010
1000
0100
0010
0001
0100
0001
0010
0100
1000
0010
0100
0001
0100
0010
1000
,
0100
0010
0001
0100
0010
1000
0001
0100
0010
0100
0001
0010
0001
0100
0010
0001
,
0010
1000
0100
0010
0001
0100
0010
1000
0100
0010
0100
1000
0010
0100
0001
0010
,
0001
0100
0010
1000
0100
1000
0001
1000
0100
0010
0100
1000
0001
0010
0100
0001
,
0100
1000
0010
0100
0001
0010
0100
1000
0010
0100
0010
1000
0100
0010
0001
0100
,
0001
0010
0100
1000
0010
0100
0001
1000
0100
1000
0010
0100
1000
0100
0001
0010
,
0100
0001
0100
1000
0100
1000
0001
0100
0001
0010
0100
0001
0100
1000
0010
0100
,
1000
0100
0001
0010
0001
0100
0010
1000
0100
0010
0001
0100
0010
0100
0001
0010
,
0100
0000
0000
0000
0000
0000
0000
0000
0000
0000
0000
0000
1000
0000
0000
0000
0000
0000
0000
0000
0000
0000
0000
0000
0010
0000
0000
0000
0000
0000
0000
0000
0000
0000
0000
0000
1000
0000
0000
0000
0000
0000
0000
0000
0000
0000
0000
0000
1001
0000
0000
0000
0000
0000
0000
0000
0000
0000
0000
0000
0000
0000
0000
0000
0000
0000
0000
0000
0000
0000
0000
0000
0000
0000
0000
0000
0000
0000
0000
0000
0000
0000
0000
0000
0000
0000
0000
0000
0000
0000
0000
0000
0000
0000
0000
0000
1000
0000
0000
0000
0000
0000
0000
0000
0000
0000
0100
0000
0000
0000
0000
0000
0000
0000
0000
1000
0000
0000
0000
0000
0000
0000
0000
0000
0000
0100
0000
0000
0000
0000
0000
0000
0000
0000
1000
0000
0000
0000
0000
0000
0000
0000
0000
0000
0100
0000
0000
0000
0000
0000
0000
0000
0000
0000
0010
0000
0000
0000
0000
0000
0000
0000
0000
0001
0000
0000
0000
0000
0000
0000
0000
0000
0000
0010
0000
0000
0000
0000
0000
0000
0000
0000
0100
0000
0000
0000
0000
0000
0000
0000
0000
0000
,
1000
0001
1001
0000
0000
0000
0000
0000
0000
0000
0000
0000
0000
0000
0000
0000
;
