#TITLE:Hybrid Brute;
#SUBTITLE:;
#ARTIST:Kommisar;
#TITLETRANSLIT:;
#SUBTITLETRANSLIT:;
#ARTISTTRANSLIT:;
#GENRE:;
#CREDIT:;
#MUSIC:Hybrid Brute.ogg;
#BANNER:;
#BACKGROUND:;
#CDTITLE:;
#SAMPLESTART:42.692;
#SAMPLELENGTH:27.733;
#SELECTABLE:YES;
#OFFSET:-0.025;
#BPMS:0.000=112.500
,16.000=225.000
,124.000=450.000
,132.000=225.000
,144.000=450.000
,152.000=225.000
,164.000=450.000
,172.000=225.000
,184.000=450.000
,192.000=112.500
,196.000=225.000
,260.000=450.000
,316.000=900.000
,332.000=450.000
,388.000=900.000
,404.000=225.000
,436.000=112.500
,440.000=225.000
;
#STOPS:;
#BGCHANGES:;
#FGCHANGES:;

//--------------- dance-single - ----------------
#NOTES:
     dance-single:
     :
     Beginner:
     9:
     0,0,0,0,0:
1000
0000
0000
0000
,
0100
0000
0000
0000
,
0010
0000
0000
0000
,
0001
0000
0000
0000
,
1000
0100
1000
0100
1000
0100
1000
0100
,
1000
0100
1000
0100
2000
3000
0000
0000
,
0001
0100
0001
0100
0001
0100
0001
0100
,
0001
0100
0001
0100
0001
0000
1000
0000
,
1000
0010
1000
0010
1000
0010
1000
0010
,
1000
0010
1000
0010
1000
0000
0001
0000
,
0001
0010
0001
0010
0001
0010
0001
0010
,
0001
0000
0000
0000
,
1000
0010
1000
0010
1000
0010
1000
0010
,
1000
0010
1000
0010
2000
3000
0000
0000
,
0001
0010
0001
0010
0001
0010
0001
0010
,
0001
0010
0001
0010
0001
0000
1000
0000
,
1000
0100
1000
0100
1000
0100
1000
0100
,
1000
0100
1000
0100
1000
0000
0001
0000
,
0001
0100
0001
0100
0001
0100
0001
0100
,
0001
0010
0100
1000
,
0001
0000
0000
0000
,
0000
0000
0000
0000
,
0010
0000
0000
0000
,
0000
0000
0000
0000
,
0100
0000
0000
0000
,
0000
0000
0000
0000
,
1000
0000
0000
0000
,
0000
0000
0000
0000
,
0001
0000
0000
0000
,
0000
0000
0000
0000
,
1000
0000
0000
0000
,
1000
0100
0010
0001
,
1000
0010
0100
0001
,
1000
0000
0000
0000
,
0001
0000
0000
0000
,
1000
0000
0000
0000
,
0001
0010
0100
1000
,
0001
0100
0010
1000
,
0001
0000
0000
0000
,
1000
0000
0000
0000
,
0001
0000
0000
0000
,
1000
0010
0100
0001
,
1000
0100
0010
0001
,
1000
0000
0000
0000
,
0001
0000
0000
0000
,
1000
0000
0000
0000
,
0001
0100
0010
1000
,
0001
0010
0100
1000
,
0001
0000
0000
0000
,
0001
0010
0001
0010
0001
0010
0001
0010
,
0001
0010
0001
0010
0002
0003
0000
0000
,
1000
0010
1000
0010
1000
0010
1000
0010
,
1000
0010
1000
0010
1000
0000
0001
0000
,
0001
0100
0001
0100
0001
0100
0001
0100
,
0001
0100
0001
0100
0001
0000
1000
0000
,
1000
0100
1000
0100
1000
0100
1000
0100
,
1000
0000
0000
0000
,
0001
0100
0001
0100
0001
0100
0001
0100
,
0001
0100
0001
0100
0002
0003
0000
0000
,
1000
0100
1000
0100
1000
0100
1000
0100
,
1000
0100
1000
0100
1000
0000
0001
0000
,
0001
0010
0001
0010
0001
0010
0001
0010
,
0001
0010
0001
0010
0001
0000
1000
0000
,
1000
0010
1000
0010
1000
0010
1000
0010
,
1000
0100
0010
0001
,
1000
0100
0010
0100
,
1000
0100
0010
0100
,
1000
0100
0010
0100
,
1000
0100
0010
0100
,
1000
0010
0100
0010
,
1000
0010
0100
0010
,
1000
0010
0100
0010
,
1000
0010
0100
0010
,
1000
0100
0010
0001
,
1000
0100
0010
0001
,
1000
0100
0010
0001
,
1000
0100
0010
0001
,
1000
0010
0100
0001
,
1000
0010
0100
0001
,
2000
0000
0000
0000
,
0000
0000
0000
0000
,
3000
0000
0000
0000
,
0000
0000
0000
0000
,
0001
0010
0100
0010
,
0001
0010
0100
0010
,
0001
0010
0100
0010
,
0001
0010
0100
0010
,
0001
0100
0010
0100
,
0001
0100
0010
0100
,
0001
0100
0010
0100
,
0001
0100
0010
0100
,
0001
0010
0100
1000
,
0001
0010
0100
1000
,
0001
0010
0100
1000
,
0001
0010
0100
1000
,
0001
0100
0010
1000
,
0001
0100
0010
1000
,
0002
0000
0000
0000
,
0000
0000
0000
0000
,
0003
0000
0000
0000
,
0000
0000
0000
0000
,
1000
0000
0000
0000
,
0000
0000
0000
0000
,
0100
0000
0000
0000
,
0000
0000
0000
0000
,
0010
0000
0000
0000
,
0000
0000
0000
0000
,
0001
0000
0000
0000
,
0000
0000
0000
0000
,
1000
0000
0000
0000
,
0001
0000
0000
0000
;

//--------------- dance-single - ----------------
#NOTES:
     dance-single:
     :
     Easy:
     13:
     0,0,0,0,0:
1000
0000
0100
0010
,
0001
0000
0010
0100
,
1000
0000
0010
0100
,
0001
0000
1000
0000
,
1000
0100
1000
0000
0100
1000
0100
0000
1000
0100
1000
0000
0100
1000
0100
0000
,
1000
0100
1000
0000
0100
1000
0100
0000
1000
0000
0001
0000
0000
0000
0000
0000
,
0001
0100
0001
0000
0100
0001
0100
0000
0001
0100
0001
0000
0100
0001
0100
0000
,
0001
0100
0001
0000
0100
0001
0100
0000
0001
0000
0000
0000
1000
0000
0000
0000
,
1000
0010
1000
0000
0010
1000
0010
0000
1000
0010
1000
0000
0010
1000
0010
0000
,
1000
0010
1000
0000
0010
1000
0010
0000
1000
0000
0000
0000
0001
0000
0000
0000
,
0001
0010
0001
0000
0010
0001
0010
0000
0001
0010
0001
0000
0010
0001
0010
0000
,
0001
0000
0010
0100
,
1000
0010
1000
0000
0010
1000
0010
0000
1000
0010
1000
0000
0010
1000
0010
0000
,
1000
0010
1000
0000
0010
1000
0010
0000
1000
0000
0001
0000
0000
0000
0000
0000
,
0001
0010
0001
0000
0010
0001
0010
0000
0001
0010
0001
0000
0010
0001
0010
0000
,
0001
0010
0001
0000
0010
0001
0010
0000
0001
0000
0000
0000
1000
0000
0000
0000
,
1000
0100
1000
0000
0100
1000
0100
0000
1000
0100
1000
0000
0100
1000
0100
0000
,
1000
0100
1000
0000
0100
1000
0100
0000
1000
0000
0000
0000
0001
0000
0000
0000
,
0001
0100
0001
0000
0100
0001
0100
0000
0001
0100
0001
0000
0100
0001
0100
0000
,
1000
0001
1000
0001
1000
0001
1000
0001
1000
0001
1000
0001
1000
0001
1000
0001
,
1000
0000
0000
0000
0100
0000
0000
0010
,
0000
0001
2000
3000
,
0001
0000
0000
0000
0010
0000
0000
0100
,
0000
1000
0002
0003
,
1000
0000
0000
0000
0010
0000
0000
0100
,
0000
0001
2000
3000
,
0001
0000
0000
0000
0100
0000
0000
0010
,
0000
1000
0002
0003
,
1000
0000
0100
0000
,
0010
0000
0001
0000
,
2000
0000
0000
3000
,
0001
0010
0001
0000
1000
0010
1000
0000
,
0001
0010
0001
0000
1000
0010
1000
0000
,
0001
0000
0010
0000
,
0100
0000
1000
0000
,
0002
0000
0000
0003
,
1000
0010
1000
0000
0001
0010
0001
0000
,
1000
0010
1000
0000
0001
0010
0001
0000
,
1000
0000
0010
0000
,
0100
0000
0001
0000
,
2000
0000
0000
3000
,
0001
0100
0001
0000
1000
0100
1000
0000
,
0001
0100
0001
0000
1000
0100
1000
0000
,
0001
0000
0100
0000
,
0010
0000
1000
0000
,
0002
0000
0000
0003
,
1000
0100
1000
0000
0001
0100
0001
0000
,
1000
0100
1000
0000
0001
0100
0001
0000
,
1000
0000
0000
0000
0001
0000
0000
1000
0000
0000
0000
0000
0000
0000
0000
0000
,
1000
0100
1000
0000
0100
1000
0100
0000
1000
0010
1000
0000
0010
1000
0010
0000
,
0100
0010
0100
0000
0010
0100
0010
0000
0100
0000
0001
0000
0000
0000
0000
0000
,
0001
0010
0001
0000
0010
0001
0010
0000
0001
0100
0001
0000
0100
0001
0100
0000
,
0010
0100
0010
0000
0100
0010
0100
0000
0010
0000
0000
0000
1000
0000
0000
0000
,
1000
0010
1000
0000
0010
1000
0010
0000
1000
0100
1000
0000
0100
1000
0100
0000
,
0010
0100
0010
0000
0100
0010
0100
0000
0010
0000
0000
0000
0001
0000
0000
0000
,
0001
0100
0001
0000
0100
0001
0100
0000
0001
0010
0001
0000
0010
0001
0010
0000
,
0001
0000
0010
0100
,
1000
0010
1000
0000
0010
1000
0010
0000
1000
0100
1000
0000
0100
1000
0100
0000
,
0010
0100
0010
0000
0100
0010
0100
0000
0010
0000
0001
0000
0000
0000
0000
0000
,
0001
0100
0001
0000
0100
0001
0100
0000
0001
0010
0001
0000
0010
0001
0010
0000
,
0100
0010
0100
0000
0010
0100
0010
0000
0100
0000
0000
0000
1000
0000
0000
0000
,
1000
0100
1000
0000
0100
1000
0100
0000
0010
0100
0010
0000
0100
0010
0100
0000
,
0010
0001
0010
0000
0001
0010
0001
0000
1000
0000
0000
0000
0001
0000
0000
0000
,
1000
0100
1000
0000
0100
1000
0100
0000
0010
0100
0010
0000
0100
0010
0100
0000
,
1000
0001
1000
0001
1000
0001
1000
0001
1000
0001
1000
0001
1000
0001
1000
0001
,
1000
0100
0010
0001
,
1000
0001
1000
0001
1000
0001
1000
0000
,
0001
0010
0100
1000
,
0001
1000
0001
1000
0001
1000
0001
0000
,
1000
0010
0100
0001
,
1000
0001
1000
0001
1000
0001
1000
0000
,
0001
0100
0010
1000
,
0001
1000
0001
1000
0001
1000
0001
0000
,
1000
0100
1000
0000
0001
0100
0001
0000
,
1000
0010
1000
0000
0001
0010
0001
0000
,
1000
0100
0010
0001
,
1000
0100
1000
0000
0100
0010
0100
0000
,
0010
0001
0010
0000
0001
0100
0001
0000
,
0100
0010
0100
0000
0010
1000
0010
0000
,
2000
0000
0000
0000
,
3000
0000
0000
0000
,
0200
0000
0300
0000
,
0020
0000
0030
0000
,
0001
0100
0010
1000
,
0010
0100
0010
0100
0010
0100
0010
0000
,
1000
0010
0100
0001
,
0100
0010
0100
0010
0100
0010
0100
0000
,
0001
0010
0100
1000
,
0010
0100
0010
0100
0010
0100
0010
0000
,
1000
0100
0010
0001
,
0100
0010
0100
0010
0100
0010
0100
0000
,
0001
0010
0001
0000
1000
0010
1000
0000
,
0001
0100
0001
0000
1000
0100
1000
0000
,
0001
0010
0100
1000
,
0001
0100
0001
0000
0100
0010
0100
0000
,
0010
1000
0010
0000
1000
0100
1000
0000
,
0100
0010
0100
0000
0010
0001
0010
0000
,
0002
0000
0000
0000
,
0003
0000
0000
0000
,
0020
0000
0030
0000
,
0200
0000
0300
0000
,
1000
0000
0000
0000
0100
0000
0000
0010
,
0000
0001
2000
3000
,
0001
0000
0000
0000
0010
0000
0000
0100
,
0000
1000
0002
0003
,
1000
0000
0000
0000
0010
0000
0000
0100
,
0000
0001
2000
3000
,
0001
0000
0000
0000
0100
0000
0000
0010
,
0000
1000
0002
0003
,
1000
0000
0000
0000
0000
0000
0000
0001
0000
0000
0000
0000
0000
0000
0000
0000
,
1000
0000
0000
0000
;

//--------------- dance-single - ----------------
#NOTES:
     dance-single:
     :
     Medium:
     15:
     0,0,0,0,0:
1000
0000
0000
0001
0000
0000
0000
0000
1000
0000
0100
0000
0010
0000
0001
0000
,
1000
0000
0000
0001
0000
0000
0000
0000
1000
0100
0010
0001
0010
0100
1000
0000
,
0001
0000
0000
1000
0000
0000
0000
0000
0001
0000
0010
0000
0100
0000
1000
0000
,
0001
0000
0000
1000
0000
0000
0000
0000
1000
0000
0000
0000
0000
0000
0000
0000
,
1000
0100
1000
0100
1000
0100
1000
0100
1000
0100
1000
0100
1000
0100
1000
0100
,
1000
0100
1000
0100
1000
0100
1000
0100
1000
0000
0002
0000
0003
0000
0000
0000
,
0001
0100
0001
0100
0001
0100
0001
0100
0001
0100
0001
0100
0001
0100
0001
0100
,
0001
0100
0001
0100
0001
0100
0001
0100
0002
0000
0003
0000
2000
0000
3000
0000
,
1000
0010
1000
0010
1000
0010
1000
0010
1000
0010
1000
0010
1000
0010
1000
0010
,
1000
0010
1000
0010
1000
0010
1000
0010
2000
0000
3000
0000
0002
0000
0003
0000
,
0001
0010
0001
0010
0001
0010
0001
0010
0001
0010
0001
0010
0001
0010
0001
0010
,
0002
0000
0000
0003
0020
0030
0200
0300
,
1000
0010
1000
0010
1000
0010
1000
0010
1000
0010
1000
0010
1000
0010
1000
0010
,
1000
0010
1000
0010
1000
0010
1000
0010
1000
0000
0002
0000
0003
0000
0000
0000
,
0001
0010
0001
0010
0001
0010
0001
0010
0001
0010
0001
0010
0001
0010
0001
0010
,
0001
0010
0001
0010
0001
0010
0001
0010
0002
0000
0003
0000
2000
0000
3000
0000
,
1000
0100
1000
0100
1000
0100
1000
0100
1000
0100
1000
0100
1000
0100
1000
0100
,
1000
0100
1000
0100
1000
0100
1000
0100
2000
0000
3000
0000
0002
0000
0003
0000
,
0001
0100
0001
0100
0001
0100
0001
0100
0001
0100
0001
0100
0001
0100
0001
0100
,
0001
1000
0001
1000
0001
1000
0001
1000
0001
1000
0001
1000
0001
1000
0001
1000
,
0001
0010
0100
0000
1000
0100
0000
0010
,
0100
0000
1000
0100
0020
0000
0032
0000
,
1003
0010
0100
0000
0001
0100
0000
0010
,
0100
0000
0001
0100
0020
0000
2030
0000
,
3001
0100
0010
0000
1000
0010
0000
0100
,
0010
0000
1000
0010
0200
0000
0302
0000
,
1003
0100
0010
0000
0001
0010
0000
0100
,
0010
0000
0001
0010
0200
0000
2300
0000
,
3001
0010
0100
0000
1000
0100
0000
0010
,
0001
0000
0100
0010
2000
0000
3200
0000
,
0320
0000
0000
0032
0000
0000
0000
0000
,
1003
0001
1000
0001
1000
0001
1000
0001
,
1000
0001
1000
0001
1000
0001
1000
0001
,
1000
0010
0100
0000
0001
0100
0000
0010
,
1000
0000
0100
0010
0002
0000
0203
0000
,
0320
0000
0000
0000
,
1030
0001
1000
0001
1000
0001
1000
0001
,
1000
0001
1000
0001
1000
0001
1000
0001
,
1000
0100
0010
0000
0001
0010
0000
0100
,
1000
0000
0010
0100
0002
0000
0023
0000
,
0230
0000
0000
2300
0000
0000
0000
0000
,
3001
1000
0001
1000
0001
1000
0001
1000
,
0001
1000
0001
1000
0001
1000
0001
1000
,
0001
0100
0010
0000
1000
0010
0000
0100
,
0001
0000
0010
0100
2000
0000
3020
0000
,
0230
0000
0000
0000
,
0301
1000
0001
1000
0001
1000
0001
1000
,
0001
1000
0001
1000
0001
1000
0001
1000
,
0001
1000
0001
1000
0001
1000
0001
1000
0000
0000
0000
0000
0000
0000
0000
0000
,
0001
0010
0001
0010
0001
0010
0001
0010
0001
0010
0001
0010
0001
0010
0001
0010
,
0001
0010
0001
0010
0001
0010
0001
0010
0001
0000
2000
0000
3000
0000
0000
0000
,
1000
0010
1000
0010
1000
0010
1000
0010
1000
0010
1000
0010
1000
0010
1000
0010
,
1000
0010
1000
0010
1000
0010
1000
0010
2000
0000
3000
0000
0002
0000
0003
0000
,
0001
0100
0001
0100
0001
0100
0001
0100
0001
0100
0001
0100
0001
0100
0001
0100
,
0001
0100
0001
0100
0001
0100
0001
0100
0002
0000
0003
0000
2000
0000
3000
0000
,
1000
0100
1000
0100
1000
0100
1000
0100
1000
0100
1000
0100
1000
0100
1000
0100
,
2000
0000
0000
3000
0200
0300
0020
0030
,
0001
0100
0001
0100
0001
0100
0001
0100
0001
0100
0001
0100
0001
0100
0001
0100
,
0001
0100
0001
0100
0001
0100
0001
0100
0001
0000
2000
0000
3000
0000
0000
0000
,
1000
0100
1000
0100
1000
0100
1000
0100
1000
0100
1000
0100
1000
0100
1000
0100
,
1000
0100
1000
0100
1000
0100
1000
0100
2000
0000
3000
0000
0002
0000
0003
0000
,
0001
0010
0001
0010
0001
0010
0001
0010
0001
0010
0001
0010
0001
0010
0001
0010
,
0001
0010
0001
0010
0001
0010
0001
0010
0002
0000
0003
0000
2000
0000
3000
0000
,
1000
0010
1000
0010
1000
0010
1000
0010
1000
0010
1000
0010
1000
0010
1000
0010
,
1000
0001
1000
0001
1000
0001
1000
0001
1000
0001
1000
0001
1000
0001
1000
0001
,
1000
0100
1000
0100
1000
0000
0001
0100
,
0001
0100
0001
0100
0001
0100
0001
0100
,
0001
0010
0001
0010
0001
0010
0001
0000
,
1000
0010
1000
0010
1000
0010
1000
0010
,
1000
0100
1000
0100
1000
0000
0001
0100
,
0001
0100
0001
0100
0001
0100
0001
0100
,
0001
0010
0001
0010
0001
0010
0001
0000
,
1000
0010
1000
0010
1000
0000
0000
0000
,
1000
0100
1000
0000
0001
0100
0001
0000
,
1000
0100
1000
0000
0001
0100
0001
0000
,
1000
0001
1000
0001
1000
0001
1000
0001
,
1000
0100
0010
0001
,
1000
0010
1000
0000
0001
0010
0001
0000
,
1000
0010
1000
0000
0001
0010
0001
0000
,
2000
0000
0000
0000
,
0000
0000
0000
0000
,
3200
0000
0000
0000
,
0320
0000
0000
0000
,
0031
0010
0001
0010
0001
0000
1000
0010
,
1000
0010
1000
0010
1000
0010
1000
0010
,
1000
0100
1000
0100
1000
0100
1000
0000
,
0001
0100
0001
0100
0001
0100
0001
0100
,
0001
0010
0001
0010
0001
0000
1000
0010
,
1000
0010
1000
0010
1000
0010
1000
0010
,
1000
0100
1000
0100
1000
0100
1000
0000
,
0001
0100
0001
0100
0001
0000
0000
0000
,
0001
0010
0001
0000
1000
0010
1000
0000
,
0001
0010
0001
0000
1000
0010
1000
0000
,
0001
1000
0001
1000
0001
1000
0001
1000
,
0001
0010
0100
1000
,
0001
0100
0001
0000
1000
0100
1000
0000
,
0001
0100
0001
0000
1000
0100
1000
0000
,
0002
0000
0000
0000
,
0000
0000
0000
0000
,
0023
0000
0000
0000
,
0230
0000
0000
0000
,
1300
0100
0010
0000
0001
0010
0000
0100
,
1000
0000
0001
0100
0020
0000
2030
0000
,
3001
0010
0100
0000
1000
0100
0000
0010
,
0001
0000
1000
0010
0200
0000
0302
0000
,
1003
0010
0100
0000
0001
0100
0000
0010
,
1000
0000
0001
0010
0200
0000
2300
0000
,
3001
0100
0010
0000
1000
0010
0000
0100
,
0001
0000
1000
0100
0020
0000
0032
0000
,
1003
0100
0010
0001
0010
0100
1000
0001
0000
0000
0000
0000
0000
0000
0000
0000
,
1000
0000
0000
0000
;

//--------------- dance-single - ----------------
#NOTES:
     dance-single:
     :
     Hard:
     16:
     0,0,0,0,0:
1000
0100
0010
0001
0000
0001
1000
0000
0001
0010
0100
1000
0001
0100
0010
1000
,
0001
0000
0010
0000
0100
0000
1000
0000
0000
0000
1000
0000
0001
0000
0000
0000
1000
0001
1000
0001
1000
0000
0010
0100
0010
0000
1000
0001
1000
0000
0001
0000
,
1000
0010
0100
0001
0000
0001
1000
0000
0001
0100
0010
1000
0001
0010
0100
1000
,
0001
0100
0010
1000
0000
1000
0001
0000
1000
0000
0100
0000
0010
0000
0001
1000
,
0001
0010
0001
0010
0100
1000
0100
1000
0001
0100
0001
0100
0010
1000
0010
1000
,
0001
1000
0001
1000
0010
0100
0010
0100
0002
0000
0023
0000
0000
0000
0230
0000
,
1300
0100
1000
0100
0010
0001
0010
0001
1000
0010
1000
0010
0100
0001
0100
0001
,
1000
0001
1000
0001
0100
0010
0100
0010
2000
0000
0000
0000
3002
0000
0000
0000
,
1003
0010
1000
0010
0100
0001
0100
0001
1000
0100
1000
0100
0010
0001
0010
0001
,
0100
0010
0100
0010
1000
0001
1000
0001
0200
0000
0000
0000
0320
0000
0000
0000
,
0031
0100
0001
0100
0010
1000
0010
1000
0001
0010
0001
0010
0100
1000
0100
1000
,
0002
0000
0000
0000
0000
0000
0000
0000
0023
0000
0000
0000
0130
0010
0100
0010
,
1000
0100
1000
0100
0010
0001
0010
0001
1000
0010
1000
0010
0100
0001
0100
0001
,
0100
0010
0100
0010
1000
0001
1000
0001
0200
0000
0320
0000
0000
0000
2030
0000
,
3001
0010
0001
0010
0100
1000
0100
1000
0001
0100
0001
0100
0010
1000
0010
1000
,
0010
0100
0010
0100
0001
1000
0001
1000
0200
0000
0000
0000
0320
0000
0000
0000
,
0031
0100
0001
0100
0010
1000
0010
1000
0001
0010
0001
0010
0100
1000
0100
1000
,
0001
1000
0001
1000
0010
0100
0010
0100
0002
0000
0010
0000
0203
0000
0000
0000
,
1300
0010
1000
0010
0100
0001
0100
0001
1000
0100
1000
0100
0010
0001
0010
0001
,
1000
0100
0010
0001
1000
0100
0010
0001
1000
0100
0010
0001
1000
0100
0010
0001
,
1000
0100
0010
0001
0010
0100
1000
0100
,
0010
0001
0010
0100
1000
1000
0001
0001
,
1000
0010
0100
0001
0100
0010
1000
0010
,
0100
0001
0100
0010
2000
0000
3002
0000
,
1003
0100
0010
0001
0100
0010
1000
0100
,
0010
0001
0100
0010
1000
1000
0001
0001
,
1000
0010
0100
0001
0010
0100
1000
0010
,
0100
0001
0010
0100
2000
0000
3002
0000
,
1003
0100
0010
0100
1000
0100
0010
0100
,
1000
0100
0010
0001
2000
0000
3200
0000
,
0320
0000
0000
0032
0000
0000
0000
0000
,
1003
0010
1000
0010
0100
0010
0100
0010
,
0100
0001
0100
0001
0010
0001
0010
0001
,
1000
0010
0100
0010
1000
0010
0100
0010
,
1000
0010
0100
0001
2000
0000
3020
0000
,
0230
0000
0000
0000
,
0301
0010
0001
0010
0100
0010
0100
0010
,
0100
1000
0100
1000
0001
1000
0001
1000
,
0001
0010
0100
0010
0001
0010
0100
0010
,
0001
0010
0100
1000
0002
0000
0023
0000
,
0230
0000
0000
2300
0000
0000
0000
0000
,
3001
0100
0001
0100
0010
0100
0010
0100
,
0010
1000
0010
1000
0100
1000
0100
1000
,
0001
0100
0010
0100
0001
0100
0010
0100
,
0001
0100
0010
1000
0002
0000
0203
0000
,
0320
0000
0000
0000
,
1030
0100
1000
0100
0010
0100
0010
0100
,
0010
0001
0010
0001
1000
0001
1000
0001
,
1000
0100
0010
0001
0010
0100
1000
0001
0000
0000
0000
0000
1000
0100
0010
0001
,
1000
0100
1000
0100
0010
0001
0010
0001
1000
0010
1000
0010
0100
0001
0100
0001
,
0100
0010
0100
0010
1000
0001
1000
0001
2000
0000
3200
0000
0000
0000
0320
0000
,
0031
0010
0001
0010
0100
1000
0100
1000
0001
0100
0001
0100
0010
1000
0010
1000
,
0010
0100
0010
0100
0001
1000
0001
1000
0002
0000
0010
0000
0203
0000
0000
0000
,
1300
0010
1000
0010
0100
0001
0100
0001
1000
0100
1000
0100
0010
0001
0010
0001
,
1000
0001
1000
0001
0100
0010
0100
0010
2000
0000
0100
0000
3020
0000
0000
0000
,
0031
0100
0001
0100
0010
1000
0010
1000
0001
0010
0001
0010
0100
1000
0100
1000
,
0002
0000
0000
0000
0000
0000
0000
0000
0023
0000
0000
0000
0130
1000
0100
1000
,
0001
0100
0001
0100
0010
1000
0010
1000
0001
0010
0001
0010
0100
1000
0100
1000
,
0010
0100
0010
0100
0001
1000
0001
1000
0002
0000
0023
0000
0000
0000
0230
0000
,
1300
0010
1000
0010
0100
0001
0100
0001
1000
0100
1000
0100
0010
0001
0010
0001
,
0100
0010
0100
0010
1000
0001
1000
0001
2000
0000
0100
0000
3020
0000
0000
0000
,
0031
0010
0001
0010
0100
1000
0100
1000
0001
0100
0001
0100
0010
1000
0010
1000
,
0001
1000
0001
1000
0010
0100
0010
0100
0002
0000
0010
0000
0203
0000
0000
0000
,
1300
0100
1000
0100
0010
0001
0010
0001
1000
0010
1000
0010
0100
0001
0100
0001
,
1000
0010
0100
0001
1000
0010
0100
0001
1000
0010
0100
0001
1000
0010
0100
0001
,
1000
0100
1000
0100
1000
0100
1000
0100
,
1000
0100
1000
0100
1000
0100
1000
0100
,
1000
0100
1000
0100
1000
0100
1000
0100
,
2000
3020
0000
0230
,
0301
0010
0001
0010
0001
0010
0001
0010
,
0001
0010
0001
0010
0001
0010
0001
0010
,
0001
0010
0001
0010
0001
0010
0001
0010
,
0002
0010
0203
0000
,
1300
0010
1000
0010
1000
0010
1000
0010
,
1000
0010
1000
0010
1000
0010
1000
0010
,
1000
0010
1000
0010
1000
0010
1000
0010
,
2000
0100
3020
0000
,
0031
0100
0001
0100
0001
0100
0001
0100
,
0001
0100
0001
0100
0001
0100
0001
0100
,
0002
0000
0000
0000
,
0000
0000
0000
0000
,
0023
0000
0000
0000
,
0230
0000
0000
0000
,
1300
0010
1000
0010
1000
0010
1000
0010
,
1000
0010
1000
0010
1000
0010
1000
0010
,
1000
0010
1000
0010
1000
0010
1000
0010
,
2000
3200
0000
0320
,
0031
0100
0001
0100
0001
0100
0001
0100
,
0001
0100
0001
0100
0001
0100
0001
0100
,
0001
0100
0001
0100
0001
0100
0001
0100
,
0002
0100
0023
0000
,
1030
0100
1000
0100
1000
0100
1000
0100
,
1000
0100
1000
0100
1000
0100
1000
0100
,
1000
0100
1000
0100
1000
0100
1000
0100
,
2000
0010
3200
0000
,
0301
0010
0001
0010
0001
0010
0001
0010
,
0001
0010
0001
0010
0001
0010
0001
0010
,
0002
0000
0000
0000
,
0000
0000
0000
0000
,
0203
0000
0000
0000
,
0320
0000
0000
0000
,
1030
0100
0010
0100
1000
0100
0010
0100
,
1000
0100
0010
0100
1000
1000
0001
0001
,
1000
0010
0100
0010
1000
0010
0100
0010
,
1000
0010
0100
0010
2000
3000
2000
3000
,
0001
0010
0100
0010
0001
0010
0100
0010
,
0001
0010
0100
0010
0001
0001
1000
1000
,
0001
0100
0010
0100
0001
0100
0010
0100
,
0001
0100
0010
0100
0002
0003
0002
0003
,
1000
0000
0100
0000
0010
0000
0001
0000
0100
0000
0010
0000
1000
0000
0001
0000
0000
0000
0000
0000
0000
0000
0000
0000
1000
0100
0010
0001
0010
0100
1000
0100
,
0010
0000
0000
0000
;

//--------------- dance-single - ----------------
#NOTES:
     dance-single:
     :
     Challenge:
     16:
     0,0,0,0,0:
0000
0000
0000
0000
,
0000
0000
0000
0000
,
0000
0000
0000
0000
,
0000
0000
0000
0000
,
1000
0100
0010
0100
1000
0100
0010
0001
0100
0010
0100
0001
0010
0100
1000
0010
,
0100
0010
1000
0100
0010
0001
0010
0100
1000
0000
0100
0000
0100
0000
0010
0000
,
0001
0100
0010
0100
0001
0100
0010
1000
0100
0010
0100
1000
0010
0100
0001
0010
,
0100
0010
0001
0100
0010
1000
0010
0100
0001
0000
0001
0000
0010
0000
0010
0000
,
0100
1000
0100
0010
0001
0100
0010
0100
0001
0010
0100
0010
0001
0100
0010
1000
,
0100
0010
0001
0010
0100
0010
0001
0100
0010
0000
0100
0000
0001
0000
1000
0000
,
1000
0100
0010
0001
0100
0010
1000
0100
0010
0100
1000
0010
0100
0010
1000
0001
,
2000
0000
0100
0000
0100
0000
0100
0000
3002
0000
0100
0000
1003
0100
0010
0001
,
1000
0010
0100
0010
1000
0010
0100
0001
0010
0100
0010
0001
0100
0010
1000
0100
,
0010
0100
1000
0010
0100
0001
0100
0010
1000
0000
0100
0000
0100
0000
0010
0000
,
0001
0010
0100
0010
0001
0010
0100
1000
0010
0100
0010
1000
0100
0010
0001
0100
,
0010
0100
0001
0010
0100
1000
0100
0010
0001
0000
0001
0000
0100
0000
0100
0000
,
0010
1000
0010
0100
0001
0010
0100
0010
0001
0100
0010
0100
0001
0010
0100
1000
,
0010
0100
0001
0100
0010
0100
0001
0010
0100
0000
0010
0000
0001
0000
1000
0000
,
1000
0010
0100
0001
0010
0100
1000
0010
0100
0010
1000
0100
0010
0100
1000
0001
,
1000
0100
0010
0001
1000
0010
0100
0010
1000
0100
0010
0100
1000
0010
0100
0001
,
2000
0100
0100
3002
0100
0100
2003
0100
,
0100
3002
0100
0100
1003
1000
0001
0001
,
2000
0010
0010
3002
0010
0010
2003
0010
,
0010
0000
3002
0000
0010
0000
0010
0000
2003
0000
0001
0000
3001
0010
0100
1000
,
0002
0100
0100
2003
0100
0100
3002
0100
,
0100
2003
0100
0100
3001
0001
1000
1000
,
0002
0010
0010
2003
0010
0010
3002
0010
,
0010
0000
2003
0000
0010
0000
0010
0000
3002
0000
1000
0000
1003
0100
0010
0001
,
1000
0100
1000
0001
0100
0001
1000
0100
,
1000
0001
0100
0001
1000
1000
0001
0001
,
1000
0100
0010
0001
0100
0010
1000
0001
,
1000
0100
0010
0001
1000
0010
0100
0010
,
1000
0100
0010
0100
1000
0010
0100
0001
,
1000
0010
1000
0001
0010
0001
1000
0010
,
1000
0001
0010
0001
1000
0100
0010
0010
,
0001
0100
0010
1000
0100
0010
0001
1000
,
0001
0010
0100
1000
0001
0100
0010
0100
,
0001
0010
0100
0010
0001
0100
0010
1000
,
0001
0010
0001
1000
0010
1000
0001
0010
,
0001
1000
0010
1000
0001
0001
1000
1000
,
0001
0010
0100
1000
0010
0100
0001
1000
,
0001
0010
0100
0010
0001
0100
0010
1000
,
0001
0010
0100
1000
0001
0100
0010
0100
,
0001
0100
0001
1000
0100
1000
0001
0100
,
0001
1000
0100
1000
0001
0100
0010
0010
,
1000
0100
0010
0001
0100
0010
1000
0001
,
1000
0100
0010
0100
1000
0010
0100
0001
,
1000
0100
0010
0001
1000
0010
0100
0010
,
1000
0000
0100
0000
0010
0000
0001
0000
1000
0000
0010
0000
0100
0000
0001
0000
0000
0000
0000
0000
0000
0000
0000
0000
1000
0100
0010
0001
1000
0010
0100
0001
,
1000
0010
0100
0001
1000
0100
0010
0100
1000
0010
0100
0010
1000
0100
0010
0001
,
1000
0100
0010
0001
0100
0010
1000
0100
0010
0000
0001
0000
0100
0000
0010
0000
,
1000
0010
0100
0010
1000
0100
0010
0001
1000
0010
0100
0001
1000
0100
0010
0100
,
1000
0010
0100
0001
0010
0100
1000
0010
0100
0000
0001
0000
0010
0000
0100
0000
,
1000
0100
0010
0001
1000
0010
0100
0010
1000
0100
0010
0100
1000
0010
0100
0001
,
1000
0100
0010
0001
0100
0010
1000
0100
0010
0000
0001
0000
0100
0000
0010
0000
,
1000
0100
0010
0100
1000
0010
0100
0001
1000
0100
0010
0001
1000
0010
0100
0010
,
1000
0000
0100
0000
0010
0000
0001
0000
0100
0000
0010
0000
1000
0100
0010
0001
,
1000
0100
1000
0001
0100
0001
1000
0100
0010
0001
0100
0010
1000
0100
0010
0100
,
1000
0010
0100
0010
1000
0100
0010
0100
0010
0000
0001
0000
0100
0000
0010
0000
,
1000
0010
1000
0001
0010
0001
1000
0010
0100
0001
0010
0100
1000
0010
0100
0010
,
1000
0100
0010
0100
1000
0010
0100
0010
0100
0000
0001
0000
0010
0000
0100
0000
,
1000
0100
0010
0001
0100
0001
0100
0010
1000
0010
0100
0001
0010
0100
1000
0010
,
0100
0010
1000
0100
0010
0001
0100
0010
1000
0000
0100
0000
0010
0000
0001
0000
,
1000
0010
0100
0001
0010
0001
0010
0100
1000
0100
0010
0001
0100
0010
1000
0001
,
1000
0010
0100
0001
1000
0100
0010
0100
1000
0010
0100
0010
1000
0100
0010
0001
,
1000
0100
1000
0100
0010
0001
0010
0001
,
1000
0010
1000
0010
0100
0001
0100
0001
,
1000
0100
1000
0100
0010
0001
0010
0001
,
1000
0010
1000
0010
0100
0001
0100
0001
,
1000
0010
1000
0010
0100
0001
0100
0001
,
1000
0100
1000
0100
0010
0001
0010
0001
,
1000
0010
1000
0010
0100
0001
0100
0001
,
1000
0100
1000
0100
0010
0001
0010
0001
,
1000
0100
0010
0001
1000
0100
0010
0001
,
1000
0100
0010
0001
1000
0100
0010
0001
,
1000
0010
0100
0010
1000
0100
0010
0100
,
1000
0010
0100
0010
1000
0100
0010
0100
,
1000
0010
0100
0001
1000
0010
0100
0001
,
1000
0010
0100
0001
1000
0010
0100
0001
,
1000
0000
0100
0000
,
0010
0000
0001
0000
,
1000
0000
0010
0000
,
0100
0001
0100
0001
,
1000
0100
1000
0001
0100
0010
1000
0001
,
0010
0100
0010
0001
1000
0010
0100
0010
,
1000
0001
0010
0001
1000
0010
1000
0001
,
0010
0100
1000
0001
0100
0010
0100
0001
,
1000
0100
0010
0100
1000
0001
0100
0001
,
1000
0100
1000
0001
0100
0010
1000
0100
,
0010
0100
1000
0010
0100
0001
0010
0100
,
1000
0010
0100
0010
1000
0100
0010
0100
,
1000
0010
0100
0001
1000
0010
0100
0001
,
1000
0010
0100
0001
1000
0010
0100
0001
,
1000
0100
1000
0001
0100
0001
1000
0100
,
0010
0001
0100
0010
1000
0001
0010
0100
,
1000
0100
0010
0001
1000
0100
0010
0001
,
1000
0100
0010
0001
1000
0100
0010
0001
,
1000
0000
0010
0000
,
0100
0000
0001
0000
,
1000
0000
0100
0000
,
0010
0001
0010
0001
,
1000
1000
1000
0100
0100
0100
0010
0010
,
0010
0001
0001
0001
1000
1000
0001
0001
,
1000
1000
1000
0010
0010
0010
0100
0100
,
0100
0000
0001
0000
0001
0000
0001
0000
1000
0000
0100
0000
0010
0001
0100
0010
,
1000
0100
0100
0001
0100
0100
1000
0010
,
0010
0001
0010
0010
1000
1000
0100
0010
,
0001
0100
0100
1000
0100
0100
0001
0010
,
0010
0000
1000
0000
0010
0000
0010
0000
0001
0000
0010
0000
0100
1000
0010
0100
,
0001
0000
0010
0000
0100
0000
1000
0000
0010
0000
0100
0000
0001
0000
1000
0000
0000
0000
0000
0000
0000
0000
0000
0000
1000
0010
0100
0001
0010
0100
1000
0010
,
0002
0003
0000
0000
0000
0000
0000
0000
;

//--------------- dance-single - ----------------
#NOTES:
     dance-single:
     :
     Edit:
     18:
     0,0,0,0,0:
1000
0000
0100
0000
0010
0000
0001
0000
0000
0000
0001
0000
1000
0000
0000
0000
0001
0000
0010
0000
0100
0000
1000
0000
0001
0000
0100
0000
0010
1000
0100
0010
,
0001
0000
0010
0000
0100
0000
1000
0000
0000
0000
1000
0000
0001
0000
0000
0000
1000
0100
0010
0001
1000
0000
0010
0100
0001
0000
0010
0100
1000
0000
0001
0000
,
1000
0000
0010
0000
0100
0000
0001
0000
0000
0000
0001
0000
1000
0000
0000
0000
0001
0000
0100
0000
0010
0000
1000
0000
0001
0000
0010
0000
0100
1000
0010
0100
,
0001
0100
0010
1000
0000
1000
0100
0010
0001
0000
0010
0000
0100
0000
1000
0001
,
1000
0100
0010
0100
1000
0100
0010
0001
0100
0010
0100
0001
0010
0100
1000
0010
,
0100
0010
1000
0100
0010
0001
0010
0100
1000
0000
0100
0000
0100
0000
0010
0000
,
0001
0100
0010
0100
0001
0100
0010
1000
0100
0010
0100
1000
0010
0100
0001
0010
,
0100
0010
0001
0100
0010
1000
0010
0100
0001
0000
0001
0000
0010
0000
0010
0000
,
0100
1000
0100
0010
0001
0100
0010
0100
0001
0010
0100
0010
0001
0100
0010
1000
,
0100
0010
0001
0010
0100
0010
0001
0100
0010
0000
0100
0000
0001
0000
1000
0000
,
1000
0100
0010
0001
0100
0010
1000
0100
0010
0100
1000
0010
0100
0010
1000
0001
,
2000
0000
0100
0000
0100
0000
0100
0000
3002
0000
0100
0000
1003
0100
0010
0001
,
1000
0010
0100
0010
1000
0010
0100
0001
0010
0100
0010
0001
0100
0010
1000
0100
,
0010
0100
1000
0010
0100
0001
0100
0010
1000
0000
0100
0000
0100
0000
0010
0000
,
0001
0010
0100
0010
0001
0010
0100
1000
0010
0100
0010
1000
0100
0010
0001
0100
,
0010
0100
0001
0010
0100
1000
0100
0010
0001
0000
0001
0000
0100
0000
0100
0000
,
0010
1000
0010
0100
0001
0010
0100
0010
0001
0100
0010
0100
0001
0010
0100
1000
,
0010
0100
0001
0100
0010
0100
0001
0010
0100
0000
0010
0000
0001
0000
1000
0000
,
1000
0010
0100
0001
0010
0100
1000
0010
0100
0010
1000
0100
0010
0100
1000
0001
,
1000
0100
0010
0001
1000
0010
0100
0010
1000
0100
0010
0100
1000
0010
0100
0001
,
2000
0100
0100
3002
0100
0100
2003
0100
,
0100
3002
0100
0100
1003
1000
0001
0001
,
2000
0010
0010
3002
0010
0010
2003
0010
,
0010
0000
3002
0000
0010
0000
0010
0000
2003
0000
0001
0000
3001
0010
0100
1000
,
0002
0100
0100
2003
0100
0100
3002
0100
,
0100
2003
0100
0100
3001
0001
1000
1000
,
0002
0010
0010
2003
0010
0010
3002
0010
,
0010
0000
2003
0000
0010
0000
0010
0000
3002
0000
1000
0000
1003
0100
0010
0001
,
1000
0100
1000
0001
0100
0001
1000
0100
,
1000
0001
0100
0001
1000
1000
0001
0001
,
1000
0100
0010
0001
0100
0010
1000
0001
,
1000
0100
0010
0001
1000
0010
0100
0010
,
1000
0100
0010
0100
1000
0010
0100
0001
,
1000
0010
1000
0001
0010
0001
1000
0010
,
1000
0001
0010
0001
1000
0100
0010
0010
,
0001
0100
0010
1000
0100
0010
0001
1000
,
0001
0010
0100
1000
0001
0100
0010
0100
,
0001
0010
0100
0010
0001
0100
0010
1000
,
0001
0010
0001
1000
0010
1000
0001
0010
,
0001
1000
0010
1000
0001
0001
1000
1000
,
0001
0010
0100
1000
0010
0100
0001
1000
,
0001
0010
0100
0010
0001
0100
0010
1000
,
0001
0010
0100
1000
0001
0100
0010
0100
,
0001
0100
0001
1000
0100
1000
0001
0100
,
0001
1000
0100
1000
0001
0100
0010
0010
,
1000
0100
0010
0001
0100
0010
1000
0001
,
1000
0100
0010
0100
1000
0010
0100
0001
,
1000
0100
0010
0001
1000
0010
0100
0010
,
1000
0000
0100
0000
0010
0000
0001
0000
1000
0000
0010
0000
0100
0000
0001
0000
0000
0000
0000
0000
0000
0000
0000
0000
1000
0100
0010
0001
1000
0010
0100
0001
,
1000
0010
0100
0001
1000
0100
0010
0100
1000
0010
0100
0010
1000
0100
0010
0001
,
1000
0100
0010
0001
0100
0010
1000
0100
0010
0000
0001
0000
0100
0000
0010
0000
,
1000
0010
0100
0010
1000
0100
0010
0001
1000
0010
0100
0001
1000
0100
0010
0100
,
1000
0010
0100
0001
0010
0100
1000
0010
0100
0000
0001
0000
0010
0000
0100
0000
,
1000
0100
0010
0001
1000
0010
0100
0010
1000
0100
0010
0100
1000
0010
0100
0001
,
1000
0100
0010
0001
0100
0010
1000
0100
0010
0000
0001
0000
0100
0000
0010
0000
,
1000
0100
0010
0100
1000
0010
0100
0001
1000
0100
0010
0001
1000
0010
0100
0010
,
1000
0000
0100
0000
0010
0000
0001
0000
0100
0000
0010
0000
1000
0100
0010
0001
,
1000
0100
1000
0001
0100
0001
1000
0100
0010
0001
0100
0010
1000
0100
0010
0100
,
1000
0010
0100
0010
1000
0100
0010
0100
0010
0000
0001
0000
0100
0000
0010
0000
,
1000
0010
1000
0001
0010
0001
1000
0010
0100
0001
0010
0100
1000
0010
0100
0010
,
1000
0100
0010
0100
1000
0010
0100
0010
0100
0000
0001
0000
0010
0000
0100
0000
,
1000
0100
0010
0001
0100
0001
0100
0010
1000
0010
0100
0001
0010
0100
1000
0010
,
0100
0010
1000
0100
0010
0001
0100
0010
1000
0000
0100
0000
0010
0000
0001
0000
,
1000
0010
0100
0001
0010
0001
0010
0100
1000
0100
0010
0001
0100
0010
1000
0001
,
1000
0010
0100
0001
1000
0100
0010
0100
1000
0010
0100
0010
1000
0100
0010
0001
,
1000
0100
1000
0100
0010
0001
0010
0001
,
1000
0010
1000
0010
0100
0001
0100
0001
,
1000
0100
1000
0100
0010
0001
0010
0001
,
1000
0010
1000
0010
0100
0001
0100
0001
,
1000
0010
1000
0010
0100
0001
0100
0001
,
1000
0100
1000
0100
0010
0001
0010
0001
,
1000
0010
1000
0010
0100
0001
0100
0001
,
1000
0100
1000
0100
0010
0001
0010
0001
,
1000
0000
0100
0000
0010
0000
0001
0000
0000
1000
0000
0000
0100
0000
0010
0000
0001
0000
1000
0000
0000
0100
0000
0000
,
0010
0000
0001
0000
1000
0000
0100
0000
0000
0010
0000
0000
0001
0000
1000
0000
0100
0000
0010
0000
0000
0001
0000
0000
,
1000
0010
0100
0010
1000
0100
0010
0100
,
1000
0010
0100
0010
1000
0100
0010
0100
,
1000
0000
0010
0000
0100
0000
0001
0000
0000
1000
0000
0000
0010
0000
0100
0000
0001
0000
1000
0000
0000
0010
0000
0000
,
0100
0000
0001
0000
1000
0000
0010
0000
0000
0100
0000
0000
0001
0000
1000
0000
0010
0000
0100
0000
0000
0001
0000
0000
,
1000
0001
1000
0001
,
1000
0100
0010
0001
,
1000
0010
0100
0001
,
1000
0001
1000
0001
1000
0001
1000
0001
,
1000
0100
1000
0001
0100
0010
1000
0001
,
0010
0100
0010
0001
1000
0010
0100
0010
,
1000
0001
0010
0001
1000
0010
1000
0001
,
0010
0100
1000
0001
0100
0010
0100
0001
,
1000
0100
0010
0100
1000
0001
0100
0001
,
1000
0100
1000
0001
0100
0010
1000
0100
,
0010
0100
1000
0010
0100
0001
0010
0100
,
1000
0010
0100
0010
1000
0100
0010
0100
,
1000
0000
0010
0000
0100
0000
0001
0000
0000
1000
0000
0000
0010
0000
0100
0000
0001
0000
1000
0000
0000
0010
0000
0000
,
0100
0000
0001
0000
1000
0000
0010
0000
0000
0100
0000
0000
0001
0000
1000
0000
0010
0000
0100
0000
0000
0001
0000
0000
,
1000
0100
1000
0001
0100
0001
1000
0100
,
0010
0001
0100
0010
1000
0001
0010
0100
,
1000
0000
0100
0000
0010
0000
0001
0000
0000
1000
0000
0000
0100
0000
0010
0000
0001
0000
1000
0000
0000
0100
0000
0000
,
0010
0000
0001
0000
1000
0000
0100
0000
0000
0010
0000
0000
0001
0000
1000
0000
0100
0000
0010
0000
0000
0001
0000
0000
,
1000
0001
1000
0001
,
1000
0010
0100
0001
,
1000
0100
0010
0001
,
1000
0001
1000
0001
1000
0001
1000
0001
,
1000
1000
1000
0100
0100
0100
0010
0010
,
0010
0001
0001
0001
1000
1000
0001
0001
,
1000
1000
1000
0010
0010
0010
0100
0100
,
0100
0000
0001
0000
0001
0000
0001
0000
1000
0000
0100
0000
0010
0001
0100
0010
,
1000
0100
0100
0001
0100
0100
1000
0010
,
0010
0001
0010
0010
1000
1000
0100
0010
,
0001
0100
0100
1000
0100
0100
0001
0010
,
0010
0000
1000
0000
0010
0000
0010
0000
0001
0000
0010
0000
0100
1000
0010
0100
,
0001
0000
0010
0000
0100
0000
1000
0000
0010
0000
0100
0000
0001
0000
1000
0000
0000
0000
0000
0000
0000
0000
0000
0000
1000
0010
0100
0001
0010
0100
1000
0010
,
0002
0003
0000
0000
0000
0000
0000
0000
;
