#TITLE:Hybrid Brute;
#SUBTITLE:(Special);
#ARTIST:Kommisar;
#TITLETRANSLIT:;
#SUBTITLETRANSLIT:;
#ARTISTTRANSLIT:;
#GENRE:;
#CREDIT:;
#MUSIC:Hybrid Brute (Special).ogg;
#BANNER:;
#BACKGROUND:;
#CDTITLE:;
#SAMPLESTART:51.225;
#SAMPLELENGTH:19.200;
#SELECTABLE:YES;
#OFFSET:-0.025;
#BPMS:0.000=28.125
,4.000=450.000
,16.000=112.500
,17.000=450.000
,29.000=112.500
,30.000=450.000
,42.000=112.500
,43.000=450.000
,51.000=56.250
,52.000=450.000
,64.000=112.500
,65.000=450.000
,77.000=112.500
,78.000=450.000
,90.000=112.500
,91.000=450.000
,99.000=900.000
,115.000=225.000
,159.000=450.000
,167.000=225.000
,179.000=112.500
,181.000=225.000
,193.000=450.000
,201.000=225.000
,213.000=112.500
,215.000=225.000
,219.000=56.250
,220.000=450.000
,232.000=112.500
,233.000=450.000
,245.000=112.500
,246.000=450.000
,258.000=112.500
,259.000=450.000
,267.000=56.250
,268.000=450.000
,280.000=112.500
,281.000=450.000
,293.000=112.500
,294.000=450.000
,306.000=112.500
,307.000=450.000
,315.000=900.000
,331.000=450.000
,387.000=225.000
,391.000=450.000
,447.000=900.000
,463.000=225.000
,493.000=112.500
,497.000=900.000
,505.000=225.000
;
#STOPS:;
#BGCHANGES:;
#FGCHANGES:;

//--------------- dance-single - ----------------
#NOTES:
     dance-single:
     :
     Challenge:
     16:
     0,0,0,0,0:
0000
0000
0000
0000
,
1000
0100
1000
0010
0100
0001
0010
0100
,
1000
0100
0010
0001
0100
0010
1000
0100
,
1000
0010
0100
0010
1000
0100
0010
0001
,
0200
0320
0000
2030
3001
0000
0010
0000
0001
0000
0100
0000
0010
0000
1000
0000
,
0100
0010
0001
0010
0100
1000
0010
0100
,
0001
0010
0001
0100
0010
0100
0001
0010
,
0100
1000
0002
2003
3001
0100
0001
0010
,
0100
1000
0010
0100
0001
0100
0010
1000
,
0100
0010
0001
0100
0001
0010
0100
0010
,
0001
0100
0010
1000
0200
0320
0031
0100
,
0010
0100
0001
0010
0100
1000
0010
0100
,
0010
0000
0000
0000
0000
0000
0000
0000
0100
0000
0000
0000
0000
0000
0000
0000
0001
0000
0000
0000
0000
0000
0000
0000
0010
0000
0000
0000
0000
0000
0000
0000
0100
0000
0000
0000
0000
0000
0000
0000
1000
0000
0000
0000
0000
0000
0000
0000
0002
0000
0000
0000
0000
0000
0000
0000
0023
0000
0000
0000
0130
1000
0100
1000
,
0001
0100
0001
0010
0100
1000
0010
0100
,
0001
0100
0010
1000
0100
0010
0001
0100
,
0001
0010
0100
0010
0001
0100
0010
1000
,
0200
0320
0000
0032
1003
0000
0010
0000
1000
0000
0100
0000
0010
0000
0001
0000
,
0100
0010
1000
0010
0100
0001
0010
0100
,
1000
0010
1000
0100
0010
0100
1000
0010
,
0100
0001
2000
3002
1003
0100
1000
0010
,
0100
0001
0010
0100
1000
0100
0010
0001
,
0100
0010
1000
0100
1000
0010
0100
0010
,
1000
0100
0010
0001
0200
0320
1030
0100
,
0010
0100
1000
0010
0100
0001
0010
0100
,
0010
0100
1000
0010
0100
0001
1000
0000
,
0100
0010
0001
1000
,
0100
0010
0001
1000
,
0100
0010
0001
1000
,
0100
0000
0010
0000
0001
0000
1000
0100
,
1000
0001
0100
0001
1000
0010
1000
0001
,
0010
0001
1000
0100
0100
0001
1000
0010
,
1000
0001
0010
0001
1000
0100
1000
0001
,
0100
0000
0001
0000
2000
0000
0000
0000
3001
0010
0100
1000
0001
0000
0010
0000
,
0001
1000
0010
1000
0001
0100
0001
1000
,
0100
1000
0001
0010
0010
1000
0001
0100
,
0001
1000
0100
1000
0001
0010
0001
1000
,
0010
0000
1000
0000
0002
0000
0000
0000
1003
0100
0010
0001
1000
0000
0100
0000
,
1000
0100
0010
0100
0010
0001
0010
0001
,
1000
0001
2000
0000
3200
0000
0320
0000
,
0000
0032
0000
0000
0000
0000
1003
0100
,
1000
0010
0100
0001
0010
0001
1000
0010
,
1000
0100
0010
0001
0100
0001
1000
0010
,
1000
0010
0100
0010
0100
0001
0100
0001
,
1000
0001
2000
0000
3020
0000
0230
0000
,
0000
0000
0000
0000
0000
0000
0000
0000
0000
0000
0000
0000
0000
0000
0000
0000
0000
0000
0000
0000
0000
0000
0000
0000
0310
1000
0100
0010
0001
0100
0001
1000
,
0100
1000
0010
0100
0001
0010
0001
1000
0001
0000
0000
0000
0010
0000
0000
0000
0001
0000
0000
0000
0010
0000
0000
0000
0100
0000
0000
0000
0010
0000
0000
0000
,
0100
1000
0100
1000
0001
1000
0002
0000
,
0023
0000
0230
0000
0000
2300
0000
0000
,
0000
0000
3001
0010
0001
0100
0010
1000
,
0100
1000
0001
0100
0001
0010
0100
1000
,
0010
1000
0001
0100
0001
0100
0010
0100
,
0010
1000
0010
1000
0001
1000
0002
0000
,
0203
0320
0000
0000
,
0000
0000
0000
0000
0000
0000
0000
0000
0130
0001
0010
0100
1000
0010
1000
0001
0010
0001
0100
0010
1000
0100
1000
0001
1000
0000
0000
0000
0100
0000
0000
0000
,
0010
0000
0000
0000
0000
0000
0000
0000
0001
0000
0000
0000
0000
0000
0000
0000
1000
0000
0000
0000
0000
0000
0000
0000
0100
0000
0000
0000
0000
0000
0000
0000
0010
0000
0000
0000
0000
0000
0000
0000
0002
0000
0000
0000
0000
0000
0000
0000
0000
0000
0000
0000
0000
0000
0000
0000
1003
0100
0010
0001
1000
0100
0010
0001
,
1000
0010
1000
0100
0010
0001
0100
0010
,
1000
0010
0100
0001
0010
0100
1000
0010
,
1000
0100
0010
0100
1000
0010
0100
0001
,
0020
0230
0000
2300
3001
0000
0100
0000
0001
0000
0010
0000
0100
0000
1000
0000
,
0010
0100
0001
0100
0010
1000
0100
0010
,
0001
0100
0001
0010
0100
0010
0001
0100
,
0010
1000
0002
2003
3001
0010
0001
0100
,
0010
1000
0100
0010
0001
0010
0100
1000
,
0010
0100
0001
0010
0001
0100
0010
0100
,
0001
0010
0100
1000
0020
0230
0301
0010
,
0100
0010
0001
0100
0010
1000
0100
0010
,
0100
0000
0000
0000
0000
0000
0000
0000
0010
0000
0000
0000
0000
0000
0000
0000
0001
0000
0000
0000
0000
0000
0000
0000
0100
0000
0000
0000
0000
0000
0000
0000
0010
0000
0000
0000
0000
0000
0000
0000
1000
0000
0000
0000
0000
0000
0000
0000
0002
0000
0000
0000
0000
0000
0000
0000
0203
0000
0000
0000
0310
1000
0010
1000
,
0001
0010
0001
0100
0010
1000
0100
0010
,
0001
0010
0100
1000
0010
0100
0001
0010
,
0001
0100
0010
0100
0001
0010
0100
1000
,
0020
0230
0000
0302
1003
0000
0100
0000
1000
0000
0010
0000
0100
0000
0001
0000
,
0010
0100
1000
0100
0010
0001
0100
0010
,
1000
0100
1000
0010
0100
0010
1000
0100
,
0010
0001
2000
3002
1003
0010
1000
0100
,
0010
0001
0100
0010
1000
0010
0100
0001
,
0010
0100
1000
0010
1000
0100
0010
0100
,
1000
0010
0100
0001
0020
0230
1300
0010
,
0100
0010
1000
0100
0010
0001
0100
0010
,
0100
0010
1000
0100
0010
0001
1000
0000
,
0010
0100
0001
1000
,
0010
0100
0001
1000
,
0010
0100
0001
1000
,
0010
0000
0100
0000
0001
0000
1000
0100
,
1000
0001
0100
0010
0100
0001
0010
0100
,
1000
0100
0010
0100
1000
0001
1000
0010
,
1000
0001
0010
0100
0010
0001
0100
0010
,
1000
0010
0100
0010
1000
0001
1000
0100
,
1000
0010
0100
0001
0010
0001
0010
0100
,
0010
0001
0010
0100
1000
0001
1000
0010
,
1000
0010
0100
0001
0100
0001
0010
0100
,
0010
0100
1000
0001
1000
0001
1000
0100
,
0010
0100
1000
0010
0100
0010
1000
0100
,
0010
0100
1000
0010
0100
0010
1000
0100
,
0010
0001
1000
0100
0010
0001
1000
0010
,
0100
0001
1000
0010
0100
0001
1000
0010
,
0100
0010
1000
0100
0010
0100
1000
0010
,
0100
0010
1000
0100
0010
0100
2000
0100
,
0100
0000
0100
0000
3200
0000
0010
0000
0310
0001
0010
0001
1000
0000
0010
0000
,
1000
0001
0010
0100
0010
0001
0100
0010
,
1000
0010
0100
0010
1000
0001
1000
0100
,
1000
0001
0100
0010
0100
0001
0010
0100
,
1000
0100
0010
0100
1000
0001
1000
0010
,
1000
0100
0010
0001
0100
0001
0100
0010
,
0100
0001
0100
0010
1000
0001
1000
0100
,
1000
0100
0010
0001
0010
0001
0100
0010
,
0100
0010
1000
0001
1000
0001
1000
0010
,
0100
0010
1000
0100
0010
0100
1000
0010
,
0100
0010
1000
0100
0010
0100
1000
0010
,
0100
0001
1000
0010
0100
0001
1000
0100
,
0010
0001
1000
0100
0010
0001
1000
0100
,
0010
0100
1000
0010
0100
0010
1000
0100
,
0010
0100
1000
0010
0100
0010
2000
0000
,
0000
0010
0000
0010
,
0000
0010
0000
3020
,
0000
0100
0000
0130
,
0001
0000
0100
0000
0001
0000
1000
0100
,
1000
0001
0100
0001
1000
0010
1000
0001
,
0010
0001
1000
0100
0010
0001
1000
0010
,
1000
0001
0010
0001
1000
0100
1000
0001
,
0100
0000
0001
0000
0020
0000
0000
0000
0130
1000
0100
1000
0001
0000
0100
0000
,
0001
1000
0100
1000
0001
0010
0001
1000
,
0010
1000
0001
0100
0010
1000
0001
0010
,
0001
1000
0010
1000
0001
0100
0001
1000
,
0100
0000
0000
0000
1000
0000
0000
0000
0020
0000
0000
0000
0130
0001
0100
0001
1000
0000
0100
0000
1000
0000
0010
0000
0100
0000
0001
0000
0010
0000
0002
0000
,
0000
1003
0100
0010
,
0001
1000
0010
0100
,
0001
2000
3000
0000
;
