#TITLE:Hardkore Of The North;
#SUBTITLE:;
#ARTIST:Diclonius Kid;
#TITLETRANSLIT:;
#SUBTITLETRANSLIT:;
#ARTISTTRANSLIT:;
#GENRE:;
#CREDIT:;
#MUSIC:Hardkore Of The North.ogg;
#BANNER:Hardkore Of The North-bn.png;
#BACKGROUND:Hardkore Of The North-bg.png;
#CDTITLE:;
#SAMPLESTART:13.282;
#SAMPLELENGTH:20.211;
#SELECTABLE:YES;
#OFFSET:-0.036;
#BPMS:0.000=190.000
,29.000=760.000
,30.000=190.000
,33.000=760.000
,34.000=190.000
,35.000=760.000
,36.000=190.000
,37.000=760.000
,38.000=380.000
,40.000=190.000
,70.000=380.000
,74.000=190.000
,102.000=380.000
,104.000=190.000
,138.000=760.000
,139.000=190.000
,141.000=760.000
,142.000=190.000
,144.000=760.000
,145.000=190.000
,146.000=760.000
,147.000=190.000
,149.000=760.000
,150.000=190.000
,153.000=760.000
,155.000=190.000
,157.000=760.000
,158.000=190.000
,160.000=760.000
,163.000=190.000
,164.000=760.000
,165.000=190.000
,173.000=760.000
,174.000=190.000
,177.000=760.000
,178.000=190.000
,179.000=760.000
,180.000=190.000
,181.000=760.000
,182.000=380.000
,185.000=190.000
,216.000=760.000
,217.000=389120.000
,361.000=190.000
,376.000=760.000
,377.000=190.000
,392.000=760.000
,393.000=190.000
,408.000=760.000
,409.000=190.000
,424.000=3040.000
,427.000=190.000
,433.000=760.000
,435.000=190.000
,441.000=760.000
,443.000=190.000
,445.000=760.000
,447.000=190.000
,449.000=760.000
,450.000=190.000
,455.000=97280.000
,471.000=190.000
;
#STOPS:29.000=0.233
,33.000=0.233
,35.000=0.233
,37.000=0.233
,38.000=0.079
,38.500=0.079
,39.000=0.079
,39.500=0.079
,70.000=0.325
,72.000=0.325
,102.000=0.079
,102.500=0.079
,103.000=0.079
,103.500=0.079
,138.000=0.233
,141.000=0.233
,144.000=0.233
,146.000=0.233
,149.000=0.233
,153.000=0.233
,154.000=0.233
,157.000=0.233
,160.000=0.233
,161.000=0.233
,162.000=0.233
,164.000=0.233
,170.000=0.050
,173.000=0.233
,177.000=0.233
,179.000=0.233
,181.000=0.233
,182.000=0.079
,182.500=0.079
,183.000=0.079
,183.500=0.079
,184.000=0.079
,184.500=0.079
,216.000=0.233
,217.000=2.825
,376.000=0.233
,392.000=0.233
,408.000=0.233
,424.000=0.233
,427.000=0.050
,433.000=0.233
,434.000=0.233
,441.000=0.233
,442.000=0.233
,445.000=0.233
,446.000=0.233
,449.000=0.233
;
#DISPLAYBPM:*;
#BGCHANGES:0.750=Hardkore Of The North.avi=1.000=0=0=0=StretchNoLoop====,
99999.000=-nosongbg-=1.000=0=0=0=StretchNoLoop====
;
#FGCHANGES:;

//--------------- dance-single - ----------------
#NOTES:
     dance-single:
     :
     Beginner:
     4:
     0,0,0,0,0:
0000
0000
0000
0000
,
0000
0000
0000
0000
,
0000
0000
2000
0000
,
0000
0000
3001
0000
,
0000
0000
0002
0000
,
0000
0000
1003
0000
,
0000
0000
1000
0100
,
0020
0030
0001
0010
,
0200
0300
2000
3000
,
0002
0003
2000
0000
,
0000
3000
1000
0000
,
0000
0000
0100
0000
,
0000
0000
0001
0000
,
0000
0000
0100
0000
,
0000
0000
1000
0000
,
0000
0000
0010
0000
,
0000
0000
0001
0000
,
0000
0000
2000
3000
,
0002
0003
1000
0000
,
0100
0000
0010
0000
,
0001
0000
1000
0000
,
0010
0000
0100
0000
,
0001
0000
1000
0000
,
0100
0000
0010
0000
,
0100
0000
1000
0000
,
0001
0000
2000
0000
,
3001
0000
1000
0000
,
0100
0000
0010
0000
,
0100
0000
1000
0000
,
0100
0000
0010
0000
,
0001
0000
0010
0000
,
0100
0000
0010
0000
,
0001
0000
1000
0000
,
0010
0000
0100
0000
,
0001
0000
0000
1000
,
1000
0000
0001
0001
,
0000
0100
0000
0010
,
0010
0000
1000
1000
,
1000
0000
0000
0010
,
0010
0000
0100
0100
,
0000
0000
0000
0001
,
0000
1000
0100
0010
,
0001
1000
1000
1000
,
2000
3000
0001
0001
,
0002
0003
2000
3000
,
0002
0003
2000
0000
,
3002
0000
1003
0100
,
1000
0000
0001
0100
,
0001
0000
1000
0010
,
1000
0000
0001
0010
,
0001
0000
1000
0100
,
0010
0000
0001
0100
,
0010
0000
1000
0010
,
0100
0000
0001
0010
,
0200
0300
2002
0000
0000
0000
0000
0000
,
0000
0000
0000
0000
,
0000
0000
0000
0000
,
0000
0000
0000
0000
,
0000
0000
0000
0000
,
0000
0000
0000
0000
,
0000
0000
0000
0000
,
0000
0000
0000
0000
,
0000
0000
0000
0000
,
0000
0000
0000
0000
,
0000
0000
0000
0000
,
0000
0000
0000
0000
,
0000
0000
0000
0000
,
0000
0000
0000
0000
,
0000
0000
0000
0000
,
0000
0000
0000
0000
,
0000
0000
0000
0000
,
0000
0000
0000
0000
,
0000
0000
0000
0000
,
0000
0000
0000
0000
,
0000
0000
0000
0000
,
0000
0000
0000
0000
,
0000
0000
0000
0000
,
0000
0000
0000
0000
,
0000
0000
0000
0000
,
0000
0000
0000
0000
,
0000
0000
0000
0000
,
0000
0000
0000
0000
,
0000
0000
0000
0000
,
0000
0000
0000
0000
,
0000
0000
0000
0000
,
0000
0000
0000
0000
,
0000
0000
0000
0000
,
0000
0000
0000
0000
,
0000
0000
0000
0000
,
0000
0000
0000
0000
,
3003
1000
0100
0010
,
0100
1000
0100
0010
,
0001
0010
0100
0010
,
0001
0100
0010
1000
,
2002
3003
1000
0000
0010
0000
0100
0000
,
0010
1000
0010
0100
,
0001
0100
0010
0100
,
0001
0010
0100
1000
,
2002
3003
1000
0000
0100
0000
0010
0000
,
0100
1000
0010
0100
,
0001
0010
0100
0010
,
0001
0010
0100
1000
,
2002
3003
1000
0000
0010
0000
0100
0000
,
0010
1000
0100
0010
,
0001
0100
0010
0100
,
0001
0100
0010
1000
,
2002
0000
3003
0000
,
0000
0000
0000
0000
,
0000
0000
2002
3003
2002
3003
0000
0000
,
0000
0000
0000
0000
,
0000
0000
2002
3003
2002
3003
0000
0000
,
0000
0000
2002
3003
2002
3003
0000
0000
,
0000
0000
2002
3003
0000
0000
0000
0000
,
0000
0000
0000
0000
,
0000
0000
0000
0000
,
0000
0000
0000
0000
,
0000
0000
0000
0000
,
0000
0000
0000
2002
,
0000
0000
0000
3003
;

//--------------- dance-single - ----------------
#NOTES:
     dance-single:
     :
     Easy:
     9:
     0,0,0,0,0:
0000
0000
0000
0000
,
0000
0000
0000
0000
,
0000
0000
2000
3200
,
0320
0032
2003
0000
,
0000
3000
0002
0023
,
0230
2300
3002
0000
,
0000
0003
1001
0100
,
0100
0000
2002
3003
0110
0000
0001
0000
,
0001
0000
0220
0330
1001
0000
2002
3003
,
0110
0000
0220
0330
1000
0000
0001
0000
,
1000
0001
1000
0000
,
0100
0000
0010
0000
,
0001
0000
1000
0000
,
0010
0000
0100
0000
,
0001
0000
0001
0000
,
0010
0000
0100
0000
,
1000
0000
0001
0000
,
0100
0000
0010
0000
,
1000
0000
1001
0000
,
0100
0000
0010
0000
,
0001
0000
1001
0000
,
0010
0000
0100
0000
,
1000
0000
1001
0000
,
0010
0000
0100
0000
,
0001
0000
1001
0000
,
0010
0000
1000
0100
,
0010
0001
1000
0010
,
0100
0010
1000
0100
,
0010
0100
1000
0100
,
0010
0001
1000
0010
,
0100
0001
1000
0100
,
0010
0100
1000
0100
,
0010
0001
0010
0100
,
0010
0001
0100
0010
,
1000
0001
1001
1000
,
1000
1001
0001
0001
,
1001
1000
0110
0010
,
0010
0110
0100
0100
,
0100
0110
1001
0001
,
0001
1001
0100
0100
,
0110
0110
0110
0010
,
1001
1000
1000
1000
,
1000
1000
1001
0010
,
0010
1001
1001
0100
,
0100
1001
0110
1001
,
0110
1001
1000
0100
,
0010
0001
1000
0100
,
0010
0000
0001
0000
1000
0001
1000
0000
,
0100
0010
0001
0010
,
0100
0000
1000
0000
0001
1000
0001
0000
,
0010
0100
1000
0010
,
0100
0000
0001
0000
1000
0001
1000
0000
,
0010
0100
0001
0100
,
0010
0000
1000
0000
0001
1000
0001
0000
,
2002
3003
2002
0000
0000
0000
0000
0000
,
0000
0000
0000
0000
,
0000
0000
0000
0000
,
0000
0000
0000
0000
,
0000
0000
0000
0000
,
0000
0000
0000
0000
,
0000
0000
0000
0000
,
0000
0000
0000
0000
,
0000
0000
0000
0000
,
0000
0000
0000
0000
,
0000
0000
0000
0000
,
0000
0000
0000
0000
,
0000
0000
0000
0000
,
0000
0000
0000
0000
,
0000
0000
0000
0000
,
0000
0000
0000
0000
,
0000
0000
0000
0000
,
0000
0000
0000
0000
,
0000
0000
0000
0000
,
0000
0000
0000
0000
,
0000
0000
0000
0000
,
0000
0000
0000
0000
,
0000
0000
0000
0000
,
0000
0000
0000
0000
,
0000
0000
0000
0000
,
0000
0000
0000
0000
,
0000
0000
0000
0000
,
0000
0000
0000
0000
,
0000
0000
0000
0000
,
0000
0000
0000
0000
,
0000
0000
0000
0000
,
0000
0000
0000
0000
,
0000
0000
0000
0000
,
0000
0000
0000
0000
,
0000
0000
0000
0000
,
0000
0000
0000
0000
,
3003
0000
1000
0100
0010
0100
1000
0100
,
0010
0000
0001
0000
0010
0000
0001
0000
0000
0010
0000
0000
0100
0000
0000
0010
0000
0000
0001
0000
0000
0010
0000
0000
,
0100
0000
1000
0000
0100
0000
1000
0000
0000
0010
0000
0000
0100
0000
0000
0010
0000
0000
1000
0000
0000
0100
0000
0000
,
0010
0000
0001
0000
0010
0000
0001
0000
0000
0010
0000
0000
0100
0000
0000
1000
0000
0000
0001
0000
0000
0000
0000
0000
,
2002
3003
1000
0010
0100
0010
1000
0010
,
0100
0000
0001
0000
0100
0000
0001
0000
0000
0100
0000
0000
0010
0000
0000
0100
0000
0000
0001
0000
0000
0100
0000
0000
,
0010
0000
1000
0000
0010
0000
1000
0000
0000
0100
0000
0000
0010
0000
0000
0100
0000
0000
1000
0000
0000
0010
0000
0000
,
0100
0000
0001
0000
0100
0000
0001
0000
0000
0010
0000
0000
0100
0000
0000
1000
0000
0000
0001
0000
0000
0000
0000
0000
,
2002
3003
1000
0100
0010
0001
0010
0100
,
1000
0100
0010
0001
0010
0100
1000
0100
,
0010
0001
0010
0100
1000
0100
0010
0001
,
0010
0100
1000
0100
0010
0001
0010
0100
,
2002
3003
1000
0010
0100
0001
0100
0010
,
1000
0010
0100
0001
0100
0010
1000
0010
,
0100
0001
0100
0010
1000
0010
0100
0001
,
0100
0010
1000
0010
0100
0001
0100
0010
,
2002
0000
3003
2002
,
3003
2000
3000
2002
,
3003
0000
2002
3003
2002
3003
2002
0000
,
3003
0002
0003
2002
,
3003
0000
2002
3003
2002
3003
2002
0000
,
3003
0000
2002
3003
2002
3003
2002
0000
,
3003
2002
3003
2002
,
3003
2002
3003
0000
,
0000
0000
0000
0000
,
0000
0000
0000
0000
,
0000
0000
0000
0000
,
0000
0000
0000
2002
,
0000
0000
0000
3003
;

//--------------- dance-single - ----------------
#NOTES:
     dance-single:
     :
     Medium:
     11:
     0,0,0,0,0:
0000
0000
0000
0000
,
0000
0000
0000
0000
,
0000
0000
2000
3200
,
0320
0000
0000
0000
0000
0000
0000
0000
0000
0000
0000
0000
0000
0000
0000
0000
0032
0000
0000
0000
0000
0000
0000
0000
0000
0000
0000
0000
0000
0000
0000
0000
0203
0000
0000
0000
0000
0000
0000
0000
0000
0000
0000
0000
0000
0000
0000
0300
0200
0000
0000
0000
0000
0000
0000
0000
0000
0000
0000
0000
0000
0000
0000
0300
,
0200
0000
0000
0000
0000
0000
0000
0000
0000
0000
0000
0000
0000
0000
0000
0300
0200
0000
0000
0000
0000
0000
0000
0000
0000
0000
0000
0000
0000
0000
0000
0000
2300
0000
0000
0000
0000
0000
0000
0000
0000
0000
0000
0000
0000
0000
0000
0000
3020
0000
0000
0000
0000
0000
0000
0000
0000
0000
0000
0000
0000
0000
0000
0000
,
0230
0000
0000
0000
0000
0000
0000
0000
0000
0000
0000
0000
0000
0000
0000
0000
0302
0000
0000
0000
0000
0000
0000
0000
0000
0000
0000
0000
0000
0000
0000
0000
0023
0000
0000
0000
0000
0000
0000
0000
0000
0000
0000
0000
0000
0000
0000
0030
0020
0000
0000
0000
0000
0000
0000
0000
0000
0000
0000
0000
0000
0000
0000
0030
,
0020
0000
0000
0000
0000
0000
0000
0000
0000
0000
0000
0000
0000
0000
0000
0000
0000
0000
0000
0000
0000
0000
0000
0000
0000
0000
0000
0000
0000
0000
0000
0000
0000
0000
0000
0000
0000
0000
0000
0000
0000
0000
0000
0000
0000
0030
0000
0000
0020
0000
0000
0000
0000
0000
0000
0000
0000
0000
0000
0000
0000
0000
0000
0000
0000
0000
0000
0000
0000
0000
0000
0000
0000
0000
0000
0000
0000
0000
0000
0000
0000
0000
0000
0000
0000
0000
0000
0000
0000
0000
0000
0000
0000
0030
0000
0000
1001
0000
0000
0000
0000
0000
0000
0000
0000
0000
0000
0000
0000
0000
0000
0000
0000
0000
0000
0000
0000
0000
0000
0000
0000
0000
0000
0000
0000
0000
0000
0000
0000
0000
0000
0000
0000
0000
0000
0000
0000
0000
0000
0000
0000
0000
0000
0000
1000
0000
0000
0000
0000
0000
0000
0000
0000
0000
0000
0000
0000
0000
0000
0000
0100
0000
0000
0000
0000
0000
0000
0000
0000
0000
0000
0000
0000
0000
0000
0000
1000
0000
0000
0000
0000
0000
0000
0000
0000
0000
0000
0000
0000
0000
0000
0000
,
0100
0000
0000
0000
0000
0000
2002
0000
0000
3003
0000
0000
1001
0000
0000
0000
0000
0000
0001
0000
0100
0000
0001
0000
,
0100
0000
2002
3003
1001
0000
2002
3003
,
1001
0000
2002
3003
2002
3003
0220
0330
,
1000
0000
0000
0100
0000
0000
0010
0000
0000
0001
0000
0000
1000
0000
0000
0000
0000
0000
1000
0000
0100
0000
1000
0000
,
0100
0000
0000
0100
0000
0000
0100
0010
0100
0010
0000
0000
,
0010
0000
0000
0001
0000
0000
0010
0000
0000
0010
0001
0010
,
0001
0000
0001
0000
0001
0010
0100
0000
,
1000
0000
0000
0100
0000
0000
0010
0000
0000
0000
0000
0000
0001
0000
0000
0000
0000
0000
0001
0000
0100
0000
0001
0000
,
0100
0000
0000
0100
0000
0000
0100
0010
0100
0010
0000
0000
,
0010
0000
0000
1000
0000
0000
0010
0000
0000
0010
1000
0010
,
1000
1000
2002
3003
,
0220
0000
0000
0330
0000
0000
1000
0000
0000
1000
0010
1000
,
0010
0000
0000
0010
0000
0000
0010
0100
0010
0100
0000
0000
,
0100
0000
0000
0001
0000
0000
0100
0000
0000
0100
0001
0100
,
0001
0000
0001
0000
0001
0100
0010
0000
,
1000
0000
0000
0010
0000
0000
0100
0000
0000
0000
0000
0000
0001
0000
0000
0000
0000
0000
0001
0000
0010
0000
0001
0000
,
0010
0000
0000
0010
0000
0000
0010
0100
0010
0100
0000
0000
,
0100
0000
0000
1000
0000
0000
0100
0000
0000
0100
1000
0100
,
1000
1000
1001
0110
,
1000
0100
0010
0001
1000
0100
1000
0000
,
0001
0100
0001
0000
1000
0100
0010
0000
,
0001
0010
0100
0000
1000
0010
1000
0000
,
0001
0010
0001
0000
1000
0010
0100
0000
,
0001
0100
0010
0000
1000
0100
1000
0000
,
0001
0010
0001
0000
1000
0100
0010
0000
,
0001
0100
0010
0000
1000
0010
1000
0000
,
0001
0100
0001
0000
1000
0010
0100
0000
,
0001
0000
0000
0010
0000
0000
0100
0000
0000
0000
0000
0000
2002
0000
0000
3003
0000
0000
1000
0000
0100
0000
0010
0000
,
0001
0010
0100
2000
0000
0000
3001
0010
0100
1000
0100
0010
,
0002
0000
0000
1003
0100
0010
0002
0000
0000
1003
0010
0100
,
0001
0100
0010
2000
0000
0000
3001
0100
0010
1000
0010
0100
,
0001
0000
0010
0000
0100
0000
2000
0000
0000
3000
0000
0000
2000
0000
0000
3000
0000
0000
1000
0000
0100
0000
0010
0000
,
0100
1000
0100
0020
0000
0000
0031
0010
0100
0010
0001
0010
,
0200
0000
0000
0300
0000
0000
0200
0000
0000
0300
0000
0000
0200
0000
0000
0000
0000
0000
1300
0000
0010
0000
0100
0000
,
0002
0000
0000
0003
0000
0000
0001
0000
0010
0000
0100
0000
0010
0000
0001
0000
0010
0000
0100
0000
1000
0000
0100
0000
,
0010
0100
1000
0100
0010
0001
1000
0000
0000
1000
0001
1000
,
0001
0000
0000
0000
0000
0000
2002
0000
0000
3003
0000
0000
0110
0000
0000
0000
0000
0000
0100
0000
0010
0000
0100
0000
,
0010
0000
0220
0330
1001
0000
2002
3003
,
1001
0000
2002
3003
1000
1000
0001
0001
,
1000
0100
0010
0001
1000
0100
0010
0100
,
1000
0100
0010
0001
0010
0100
0010
0001
,
1000
0010
0100
0001
1000
0010
0100
0010
,
1000
0010
0100
0001
0100
0010
0100
0001
,
1000
0100
0010
0001
1000
0100
0010
0100
,
1000
0010
0100
0001
0010
0100
0010
0001
,
1000
0100
0010
0001
1000
0010
0100
0010
,
1000
0100
0010
0001
0100
0010
0100
0001
,
2002
3003
2002
0000
0000
0000
0000
0000
,
0000
0000
0000
0000
,
0000
0000
0000
0000
,
0000
0000
0000
0000
,
0000
0000
0000
0000
,
0000
0000
0000
0000
,
0000
0000
0000
0000
,
0000
0000
0000
0000
,
0000
0000
0000
0000
,
0000
0000
0000
0000
,
0000
0000
0000
0000
,
0000
0000
0000
0000
,
0000
0000
0000
0000
,
0000
0000
0000
0000
,
0000
0000
0000
0000
,
0000
0000
0000
0000
,
0000
0000
0000
0000
,
0000
0000
0000
0000
,
0000
0000
0000
0000
,
0000
0000
0000
0000
,
0000
0000
0000
0000
,
0000
0000
0000
0000
,
0000
0000
0000
0000
,
0000
0000
0000
0000
,
0000
0000
0000
0000
,
0000
0000
0000
0000
,
0000
0000
0000
0000
,
0000
0000
0000
0000
,
0000
0000
0000
0000
,
0000
0000
0000
0000
,
0000
0000
0000
0000
,
0000
0000
0000
0000
,
0000
0000
0000
0000
,
0000
0000
0000
0000
,
0000
0000
0000
0000
,
0000
0000
0000
0000
,
3003
0000
0000
0000
0000
0000
1001
0000
0000
1000
0100
1000
0100
0000
0000
0100
0000
0000
0100
0010
0100
0010
0000
0000
,
0010
0000
0000
0000
0000
0000
0001
0000
0000
0000
0000
0000
0010
0000
0000
0000
0000
0000
0010
0000
0001
0000
0010
0000
0001
0000
0000
0000
0000
0000
0001
0000
0000
0000
0000
0000
0001
0000
0000
0010
0000
0000
0100
0000
0000
0000
0000
0000
,
1000
0000
0000
0100
0000
0000
0010
0000
0000
0000
0000
0000
0001
0000
0000
0000
0000
0000
0001
0000
0100
0000
0001
0000
0100
0000
0000
0000
0000
0000
0100
0000
0000
0000
0000
0000
0100
0000
0010
0000
0100
0000
0010
0000
0000
0000
0000
0000
,
0010
0000
0000
1000
0000
0000
0010
0000
0000
0010
1000
0010
1000
0000
0000
1000
0000
0000
1000
0000
0000
0001
0000
0000
,
2002
0000
0000
3003
0000
0000
1001
0000
0000
1000
0010
1000
0010
0000
0000
0010
0000
0000
0010
0100
0010
0100
0000
0000
,
0100
0000
0000
0000
0000
0000
0001
0000
0000
0000
0000
0000
0100
0000
0000
0000
0000
0000
0100
0000
0001
0000
0100
0000
0001
0000
0000
0000
0000
0000
0001
0000
0000
0000
0000
0000
0001
0000
0000
0100
0000
0000
0010
0000
0000
0000
0000
0000
,
1000
0000
0000
0010
0000
0000
0100
0000
0000
0000
0000
0000
0001
0000
0000
0000
0000
0000
0001
0000
0010
0000
0001
0000
0010
0000
0000
0000
0000
0000
0010
0000
0000
0000
0000
0000
0010
0000
0100
0000
0010
0000
0100
0000
0000
0000
0000
0000
,
0100
0000
0000
1000
0000
0000
0100
0000
0000
0100
1000
0100
1000
0000
0000
1000
0000
0000
1000
0000
0000
0001
0000
0000
,
2002
0000
0000
3003
0000
0000
1001
0000
0000
1000
0100
1000
0100
0000
0000
0100
0000
0000
0100
0001
0100
0001
0000
0000
,
0001
0000
0000
0000
0000
0000
1000
0000
0000
0000
0000
0000
0001
0000
0000
0000
0000
0000
0001
0000
1000
0000
0001
0000
1000
0000
0000
0000
0000
0000
1000
0000
0000
0000
0000
0000
1000
0000
0000
0100
0000
0000
0010
0000
0000
0000
0000
0000
,
0001
0000
0000
0100
0000
0000
0010
0000
0000
0000
0000
0000
1001
0000
0000
0000
0000
0000
1000
0000
0010
0000
1000
0000
0010
0000
0000
0000
0000
0000
0010
0000
0000
0000
0000
0000
0010
0000
0001
0000
0010
0000
0001
0000
0000
0000
0000
0000
,
0001
0000
0000
1000
0000
0000
0001
0000
0000
0001
1000
0001
1000
0000
0000
1000
0000
0000
1000
0000
0000
0001
0000
0000
,
2002
0000
0000
3003
0000
0000
1001
0000
0000
0001
0100
0001
0100
0000
0000
0100
0000
0000
0100
1000
0100
1000
0000
0000
,
1000
0000
0000
0000
0000
0000
0001
0000
0000
0000
0000
0000
0010
0000
0000
0000
0000
0000
0010
0000
0100
0000
0010
0000
0100
0000
0000
0000
0000
0000
1000
0000
0000
0000
0000
0000
1000
0000
0000
0010
0000
0000
0100
0000
0000
0000
0000
0000
,
0001
0000
0000
0010
0000
0000
0100
0000
0000
0000
0000
0000
1001
0000
0000
0000
0000
0000
0001
0000
0010
0000
0001
0000
0010
0000
0000
0000
0000
0000
0010
0000
0000
0000
0000
0000
0010
0000
1000
0000
0010
0000
1000
0000
0000
0000
0000
0000
,
1000
0000
0000
0001
0000
0000
0100
0000
0000
0100
0010
0100
0010
0000
0000
0010
0000
0000
0001
0000
0000
1000
0000
0000
,
2002
0000
3003
2002
,
3003
2002
3003
2002
,
3003
0000
2002
3003
2002
3003
2002
0000
,
3003
2002
3003
2002
,
3003
0000
2002
3003
2002
3003
2002
0000
,
3003
0000
2002
3003
2002
3003
2002
0000
,
3003
0000
2002
3003
0000
0000
2002
0000
,
3003
2002
3003
0000
,
0000
0000
0000
0000
,
0000
0000
0000
0000
,
0000
0000
0000
0000
,
0000
0000
0000
2002
,
0000
0000
0000
3003
;

//--------------- dance-single - ----------------
#NOTES:
     dance-single:
     :
     Hard:
     13:
     0,0,0,0,0:
0000
0000
0000
0000
,
0000
0000
0000
0000
,
0000
0000
2000
3200
,
0320
0000
0032
0000
0103
0010
1000
1000
,
0010
0100
0001
0001
2000
0000
3020
0000
,
0230
0000
0302
0000
0013
0100
1000
1000
,
0100
0000
0000
0010
0000
0000
0001
0000
0000
0001
0000
0000
0110
0000
0000
0000
0000
0000
1000
0000
0100
0000
0010
0000
,
0001
0000
0000
0000
0000
0000
2002
0000
0000
3003
0000
0000
0110
0000
0000
0000
0000
0000
0001
0000
0010
0000
0100
0000
,
1000
0000
2002
3003
0110
0000
2002
3003
,
0110
0000
2002
3003
1100
0101
0011
1010
,
1001
0000
0000
0000
0000
0000
0110
0000
0000
0000
0000
0000
1000
0000
0000
0100
0000
0000
0001
0000
0000
0010
0000
0000
1001
0000
0000
0000
0000
0000
0000
0000
0000
0000
0000
0000
1000
0000
0000
0000
0010
0000
0000
0000
1000
0000
0000
0000
,
0010
0000
0000
0110
0000
0000
0001
0010
0001
0010
0000
0000
,
1000
0000
0000
0100
0000
0000
0001
0000
0000
0100
0000
0000
1000
0000
0000
0000
0000
0000
1000
0000
0100
0000
0010
0000
,
0001
0000
0110
0000
0001
0010
0100
0000
,
1000
0000
0000
0010
0000
0000
0100
0000
0000
0001
0000
0000
1001
0000
0000
0000
0000
0000
1000
0000
0100
0000
1000
0000
,
0100
0000
0000
0110
0000
0000
0001
0100
0001
0100
0000
0000
,
0001
0000
0000
0100
0000
0000
0010
0000
0000
1000
0000
0000
0001
0000
0000
0000
0000
0000
1000
0000
0100
0000
0010
0000
,
0001
1000
0220
0330
,
2002
0000
0000
3003
0000
0000
1001
0000
0000
0100
0010
0001
,
0100
0000
0000
0110
0000
0000
0010
0100
1000
0010
0000
0000
,
1000
0000
0000
0010
0000
0000
0001
0000
0000
0100
0000
0000
1000
0000
0000
0000
0000
0000
0001
0000
0100
0000
0010
0000
,
1000
0000
0110
0000
1000
0010
0100
0000
,
0001
0000
0000
0100
0000
0000
0010
0000
0000
1000
0000
0000
0001
0000
0000
0000
0000
0000
0010
0000
1000
0000
0100
0000
,
0001
0000
0000
0110
0000
0000
0100
0001
0010
1000
0000
0000
,
0001
0000
0000
0010
0000
0000
1000
0000
0000
0100
0000
0000
0001
0000
0000
0000
0000
0000
0100
0000
0001
0000
1000
0000
,
0100
0000
0110
0000
1100
1100
0101
0101
,
1000
0100
0010
0001
0010
0100
1000
0001
1000
0000
0100
0000
0010
0000
0001
0000
,
1000
0000
0010
0000
0100
0000
0001
0000
1000
0100
1000
0000
0001
0100
0001
0000
,
1000
0010
1000
0000
0001
0010
0001
0000
1000
0000
0010
0000
0100
0000
0001
0000
,
1000
0000
0100
0000
0010
0000
0001
0000
1000
0010
1000
0000
0001
0010
0001
0000
,
1000
0100
1000
0000
0001
0100
0001
0000
1000
0100
0010
0000
0001
0010
0100
0000
,
1000
0010
0100
0000
0001
0100
0010
0000
1000
0100
0010
0100
1000
0100
0010
0000
,
0001
0010
0100
0010
0001
0010
0100
0000
1001
0000
0100
0010
0100
0000
0010
0000
,
1001
0000
0010
0100
0010
0000
0100
0000
1001
0000
1000
0100
0010
0000
0001
0010
,
0100
0000
0000
0000
0000
0000
0100
0000
0000
0000
0000
0000
1000
0000
0000
0100
0000
0000
0010
0000
0000
0001
0000
0000
2002
0000
0000
0000
0000
0000
3003
0000
0000
0000
0000
0000
1000
0000
0000
0000
0100
0000
0000
0000
0010
0000
0000
0000
,
1000
0000
0100
0000
0010
0000
0220
0000
0000
0330
0000
0000
0001
0000
0010
0000
0100
0000
0001
0000
0010
0000
0100
0000
,
0220
0000
0000
0330
0000
0000
1000
0000
0010
0000
0001
0000
0202
0000
0000
0303
0000
0000
1000
0000
0010
0000
0100
0000
,
1000
0000
0010
0000
0100
0000
2020
0000
0000
3030
0000
0000
0001
0000
0100
0000
0010
0000
0001
0000
0100
0000
0010
0000
,
0001
0000
0100
0000
0010
0000
0202
0000
0000
0303
0000
0000
2002
0000
0000
3003
0000
0000
0100
0000
0001
0000
0010
0000
,
1000
0000
0010
0000
0001
0000
2200
0000
0000
3300
0000
0000
0010
0000
1000
0000
0100
0000
0001
0000
0100
0000
1000
0000
,
0022
0000
0000
0033
0000
0000
0220
0000
0000
0330
0000
0000
2002
0000
0000
3003
0000
0000
1000
0000
0010
0000
0100
0000
,
2200
0000
0000
3300
0000
0000
1000
0000
0100
0000
0010
0000
1000
0000
0100
0000
0001
0000
1000
0000
0010
0000
0001
0000
,
0100
0010
0001
1000
0100
0001
0110
0000
0000
0001
0010
0100
,
1000
0000
0000
0000
0000
0000
2002
0000
0000
3003
0000
0000
0110
0000
0000
0000
0000
0000
1000
0000
0100
0000
0010
0000
,
0001
0000
2002
3003
0110
0000
2002
3003
,
0110
0000
2002
3003
1100
0101
0011
1010
,
1001
0000
0110
0000
1000
0100
0010
0001
1000
0100
1000
0001
1000
0010
1000
0001
,
1000
0100
1000
0010
1000
0001
1000
0100
0010
0001
0010
0100
0010
1000
0010
0100
,
0010
0001
0010
1000
0010
0100
0010
0001
0100
1000
0100
0010
0100
0001
0100
0010
,
0100
1000
0100
0001
0100
0010
0100
1000
0001
0010
0001
1000
0001
0100
0001
1000
,
0001
0010
0001
0100
0001
1000
0001
0010
1000
0100
1000
0010
0100
0001
0010
0100
,
0010
0001
0100
0010
1000
0100
0010
0100
1000
0010
0100
0010
1000
0100
0010
0001
,
0100
0010
0100
0001
0010
0100
1000
0010
0100
0010
1000
0100
1000
0010
0100
0001
,
0010
1000
0010
0001
0100
0010
1000
0100
1000
0010
0100
0001
0010
0100
1000
0001
,
2002
3003
2002
0000
0000
0000
0000
0000
,
0000
0000
0000
0000
,
0000
0000
0000
0000
,
0000
0000
0000
0000
,
0000
0000
0000
0000
,
0000
0000
0000
0000
,
0000
0000
0000
0000
,
0000
0000
0000
0000
,
0000
0000
0000
0000
,
0000
0000
0000
0000
,
0000
0000
0000
0000
,
0000
0000
0000
0000
,
0000
0000
0000
0000
,
0000
0000
0000
0000
,
0000
0000
0000
0000
,
0000
0000
0000
0000
,
0000
0000
0000
0000
,
0000
0000
0000
0000
,
0000
0000
0000
0000
,
0000
0000
0000
0000
,
0000
0000
0000
0000
,
0000
0000
0000
0000
,
0000
0000
0000
0000
,
0000
0000
0000
0000
,
0000
0000
0000
0000
,
0000
0000
0000
0000
,
0000
0000
0000
0000
,
0000
0000
0000
0000
,
0000
0000
0000
0000
,
0000
0000
0000
0000
,
0000
0000
0000
0000
,
0000
0000
0000
0000
,
0000
0000
0000
0000
,
0000
0000
0000
0000
,
0000
0000
0000
0000
,
0000
0000
0000
0000
,
3003
0000
0000
0000
0000
0000
1001
0000
0000
1000
0010
1000
0010
0000
0000
0110
0000
0000
0001
0010
0001
0010
0000
0000
,
1000
0000
0000
0100
0000
0000
0001
0000
0000
0100
0000
0000
1000
0000
0000
0000
0000
0000
1000
0000
0100
0000
0010
0000
0001
0000
0000
0000
0000
0000
0110
0000
0000
0000
0000
0000
0001
0000
0000
0010
0000
0000
0100
0000
0000
0000
0000
0000
,
1000
0000
0000
0010
0000
0000
0100
0000
0000
0001
0000
0000
1001
0000
0000
0000
0000
0000
1000
0000
0100
0000
1000
0000
0100
0000
0000
0000
0000
0000
0110
0000
0000
0000
0000
0000
0001
0000
0100
0000
0001
0000
0100
0000
0000
0000
0000
0000
,
0001
0000
0000
0100
0000
0000
0010
0000
0000
1000
0000
0000
0001
0000
0000
0000
0000
0000
1000
0000
0100
0000
0010
0000
0001
0000
0000
0000
0000
0000
1000
0000
0000
0000
0000
0000
0110
0000
0000
0000
0000
0000
0000
0000
0000
0000
0000
0000
,
2002
0000
0000
3003
0000
0000
1001
0000
0000
0100
0010
0001
0100
0000
0000
0110
0000
0000
0010
0100
1000
0010
0000
0000
,
1000
0000
0000
0010
0000
0000
0001
0000
0000
0100
0000
0000
1000
0000
0000
0000
0000
0000
0001
0000
0100
0000
0010
0000
1000
0000
0000
0000
0000
0000
0110
0000
0000
0000
0000
0000
1000
0000
0000
0010
0000
0000
0100
0000
0000
0000
0000
0000
,
0001
0000
0000
0100
0000
0000
0010
0000
0000
1000
0000
0000
0001
0000
0000
0000
0000
0000
0010
0000
1000
0000
0100
0000
0001
0000
0000
0000
0000
0000
0110
0000
0000
0000
0000
0000
0100
0000
0001
0000
0010
0000
1000
0000
0000
0000
0000
0000
,
0001
0000
0000
0010
0000
0000
1000
0000
0000
0100
0000
0000
0001
0000
0000
0000
0000
0000
0100
0000
0001
0000
1000
0000
0100
0000
0000
0000
0000
0000
0110
0000
0000
0000
0000
0000
1100
0000
0000
0000
0000
0000
0101
0000
0000
0000
0000
0000
,
2002
0000
0000
3003
0000
0000
1001
0000
0000
1000
0010
0001
0100
0000
0000
0110
0000
0000
0100
0001
0010
1000
0000
0000
,
1000
0000
0100
0000
0010
0000
0001
0000
0010
0000
0100
0000
1000
0000
0000
0000
0000
0000
0001
0000
0010
0000
0100
0000
1000
0000
0000
0000
0000
0000
0110
0000
0000
0000
0000
0000
1000
0000
0000
0010
0000
0000
0100
0000
0000
0000
0000
0000
,
0001
0000
0000
0010
0000
0000
0100
0000
0000
1000
0000
0000
1001
0000
0000
0000
0000
0000
1000
0000
0100
0000
0001
0000
0010
0000
0000
0000
0000
0000
0110
0000
0000
0000
0000
0000
0010
0000
0001
0000
0100
0000
1000
0000
0000
0000
0000
0000
,
1000
0010
0100
0001
0100
0010
1000
0000
0000
0001
0100
0010
1000
0000
0000
0110
0000
0000
1001
0000
0000
0000
0000
0000
,
2002
0000
0000
3003
0000
0000
1001
0000
0000
0001
0100
1000
0010
0000
0000
0110
0000
0000
0010
1000
0100
0001
0000
0000
,
0001
0000
0010
0000
0100
0000
1000
0000
0100
0000
0010
0000
0001
0000
0000
0000
0000
0000
1000
0000
0100
0000
0010
0000
0001
0000
0000
0000
0000
0000
0110
0000
0000
0000
0000
0000
0001
0000
0000
0100
0000
0000
0010
0000
0000
0000
0000
0000
,
1000
0000
0000
0100
0000
0000
0010
0000
0000
0001
0000
0000
1001
0000
0000
0000
0000
0000
0001
0000
0010
0000
1000
0000
0100
0000
0000
0000
0000
0000
0110
0000
0000
0000
0000
0000
0100
0000
1000
0000
0010
0000
0001
0000
0000
0000
0000
0000
,
0001
0100
0010
1000
0010
0100
0001
0000
0000
1000
0010
0100
0001
0000
0000
0110
0000
0000
1001
0000
0000
0000
0000
0000
,
2002
0000
3003
1001
,
0010
1001
0010
1001
,
0010
0000
2002
3003
2002
3003
1001
0000
,
0100
1001
0100
1001
,
0100
0000
2002
3003
2002
3003
1100
0000
,
0001
0000
0220
0330
0220
0330
0101
0000
,
1000
0000
0220
0330
0220
0330
1010
0000
,
0011
0101
1100
0000
,
0000
0000
0000
0000
,
0000
0000
0000
0000
,
0000
0000
0000
0000
,
0000
0000
0000
2002
,
0000
0000
0000
3003
;

//--------------- dance-single - ----------------
#NOTES:
     dance-single:
     :
     Challenge:
     14:
     0,0,0,0,0:
0000
0000
0000
0000
,
0000
0000
0000
0000
,
0000
0000
0000
0000
1000
0100
0010
0001
,
1000
0010
0100
0001
1000
0010
0001
0100
,
1000
0100
0001
0010
1000
0010
0100
0001
,
1000
0100
0010
0001
1000
0100
0001
0010
,
1000
0000
0000
0010
0000
0000
0001
0000
0000
0100
0000
0000
1000
0000
0000
0000
0000
0000
1000
0000
0100
0000
0010
0000
,
0001
0000
0000
0000
0000
0000
2002
0000
0000
3003
0000
0000
0110
0000
0000
0000
0000
0000
0001
0000
0010
0000
0100
0000
,
1000
0000
2002
3003
0110
0000
2002
3003
,
0110
0000
2002
3003
0110
0110
1001
1001
,
1000
0000
0000
0100
0000
0000
0001
0000
0000
0010
0000
0000
0100
0000
0000
1000
0000
0000
0010
0000
0000
0001
0000
0000
1001
0000
0000
0000
0000
0000
0000
0000
0000
0000
0000
0000
0100
0000
0000
0000
1000
0000
0000
0000
0001
0000
0000
0000
,
0100
0000
0000
1001
0000
0000
0010
0001
1000
0010
0000
0000
,
1000
0000
0000
0100
0000
0000
0010
0000
0000
0001
0000
0000
1001
0000
0000
0000
0000
0000
1000
0000
0010
0000
0001
0000
,
0100
0000
1001
0000
0001
0010
0100
0000
,
1000
0000
0000
0000
0000
0000
0010
0000
0000
0000
0000
0000
0100
0000
0000
0000
0000
0000
0001
0000
0000
1000
0000
0000
1001
0000
0000
0000
0000
0000
0000
0000
0000
0000
0000
0000
0100
0000
0000
0000
0001
0000
0000
0000
1000
0000
0000
0000
,
0100
0000
0000
1001
0000
0000
0010
1000
0001
0010
0000
0000
,
1000
0000
0000
0010
0000
0000
0100
0000
0000
0001
0000
0000
1001
0000
0000
0000
0000
0000
0001
0000
0100
0000
1000
0000
,
0010
1001
2200
3300
,
2002
0000
0000
0000
0000
0000
3003
0000
0000
0000
0000
0000
1100
0000
0000
1000
0000
0000
0100
0000
1000
0000
0001
0000
,
0100
0000
0000
0010
0000
0000
0011
0000
0000
0001
0000
0000
0010
0000
0001
0000
1000
0000
0010
0000
0000
0100
0000
0000
,
1000
0000
0000
0010
0000
0000
0100
0000
0000
0001
0000
0000
1010
0000
0000
1000
0000
0000
0010
0000
1000
0000
0001
0000
,
0010
0100
0101
0001
1000
0100
0010
0000
,
0001
0000
0000
0000
0000
0000
0100
0000
0000
0000
0000
0000
0010
0000
0000
0000
0000
0000
1000
0000
0000
0001
0000
0000
0101
0000
0000
0000
0000
0000
0001
0000
0000
0000
0000
0000
0100
0000
0000
0000
0001
0000
0000
0000
1000
0000
0000
0000
,
0100
0000
0000
0010
0000
0000
1010
0000
0000
1000
0000
0000
0010
0000
1000
0000
0001
0000
0010
0000
0000
0100
0000
0000
,
1000
0000
0000
0000
0000
0000
0100
0000
0000
0010
0000
0000
0100
0000
0000
0000
0000
0000
0010
0000
0000
0000
0000
0000
0011
0000
0000
0000
0000
0000
0010
0000
0000
0000
0000
0000
0001
0000
0000
0000
0010
0000
0000
0000
0100
0000
0000
0000
,
1000
0001
1001
1000
1100
0101
0011
1010
,
1000
0010
0001
0100
0010
1000
0100
0001
1000
0100
1000
0100
1000
0100
0010
0000
,
0001
0100
0001
0100
0001
0100
0010
0000
1000
0100
0010
0000
0001
0100
0010
0000
,
1000
0100
0010
0000
0001
0100
0010
0000
1000
0010
1000
0010
1000
0010
0100
0000
,
0001
0010
0001
0010
0001
0010
0100
0000
1000
0100
0010
0000
0001
0100
0010
0000
,
1000
0100
0010
0000
0001
0100
0010
0000
1000
0100
0010
0100
1000
0000
1000
0000
,
0001
0100
0010
0100
0001
0000
0001
0000
1000
0100
0010
0001
0100
0010
1000
0001
,
1000
0000
0010
0000
0100
0000
0001
0000
1000
0010
0100
0010
1000
0000
1000
0000
,
0001
0010
0100
0010
0001
0000
0001
0000
1000
0000
0010
0100
0010
0000
0100
0010
,
1000
0000
0000
0000
0000
0000
0001
0000
0000
0000
0000
0000
1000
0000
0000
0100
0000
0000
0010
0000
0000
0001
0000
0000
1001
0000
0000
0000
0000
0000
0000
0000
0000
0000
0000
0000
1000
0000
0000
0000
0100
0000
0000
0000
0010
0000
0000
0000
,
1000
0100
0010
0011
0000
0000
0001
0100
0010
0001
0100
0010
,
1010
0000
0000
1000
0100
0010
1001
0000
0000
1000
0100
0001
,
0010
1000
0010
0011
0000
0000
1000
0010
0100
0010
0001
0100
,
0010
0100
1000
1100
0000
0000
0110
0000
0000
0010
0001
0100
,
0010
0001
0100
1100
0000
0000
0100
1000
0010
0100
1000
0010
,
0011
0000
0000
0110
0000
0000
1001
0000
0000
1000
0010
0100
,
1100
0000
0000
0100
0010
0001
0100
0001
0010
1000
0100
0001
,
0010
0100
1000
0010
0001
0100
1001
0000
0000
1000
0100
0100
,
0001
0000
0000
0000
0000
0000
2002
0000
0000
3003
0000
0000
0110
0000
0000
0000
0000
0000
0001
0000
0010
0000
0010
0000
,
1000
0000
2002
3003
0110
0000
2002
3003
,
0110
0000
2002
3003
1100
1010
0011
0101
,
1001
0000
0110
0000
1000
0100
0010
0001
1000
0100
1000
0001
0100
0010
1000
0001
,
0100
0001
1000
0100
0010
0100
1000
0001
0100
0010
0100
0001
1000
0100
0010
0001
,
1000
0100
0001
0010
1000
0010
0001
0100
1000
0010
1000
0001
0010
0100
1000
0001
,
0010
0001
1000
0010
0100
0010
1000
0001
0010
0100
0010
0001
1000
0010
0100
0001
,
1000
0010
0001
0100
1000
0100
0001
0010
1000
0100
0010
0100
1000
0001
0100
0001
,
1000
0100
0010
0001
1000
0100
1000
0001
0100
0010
0100
0001
0100
0010
1000
0001
,
1000
0100
0001
0010
1000
0010
0001
0100
1000
0010
0100
0010
0001
0010
0100
0010
,
1000
0100
0010
0100
0001
0100
0010
0100
1000
0010
0100
0001
1000
0100
0010
0001
,
2002
3003
2002
0000
0000
0000
0000
0000
,
0000
0000
0000
0000
,
0000
0000
0000
0000
,
0000
0000
0000
0000
,
0000
0000
0000
0000
,
0000
0000
0000
0000
,
0000
0000
0000
0000
,
0000
0000
0000
0000
,
0000
0000
0000
0000
,
0000
0000
0000
0000
,
0000
0000
0000
0000
,
0000
0000
0000
0000
,
0000
0000
0000
0000
,
0000
0000
0000
0000
,
0000
0000
0000
0000
,
0000
0000
0000
0000
,
0000
0000
0000
0000
,
0000
0000
0000
0000
,
0000
0000
0000
0000
,
0000
0000
0000
0000
,
0000
0000
0000
0000
,
0000
0000
0000
0000
,
0000
0000
0000
0000
,
0000
0000
0000
0000
,
0000
0000
0000
0000
,
0000
0000
0000
0000
,
0000
0000
0000
0000
,
0000
0000
0000
0000
,
0000
0000
0000
0000
,
0000
0000
0000
0000
,
0000
0000
0000
0000
,
0000
0000
0000
0000
,
0000
0000
0000
0000
,
0000
0000
0000
0000
,
0000
0000
0000
0000
,
0000
0000
0000
0000
,
3003
0000
0000
0000
0000
0000
1001
0000
0000
0100
0010
0100
0010
0000
0000
0001
0000
0000
0100
0010
0100
0010
0000
0000
,
1000
0000
0000
0010
0000
0000
0100
0000
0000
0001
0000
0000
1000
0000
0000
0000
0000
0000
1000
0000
0010
0000
1000
0000
0100
0000
0000
0000
0000
0000
0001
0000
0000
0000
0000
0000
0001
0000
0100
0000
0001
0000
0010
0000
0000
0000
0000
0000
,
1000
0000
0000
0010
0000
0000
0001
0000
0000
0010
0000
0000
1000
0000
0000
0000
0000
0000
0100
0000
0001
0000
1000
0000
0100
0000
0000
0000
0000
0000
0010
0000
0000
0000
0000
0000
0010
0000
0001
0000
1000
0000
0010
0000
0000
0000
0000
0000
,
1000
0000
0000
0100
0000
0000
0001
0000
0000
0100
0000
0000
1000
0000
0000
0000
0000
0000
0010
0000
0001
0000
0100
0000
1000
0000
0000
0000
0000
0000
0100
0000
0000
0000
0000
0000
0010
0000
0000
0000
0000
0000
0001
0000
0000
0000
0000
0000
,
2002
0000
0000
3003
0000
0000
1001
0000
0000
0100
0001
0010
1000
0000
0000
0100
0000
0000
0010
1000
0100
0001
0000
0000
,
0010
0000
0000
0100
0000
0000
1000
0000
0000
0010
0000
0000
0001
0000
0000
0000
0000
0000
0100
0000
0010
0000
0001
0000
1000
0000
0000
0000
0000
0000
0100
0000
0000
0000
0000
0000
0010
0000
0001
0000
0100
0000
1000
0000
0000
0000
0000
0000
,
0100
0000
0000
0010
0000
0000
0100
0000
0000
0010
0000
0000
1000
0000
0000
0000
0000
0000
0100
0000
0010
0000
0001
0000
0010
0000
0000
0000
0000
0000
0010
0000
0000
0000
0000
0000
1000
0000
0010
0000
0100
0000
0010
0000
0000
0000
0000
0000
,
1000
0000
0000
0010
0000
0000
0100
0000
0000
0010
0000
0000
1000
0000
0000
0000
0000
0000
1000
0000
0100
0000
0010
0000
0001
0000
0000
0000
0000
0000
1000
0000
0000
0000
0000
0000
0001
0000
0000
0000
0000
0000
1000
0000
0000
0001
0000
0000
,
2002
0000
0000
0000
0000
0000
3003
0000
0000
0000
0000
0000
1001
0000
0000
0000
0000
0000
1000
0000
0100
0000
0010
0000
0001
0000
0000
0010
0000
0000
0100
0000
0000
0010
0000
0000
0001
0000
0010
0000
0100
0000
1000
0000
0000
0010
0000
0000
,
0100
0000
0000
0010
0000
0000
1000
0000
0000
0100
0000
0000
0010
0000
0000
0001
0000
0000
1000
0000
0010
0000
0100
0000
0001
0000
0000
0100
0000
0000
0010
0000
0000
0100
0000
0000
0001
0000
0100
0000
0010
0000
1000
0000
0000
0100
0000
0000
,
0010
0000
0000
0100
0000
0000
1000
0000
0000
0010
0000
0000
0100
0000
0000
0001
0000
0000
1000
0000
0100
0000
0010
0000
0100
0000
0000
1000
0000
0000
0010
0000
0000
1000
0000
0000
0010
0000
0100
0000
0010
0000
1000
0000
0000
0100
0000
0000
,
0010
0000
0000
0001
0000
0000
0100
0000
0000
0010
0000
0000
1000
0000
0000
0100
0000
0000
0001
0000
0100
0000
1000
0000
0010
0000
0000
0001
0000
0000
0010
0000
0000
1000
0000
0000
0001
0000
0000
0000
0000
0000
1000
0000
0000
0000
0000
0000
,
2002
0000
0000
0000
0000
0000
3003
0000
0000
0000
0000
0000
1001
0000
0000
0000
0000
0000
1000
0000
0100
0000
0010
0000
0001
0000
0000
0100
0000
0000
0010
0000
0000
0100
0000
0000
0001
0000
0010
0000
0100
0000
1000
0000
0000
0001
0000
0000
,
1000
0000
0100
0000
0010
0000
0001
0000
0010
0000
0100
0000
1000
0000
0000
0001
0000
0000
1000
0000
0010
0000
0100
0000
0001
0000
0000
0010
0000
0000
0100
0000
0000
0010
0000
0000
0001
0000
0100
0000
0010
0000
1000
0000
0000
0001
0000
0000
,
1000
0000
0010
0000
0100
0000
0001
0000
0100
0000
0010
0000
1000
0000
0000
0001
0000
0000
1000
0000
0100
0000
0010
0000
0100
0000
0000
1000
0000
0000
0010
0000
0000
0100
0000
0000
0010
0000
1000
0000
0100
0000
0010
0000
0000
0001
0000
0000
,
1000
0000
0100
0000
0010
0000
0001
0000
0100
0000
0010
0000
1000
0000
0000
0001
0000
0000
1000
0000
0100
0000
0010
0000
0001
0000
0000
0010
0000
0000
0100
0000
0000
1000
0000
0000
0100
0000
0000
0010
0000
0000
0001
0000
0000
1000
0000
0000
,
2002
3003
0000
1001
,
0010
0101
0010
1100
,
0010
1001
1001
1001
,
0100
1010
0100
0011
,
0100
1001
1001
1010
,
0011
1001
1001
0101
,
1100
0000
0000
0000
1001
0000
0000
0000
1000
0100
0010
0000
0011
0000
0000
0000
,
1010
1100
0101
0000
,
0000
0000
0000
0000
,
0000
0000
0000
0000
,
0000
0000
0000
0000
,
0000
0000
0000
2002
,
0000
0000
0000
3003
;
