#TITLE:Gun Rock;
#SUBTITLE:;
#ARTIST:Banya;
#TITLETRANSLIT:;
#SUBTITLETRANSLIT:;
#ARTISTTRANSLIT:;
#GENRE:;
#CREDIT:;
#MUSIC:Gun Rock.ogg;
#BANNER:Gun Rock-bn.png;
#BACKGROUND:Gun Rock-bg.png;
#CDTITLE:;
#SAMPLESTART:3.738;
#SAMPLELENGTH:18.458;
#SELECTABLE:YES;
#OFFSET:-0.277;
#BPMS:0.000=104.022;
#STOPS:;
#BGCHANGES:;
#FGCHANGES:;

//--------------- dance-single - ----------------
#NOTES:
     dance-single:
     :
     Beginner:
     5:
     0,0,0,0,0:
0000
0000
0000
0000
,
0000
0000
1000
0100
,
1000
0000
0000
0000
0100
0000
0000
0000
0010
0000
0000
0001
0000
0100
0000
0010
,
0000
1000
0001
0010
,
0001
0000
0000
0000
0010
0000
0000
0000
0100
0000
0000
1000
0000
0010
0000
0100
,
0000
0001
1000
0010
,
1000
0000
0000
0000
0010
0000
0000
0000
0100
0000
0000
0001
0000
0010
0000
0100
,
0000
1000
0001
0100
,
0001
0000
0000
0000
0100
0000
0000
0000
0010
0000
0000
1000
0000
0100
0000
0010
,
0000
0000
0001
0000
1000
0000
0000
0100
,
0000
0000
0010
0000
0001
0000
0000
0100
,
0000
0000
0010
0000
1000
0000
0000
0001
,
0000
0000
1000
0000
1100
0001
1100
0001
,
1100
0001
1100
0001
1000
0000
0000
0010
,
0000
0000
0100
0000
0001
0000
0000
0010
,
0000
0000
0100
0000
1000
0000
0000
0001
,
0000
0000
1000
0000
1100
0001
1100
0001
,
1100
0001
1100
0001
1000
0000
0100
0000
,
1000
0000
0000
0000
0100
0000
0000
0000
0010
0000
0000
0001
0000
0010
0000
0100
,
0000
1000
0001
0010
,
0001
0000
0000
0000
0010
0000
0000
0000
0100
0000
0000
1000
0000
0100
0000
0010
,
0000
0001
1000
0010
,
1000
0000
0000
0000
0010
0000
0000
0000
0100
0000
0000
0001
0000
0100
0000
0010
,
0000
1000
0001
0100
,
0001
0000
0000
0000
0100
0000
0000
0000
0010
0000
0000
1000
0000
0010
0000
0100
,
0000
0000
0001
0000
1000
0100
1000
0000
,
0010
0000
0100
0000
0001
0010
0001
0000
,
0100
0000
0010
0000
1000
0010
1000
0000
,
0100
0000
0010
0000
0001
0100
0001
0000
,
0010
0000
0100
0000
1000
0010
0100
0000
,
0010
0000
1000
0000
0001
0100
0010
0000
,
0100
0000
0001
0000
1000
0100
0010
0000
,
0001
0000
0100
0000
0001
0010
0100
0000
,
1000
0010
1000
0100
,
0010
0001
0100
0010
,
1000
0001
1000
0010
,
0100
0001
0010
0100
,
1000
0001
1000
0100
,
0010
0100
1000
0010
,
0100
0001
0010
0100
,
0010
0001
0100
0010
,
1000
0000
0001
1000
2002
0000
3003
0000
;

//--------------- dance-single - ----------------
#NOTES:
     dance-single:
     :
     Easy:
     8:
     0,0,0,0,0:
0000
0000
0000
0000
,
0000
0000
0000
0000
1000
0100
1000
0100
,
1000
0000
0100
0000
0000
0000
0010
0000
0001
0000
0000
0100
0000
0010
0000
1000
,
0000
0100
0010
0000
0001
0010
0001
0010
,
0001
0000
0010
0000
0000
0000
0100
0000
1000
0000
0000
0010
0000
0100
0000
0001
,
0000
0010
0100
0000
1000
0010
1000
0010
,
1000
0000
0010
0000
0000
0000
0100
0000
0001
0000
0000
0010
0000
0100
0000
1000
,
0000
0010
0100
0000
0001
0100
0001
0100
,
0001
0000
0100
0000
0000
0000
0010
0000
1000
0000
0000
0100
0000
0010
0000
0001
,
0000
0000
0100
0000
0010
0000
0000
0000
1100
0000
0000
0100
0000
0000
1000
0000
,
0000
0010
0000
0000
0100
0000
0000
0000
0011
0000
0000
0010
0000
0000
0001
0000
,
0000
0100
0000
0000
0010
0000
0000
0000
1001
0000
0000
1000
0000
0000
0010
0000
,
0000
0100
0000
0000
0001
0000
0000
0000
1100
0010
0001
0000
1100
0010
0001
0000
,
1100
0010
0001
0000
1100
0010
0001
0000
1010
0000
0000
0010
0000
0000
1000
0000
,
0000
0100
0000
0000
0010
0000
0000
0000
0101
0000
0000
0100
0000
0000
0001
0000
,
0000
0010
0000
0000
0100
0000
0000
0000
0110
0000
0000
0100
0000
0000
0010
0000
,
0000
1000
0000
0000
0001
0000
0000
0000
1100
0010
0001
0000
1100
0010
0001
0000
,
1100
0010
0001
0000
1100
0010
0001
0000
1000
0000
0100
0000
1000
0000
0100
0000
,
1000
0000
0100
0000
0000
0000
0010
0000
0001
0000
0000
0100
0000
0010
0000
1000
,
0000
0100
0010
0000
0001
0010
0001
0010
,
0001
0000
0010
0000
0000
0000
0100
0000
1000
0000
0000
0010
0000
0100
0000
0001
,
0000
0010
0100
0000
1000
0010
1000
0010
,
1000
0000
0010
0000
0000
0000
0100
0000
0001
0000
0000
0010
0000
0100
0000
1000
,
0000
0010
0100
0000
0001
0100
0001
0100
,
0001
0000
0100
0000
0000
0000
0010
0000
1000
0000
0000
0100
0000
0010
0000
0001
,
0000
0000
0100
0000
0010
0000
0000
0000
1000
0100
1000
0100
1000
0000
0100
0000
,
0010
0000
0001
0000
1000
0000
0000
0000
0001
0010
0001
0010
0001
0000
0010
0000
,
0100
0000
1000
0000
0001
0000
0000
0000
1000
0010
1000
0010
1000
0000
0010
0000
,
0100
0000
0001
0000
0010
0000
0000
0000
0001
0100
0001
0100
0001
0000
0100
0000
,
0010
0000
1000
0000
0100
0000
0000
0000
1000
0010
0100
0010
1000
0000
0100
0000
,
0010
0000
0001
0000
1000
0000
0000
0000
0001
0100
0010
0100
0001
0000
0010
0000
,
0100
0000
1000
0000
0001
0000
0000
0000
1000
0100
0010
0001
0010
0100
1000
0000
,
0001
0000
0000
0000
1000
0000
0000
0000
0001
0010
0100
1000
0100
0010
0001
0000
,
1000
0010
0100
0001
1000
0000
0100
0010
,
0000
0001
0000
0000
0100
0000
0000
0000
0010
0000
0000
0000
1000
0000
0100
0000
,
0000
0010
0000
0000
0001
0000
0000
0000
0100
0000
0000
0010
0000
0000
1000
0000
,
0000
0100
0000
0000
0010
0000
0000
0000
0001
0000
0000
0100
0000
0000
0010
0000
,
0000
1000
0000
0000
0001
0000
1000
0000
1100
0000
0000
0010
0000
0000
1100
0000
,
0000
0001
0000
0000
1100
0000
0000
0000
1010
0000
0000
0001
0000
0000
1010
0000
,
0000
0100
0000
0000
1010
0000
0001
0000
0110
0000
0000
0001
0000
0000
0110
0000
,
0000
1000
0000
0000
0110
0000
0000
0000
1000
0000
0100
0000
0010
0000
0001
0000
,
1000
0010
0100
0001
2002
0000
3003
0000
;

//--------------- dance-single - ----------------
#NOTES:
     dance-single:
     :
     Medium:
     9:
     0,0,0,0,0:
0000
0000
0000
0000
,
0000
0000
0000
0000
1000
0100
1000
0100
,
1000
0000
0100
2000
0000
0000
3020
0000
0130
0000
0000
0001
0000
0010
0000
0100
,
0000
0000
1000
0000
0010
0100
0000
0000
0001
0000
0010
0000
0001
0000
0010
0000
,
0001
0000
0010
0002
0000
0000
0203
0000
0310
0000
0000
1000
0000
0100
0000
0010
,
0000
0000
0001
0000
0100
0010
0000
0000
1000
0000
0010
0000
1000
0000
0010
0000
,
1000
0000
0010
2000
0000
0000
3200
0000
0310
0000
0000
0001
0000
0100
0000
0010
,
0000
0000
1000
0000
0100
0010
0000
0000
0001
0000
0100
0000
0001
0000
0100
0000
,
0001
0000
0100
0002
0000
0000
0023
0000
0130
0000
0000
1000
0000
0010
0000
0100
,
0000
0000
0001
0000
0010
0100
0000
0000
1100
0000
0000
0100
0000
0000
1000
0000
,
0010
0100
0000
0001
0010
0100
1000
0000
0011
0000
0000
0010
0000
0000
0001
0000
,
0100
0010
1000
0000
0100
0000
0010
0001
1010
0000
0000
0010
0000
1000
0100
0000
,
0010
0001
0100
0010
1000
0000
0001
0000
1100
0010
0001
0010
1100
0010
0001
0010
,
1100
0010
0001
0010
1100
0010
0001
0000
1010
0000
0000
0010
0000
0000
1000
0000
,
0100
0010
0000
0001
0100
0010
1000
0000
0101
0000
0000
0100
0000
0000
0001
0000
,
0010
0100
1000
0000
0010
0000
0100
0001
1100
0000
0000
0100
0000
1000
0010
0000
,
0100
0001
0010
0100
1000
0000
0001
0000
1100
0010
0001
0010
1100
0010
0001
0010
,
1100
0010
0001
0010
1100
0010
0001
0000
1000
0000
0100
0000
1000
0000
0100
0000
,
1000
0000
0100
2000
0000
0000
3020
0000
0130
0000
0000
0001
0000
0010
0000
0100
,
0000
0000
1000
0000
0010
0100
0000
0000
0001
0000
0010
0000
0001
0000
0010
0000
,
0001
0000
0010
0002
0000
0000
0203
0000
0310
0000
0000
1000
0000
0100
0000
0010
,
0000
0000
0001
0000
0100
0010
0000
0000
1000
0000
0010
0000
1000
0000
0010
0000
,
1000
0000
0010
2000
0000
0000
3200
0000
0310
0000
0000
0001
0000
0100
0000
0010
,
0000
0000
1000
0000
0100
0010
0000
0000
0001
0000
0100
0000
0001
0000
0100
0000
,
0001
0000
0100
0002
0000
0000
0023
0000
0130
0000
0000
1000
0000
0010
0000
0100
,
0000
0000
0000
0000
0001
0000
0000
0000
0010
0000
0100
0000
0000
0000
0000
0000
1000
0100
1000
0000
0100
0000
1000
0000
0100
0000
0000
0000
0020
0000
0000
0000
,
0032
0000
0000
0000
0203
0000
0000
0000
0320
0000
0000
0000
1030
0000
0000
0000
0001
0010
0001
0000
0010
0000
0001
0000
0010
0000
0000
0000
0200
0000
0000
0000
,
2300
0000
0000
0000
3020
0000
0000
0000
0230
0000
0000
0000
0301
0000
0000
0000
1000
0010
1000
0000
0010
0000
1000
0000
0010
0000
0000
0000
0200
0000
0000
0000
,
0302
0000
0000
0000
0023
0000
0000
0000
0230
0000
0000
0000
1300
0000
0000
0000
0001
0100
0001
0000
0100
0000
0001
0000
0100
0000
0000
0000
0020
0000
0000
0000
,
2030
0000
0000
0000
3200
0000
0000
0000
0320
0000
0000
0000
0031
0000
0000
0000
1000
0100
1000
0000
0100
0000
1000
0000
0010
0000
0000
0000
0200
0000
0000
0000
,
0302
0000
0000
0000
0023
0000
0000
0000
0230
0000
0000
0000
1300
0000
0000
0000
0001
0010
0001
0000
0010
0000
0001
0000
0100
0000
0000
0000
0020
0000
0000
0000
,
2030
0000
0000
0000
3200
0000
0000
0000
0320
0000
0000
0000
0031
0000
0000
0000
1000
0100
0010
0100
1000
0000
0100
0000
0010
0000
0000
0000
0002
0000
0000
0000
,
0203
0000
0000
0000
0320
0000
0000
0000
2030
0000
0000
0000
3000
0000
0000
0000
0001
0010
0100
0010
0001
0000
0010
0000
0100
0000
0000
0000
2000
0000
0000
0000
,
3020
0230
0302
0003
1100
0000
1010
0110
,
0000
0101
0000
0000
0011
0000
0000
0000
1100
0000
0000
1010
0000
0000
0110
0000
,
0000
0101
0000
0000
0011
0000
0000
0000
1000
0100
0000
1000
0010
0000
0100
0010
,
0000
0100
0001
0000
0010
0001
0000
0000
1000
0100
0000
1000
0010
0000
0001
0010
,
0000
0001
0100
0000
1000
0100
0010
0001
1100
0000
0000
1010
0000
0000
0110
0000
,
0000
0101
0000
0000
0011
0000
0000
0000
0101
0000
0000
0110
0000
0000
1010
0000
,
0000
1100
0000
0000
1001
0000
1001
0000
1010
0000
0000
0110
0000
0000
0101
0000
,
0000
0011
0000
0000
1001
0000
0000
0000
0011
0000
0000
0101
0000
0000
0110
0000
,
0000
1010
0000
0000
1100
0000
0011
0000
2002
0000
0000
0000
3003
0000
0000
0000
;

//--------------- dance-single - ----------------
#NOTES:
     dance-single:
     :
     Hard:
     12:
     0,0,0,0,0:
0000
0000
0000
0000
0000
0000
0000
0000
1100
0000
0010
0001
1100
0000
0010
0001
,
1100
0000
0010
0001
1100
0010
1100
0010
1000
0100
1000
0010
0100
0001
0010
0001
,
0100
0010
1000
0200
0000
0000
2300
0000
3010
0000
0000
0100
0000
0001
0000
0010
,
0000
0000
0100
0000
1000
0000
0010
0100
0001
0000
1000
0000
0001
0000
0000
0000
1000
0000
0010
0000
0100
0000
0001
0000
0010
0000
0100
0000
0010
0000
0001
0000
,
0100
0010
1000
0100
2000
0000
3020
0000
0130
0000
0000
0001
0000
0010
0000
0100
,
1000
0000
0010
0000
0100
0000
0010
1000
0100
0000
0010
0000
0100
0000
1000
0000
0001
0000
0010
0000
0001
0000
0100
0000
0010
0000
1000
0000
0100
0000
1000
0000
,
0010
0100
0001
0010
0002
0000
0203
0000
0310
0000
0000
1000
0000
0100
0000
0010
,
0001
0000
0100
0000
0010
0000
0100
0001
0010
0000
0100
0000
0010
0000
0000
0000
1000
0000
0100
0000
0010
0000
0001
0000
0100
0000
0010
0000
0100
0000
0001
0000
,
0010
0100
1000
0010
2000
0000
3200
0000
0310
0000
0000
0001
0000
0100
0000
0010
,
1000
0000
0100
0000
0010
0000
0001
0100
0010
0000
0100
0000
0001
0000
0000
0000
1100
0000
0000
0000
0000
0000
1010
0000
0000
0000
0000
0000
0110
0000
0000
0000
,
0100
0101
0000
0000
0011
0001
0010
0000
0011
0000
0000
0101
0000
0000
0110
0000
,
0010
1010
1000
0000
1100
0000
1000
0100
1010
0000
0000
0110
0000
0000
0101
0000
,
0000
0011
0000
0000
1001
0000
0000
0000
1100
0010
0001
0010
1100
0010
0001
0010
,
1100
0010
0001
0010
1100
0010
0001
0010
1100
0000
0000
1010
0000
0000
0110
0000
,
0100
0101
0000
0000
0011
0001
0010
0000
0011
0000
0000
0101
0000
0000
0110
0000
,
0010
1010
1000
0000
1100
0000
1000
0100
1010
0000
0000
0110
0000
0000
0101
0000
,
0000
0011
0000
0000
1001
0000
0000
0000
1100
0010
0001
0010
1100
0010
0001
0010
,
1100
0010
0001
0010
1100
0010
0001
0010
1100
0100
1000
0100
1000
0100
1000
0100
,
1000
0100
1000
0200
0000
0000
0320
0000
0031
0000
0000
0100
0000
0010
0000
1000
,
0000
0000
0100
0000
0010
0000
0001
1000
0001
0000
1000
0000
0000
0000
0000
0000
0001
0000
0010
0000
0001
0000
0010
0000
0001
0000
0010
0000
0001
0000
0010
0000
,
0001
0010
0001
0020
0000
0000
0230
0000
1300
0000
0000
0010
0000
0100
0000
0001
,
0000
0000
0010
0000
0100
0000
1000
0001
1000
0000
0001
0000
0000
0000
0000
0000
1000
0000
0010
0000
1000
0000
0010
0000
1000
0000
0010
0000
1000
0000
0010
0000
,
1000
0010
1000
0020
0000
0000
0230
0000
0301
0000
0000
0010
0000
0100
0000
1000
,
0000
0000
0010
0000
0100
0000
0001
0010
0001
0000
1000
0000
0000
0000
0000
0000
0001
0000
0100
0000
0001
0000
0100
0000
0001
0000
0100
0000
0001
0000
0100
0000
,
0001
0100
0001
0200
0000
0000
0320
0000
1030
0000
0000
0100
0000
0010
0000
0001
,
0000
0000
0100
0000
0010
0000
1000
0100
1000
0000
0001
0000
0000
0000
0000
0000
1000
0100
1000
0100
1000
0100
1000
0100
1000
0000
0000
0000
0200
0000
0000
0000
,
0320
0000
0000
0000
0032
0000
0000
0000
0023
0000
0000
0000
0230
0000
0000
0000
1300
0010
1000
0010
1000
0010
1000
0010
1000
0000
0000
0000
0200
0000
0000
0000
,
0320
0000
0000
0000
0032
0000
0000
0000
0203
0000
0000
0000
0320
0000
0000
0000
1030
0001
1000
0001
1000
0001
1000
0001
1000
0000
0000
0000
0200
0000
0000
0000
,
0320
0000
0000
0000
0032
0000
0000
0000
2003
0000
0000
0000
3020
0000
0000
0000
0130
0010
0100
0010
0100
0010
0100
0010
0100
0000
0000
0000
0002
0000
0000
0000
,
0023
0000
0000
0000
0230
0000
0000
0000
2300
0000
0000
0000
3002
0000
0000
0000
1003
0100
1000
0100
0010
0100
0010
0100
0010
0001
0010
0001
1000
0001
1000
0001
,
1000
0000
0000
0000
0020
0000
0000
0000
0230
0000
0000
0000
0302
0000
0000
0000
1003
0010
1000
0010
0100
0010
0100
0010
0100
0001
0100
0001
1000
0001
1000
0001
,
1000
0000
0000
0000
0200
0000
0000
0000
0320
0000
0000
0000
0032
0000
0000
0000
1003
0100
0010
0100
1000
0100
0010
0001
0010
0100
0010
0001
0010
0100
1000
0100
,
0010
0000
0000
0000
0002
0000
0000
0000
0203
0000
0000
0000
0320
0000
0000
0000
1030
0100
0010
0001
0010
0100
0010
0001
0010
0100
1000
0100
0010
0100
1000
0100
,
0010
0001
0100
0010
1000
0000
0000
0000
1000
0000
0000
0000
0001
0000
0000
0000
1100
0000
0000
0000
0000
0000
0000
0000
1010
0000
0000
0000
1010
0000
1010
0000
,
0000
0000
0110
0000
0110
0110
0000
0000
0101
0101
0000
0000
0011
0000
0011
0011
,
0000
0101
0101
0000
0110
0110
0000
0000
1010
1010
0000
1100
1100
0000
1010
1010
,
0000
0110
0110
0000
0101
0101
0000
0000
0011
0011
0000
0000
0110
0000
0110
0110
,
0000
0000
1100
0000
0000
0000
0000
0000
1100
0000
0100
0000
0010
0001
0100
0010
1100
0000
1000
0000
0000
0000
1000
0000
1010
0000
0000
0000
1010
0000
0010
0000
,
0000
0010
0110
0000
0110
0100
0000
0100
0101
0001
0000
0001
0011
0000
0011
0001
,
0000
0001
1001
0000
0110
0000
1001
0000
1010
0010
0000
0010
0110
0000
0110
0100
,
0000
0100
0101
0000
0011
0001
0000
0000
1100
0000
0001
0010
1100
0000
0001
0010
,
1100
0000
0001
0010
1100
0010
0101
0010
2002
0000
0000
0000
3003
0000
0000
0000
;

//--------------- dance-single - ----------------
#NOTES:
     dance-single:
     :
     Challenge:
     13:
     0,0,0,0,0:
0000
0000
0000
0000
,
0000
0000
0000
0000
0000
0000
0000
0000
1100
0010
0100
0001
0010
1000
0010
0001
,
0100
0000
0010
0000
1000
0000
0100
0000
0020
0000
0000
0000
0031
0000
0000
0000
0100
0010
0100
0000
0000
0000
0001
0000
0000
0000
0010
0000
0000
0000
0100
0000
,
0000
0000
1000
0000
0010
0100
0001
0010
0100
0000
1000
0000
0011
0000
0100
0000
0001
0000
0010
0000
0001
0000
0100
0000
0010
0000
1000
0000
0010
0000
0001
0000
,
0010
0000
1000
0000
0100
0000
0020
0000
0000
0000
0000
0000
0031
0000
0000
0000
0100
0010
0100
0000
0000
0000
0001
0000
0000
0000
0010
0000
0000
0000
0100
0000
,
0000
0000
1000
0000
0100
0010
0001
0100
0010
0000
1000
0010
1000
0010
1000
0010
1000
0000
0100
0000
0001
0000
0100
0000
1000
0000
0100
0000
0001
0000
0010
0000
,
0001
0000
0100
0000
1000
0000
0020
0000
0000
0000
0000
0000
0130
0000
0000
0000
0001
1000
0001
0000
0000
0000
0010
0000
0000
0000
0100
0000
0000
0000
1000
0000
,
0010
0000
0100
0000
0001
0010
1000
0010
0001
0000
0100
0000
1010
0000
0000
0000
0001
0000
0010
0000
1000
0000
0010
0000
0001
0000
0010
0000
1000
0000
0100
0000
,
1000
0000
0010
0000
0001
0000
0200
0000
0000
0000
0000
0000
0310
0000
0000
0000
1000
0001
1000
0000
0000
0000
0100
0000
0000
0000
0010
0000
0000
0000
0001
0000
,
0100
0000
0010
0000
1000
0100
0001
0100
1100
0000
0010
0000
0011
0000
0001
0000
1001
0000
0000
0000
0000
0000
0110
0000
0000
0000
0000
0000
0011
0000
0000
0000
,
0100
0110
0000
0000
1100
0010
0000
0000
0110
0000
0000
0101
0000
0000
1010
0000
,
0110
0000
0100
0000
0001
0000
0010
0000
0011
0000
0001
0000
0100
0000
0010
1000
1001
0000
0000
0000
0000
0000
0011
0000
0000
0000
0010
0000
0110
0000
0000
0000
,
1000
1100
0000
0010
1010
0100
0001
0000
1100
0010
0001
0010
1100
0010
0001
0010
,
1100
0010
0001
0010
1100
0010
0001
0010
1001
0000
0000
0110
0000
0000
0101
0000
,
0010
0110
0000
0000
1010
0100
0000
0000
0110
0000
0000
0011
0000
0000
1100
0000
,
0110
0000
0010
0000
0001
0000
0100
0000
0101
0000
0001
0000
0010
0000
0100
1000
1001
0000
0000
0000
0000
0000
0101
0000
0000
0000
0100
0000
0110
0000
0000
0000
,
1000
1010
0000
0100
1100
0010
0001
0000
1100
0010
0001
0010
1100
0010
0001
0010
,
1100
0010
0001
0010
1100
0010
0001
0010
1100
0010
0001
0010
1000
0100
0001
0100
,
1000
0000
1000
0000
0010
0000
0100
0000
0002
0000
0000
0000
0013
0000
0000
0000
0001
0100
0010
0000
0000
0000
0001
0000
0000
0000
0010
0000
0000
0000
1000
0000
,
0100
0000
0010
0000
0001
0100
0001
0100
0001
0000
0010
0000
0101
0000
0110
0000
1010
0000
0100
0000
0001
0000
0100
0000
1000
0000
0010
0000
0001
0000
0010
0000
,
1000
0000
1000
0000
0010
0000
0100
0000
0002
0000
0000
0000
1003
0000
0000
0000
0001
0010
0100
0000
0000
0000
0001
0000
0000
0000
0100
0000
0000
0000
1000
0000
,
0010
0000
0100
0000
0001
0010
0001
0010
0001
0000
1000
0010
1000
0010
1000
0010
1000
0000
0100
0000
0010
0000
1000
0000
0010
0000
0001
0000
0100
0000
1000
0000
,
0100
0000
0001
0000
0010
0000
0100
0000
2000
0000
3000
0000
1010
0000
0000
0000
0100
0001
1000
0000
0000
0000
0010
0000
0000
0000
0100
0000
0000
0000
1000
0000
,
0001
0010
0001
0010
0100
1000
0100
1000
0001
0000
0010
0000
1100
0000
0000
0000
0001
0000
0100
0000
0010
0000
0001
0000
0010
0000
1000
0000
0100
0000
0001
0000
,
0100
0000
1000
0000
0010
0000
0100
0000
0002
0000
0000
0000
0013
0000
0100
0000
0010
0001
1000
0000
0000
0000
0010
0000
0100
0000
0001
0000
0010
0000
0001
0000
,
1000
0000
0010
0000
0100
0001
0100
0001
0010
0100
0010
0000
0100
0000
0000
0000
1000
0100
0010
0001
0010
0100
1000
0100
0010
0001
0010
0100
1000
0100
0010
0001
,
0010
0100
1000
0100
0010
0001
0010
0100
1000
0000
0000
0000
0000
0000
0000
0000
0001
0010
0100
1000
0100
0010
0001
0010
0100
1000
0100
0010
0001
0010
0100
1000
,
0100
0010
0001
0010
0100
1000
0100
0010
0001
0000
0000
0000
0000
0000
0000
0000
1000
0010
0100
0001
0100
0010
1000
0010
0100
0001
0100
0010
1000
0010
0100
0001
,
0100
0010
1000
0010
0100
0001
0100
0010
1000
0000
0000
0000
0000
0000
0000
0000
0001
0100
0010
1000
0010
0100
0001
0100
0010
1000
0010
0100
0001
0100
0010
1000
,
0010
0100
0001
0100
0010
1000
0010
0100
0001
0000
0000
0000
0000
0000
0000
0000
1000
0100
0010
0001
0010
0100
1000
0100
0010
0001
0010
0100
1000
0010
0100
0001
,
0100
0010
1000
0010
0100
0001
0100
0010
1000
0000
0000
0000
0000
0000
0000
0000
0001
0100
0010
1000
0010
0100
0001
0100
0010
1000
0010
0100
0001
0010
0100
1000
,
0100
0010
0001
0010
0100
1000
0100
0010
0001
0000
0000
0000
0000
0000
0000
0000
1000
0100
0010
0100
1000
0100
0010
0001
0010
0100
0010
0001
0010
0100
1000
0100
,
0010
0100
1000
0100
0010
0001
0010
0100
1000
0000
0000
0000
0000
0000
0000
0000
0001
0010
0100
0010
0001
0010
0100
1000
0100
0010
0100
1000
0100
0010
0001
0010
,
0100
0010
0001
0010
0100
1000
0100
0010
0001
0000
0100
0000
0010
0000
1000
0000
1100
0000
0000
0000
0000
0000
0000
0000
0110
0000
0000
0000
0101
0000
0101
0000
,
0000
0011
0011
0000
0110
0110
0110
0110
1100
1100
0000
0101
0101
0000
0011
0011
,
0000
0110
0110
0000
1100
1001
0000
0000
1100
1100
1100
1100
1100
0000
0101
0101
,
0101
0101
0101
0000
0011
0011
0011
0000
0110
0110
0000
0110
0110
0000
1001
1001
,
1000
0000
0001
0000
0000
0000
0000
0000
1000
0000
0010
0100
0001
0010
0100
1000
0011
0000
0000
0000
0000
0000
0101
0000
0101
0000
0000
0000
0110
0000
0000
0000
,
0000
1010
1010
0000
1100
0000
1001
1001
1100
0000
0000
1010
1010
0000
0110
0000
,
0000
0101
0101
0000
0011
0000
0011
0000
1001
0000
0000
0000
0011
0000
0110
0110
,
0000
1010
1010
0000
0011
0000
0110
0001
1100
0000
0001
0010
1100
0000
0001
0010
,
1100
0100
0010
0100
1000
0100
0010
0001
0010
0100
0010
0001
0010
0100
1000
0001
2002
0000
0000
0000
0000
0000
0000
0000
3003
0000
0000
0000
0000
0000
0000
0000
;
