#TITLE:Go Beyond!!;
#SUBTITLE:;
#ARTIST:Ryu☆ Vs. Sota;
#TITLETRANSLIT:;
#SUBTITLETRANSLIT:;
#ARTISTTRANSLIT:;
#GENRE:;
#CREDIT:;
#MUSIC:Go Beyond!!.ogg;
#BANNER:Go Beyond!!-bn.png;
#BACKGROUND:Go Beyond!!-bg.png;
#CDTITLE:;
#SAMPLESTART:1.592;
#SAMPLELENGTH:19.200;
#SELECTABLE:YES;
#OFFSET:-0.092;
#BPMS:0.000=200.000
,101.000=50.000
,129.000=200.000
,257.000=100.000
;
#STOPS:;
#BGCHANGES:-0.092=Go Beyond!!.avi=1.000=0=0=0=StretchNoLoop====,
99999.000=-nosongbg-=1.000=0=0=0=StretchNoLoop====;
#FGCHANGES:;

//--------------- dance-single - ----------------
#NOTES:
     dance-single:
     :
     Beginner:
     3:
     0,0,0,0,0:
0000
0000
0000
0000
,
0000
0000
0000
0000
,
0000
0000
0000
0000
,
0000
0000
0000
0000
,
0000
0000
0000
0000
,
0000
0000
0000
0000
,
0000
0000
0000
0000
,
0000
0000
0000
0000
,
0000
0000
0000
0000
,
0000
1000
0000
0000
,
0000
0000
0000
0000
,
0000
0100
0000
0000
,
0000
0000
0000
0000
,
0000
0010
0000
0000
,
0000
0000
0000
0000
,
0000
0001
0000
0000
,
0000
0000
0000
0000
,
0000
1000
0000
0000
,
0000
0000
0000
0000
,
0000
0010
0000
0000
,
0000
0000
0000
0000
,
0000
0100
0000
0000
,
0000
0000
0000
0000
,
0000
0001
0000
0000
,
0000
0000
0000
0000
,
0000
1001
0000
0000
,
0000
0000
0000
0000
,
0000
0000
0000
0000
,
0000
0000
0000
0000
,
0000
0000
0000
0000
,
0000
0000
0000
0000
,
0000
0000
0000
0000
,
0000
0001
0001
0001
1000
0000
0000
0000
0100
0000
0000
0000
0010
0000
0000
0000
,
0001
1000
0010
0100
,
0001
1000
0100
0010
,
0001
1000
0010
0100
,
0001
1000
0100
0010
,
0001
1000
0010
0100
,
0001
1000
0100
0010
,
0001
1000
0010
0100
,
0001
1000
0100
0010
,
0100
1000
0010
0100
,
0010
1000
0100
0010
,
0001
1000
0010
0100
,
0001
1000
0010
0100
,
0010
1000
0100
0010
,
0100
1000
0010
0100
,
0001
1000
0100
0010
,
0001
1000
0000
0000
,
0000
0001
0000
0000
,
0000
1000
0000
0000
,
0000
0001
0000
0000
,
0000
1000
0000
0000
,
0000
0001
0000
0000
,
0000
1000
0000
0000
,
0000
0001
0000
0000
,
0000
1000
0000
0000
,
0000
0010
0000
0000
,
0000
0100
0000
0000
,
0000
0001
0000
0000
,
0000
1000
0000
0000
,
0000
0100
0000
0000
,
0000
0010
0000
0000
,
0000
0001
0000
0000
,
0000
1001
0000
0000
,
0000
0000
0000
0000
,
0000
0000
0000
0000
,
0000
2002
0000
0000
,
3003
0000
0000
0000
;

//--------------- dance-single - ----------------
#NOTES:
     dance-single:
     :
     Easy:
     8:
     0,0,0,0,0:
0000
0000
0000
0000
,
0000
1000
0000
1000
,
0000
0001
0000
0001
,
0000
0100
0000
0100
,
0000
0010
0000
0010
,
0000
1000
0000
1000
,
0000
0001
0000
0001
,
0000
1000
0000
0000
,
0000
0001
0000
0000
,
0000
1000
0100
0010
,
0001
1000
0010
0100
,
0001
1000
0100
0010
,
0001
1000
0010
0100
,
0001
1000
0100
0010
,
0001
1000
0010
0100
,
0001
1000
0100
0010
,
0001
1000
1000
1000
,
0000
1000
0100
0010
,
0100
1000
0010
0100
,
0001
1000
0010
0100
,
0010
1000
0100
0010
,
0001
1000
0100
0010
,
0100
1000
0010
0100
,
0010
1000
0000
0001
,
0000
1000
0000
0000
,
0000
1001
0000
0000
,
0000
0000
0000
0000
,
0000
1000
0100
0010
,
0001
1000
0010
0100
,
0001
1000
0100
0010
,
0001
1000
0010
0100
,
0001
1000
0001
0000
,
0000
0001
0001
0001
1000
0000
0100
0000
1000
0000
0100
0000
0010
0000
0001
0000
,
0010
0001
1000
0010
1000
0010
0100
0001
,
0100
0001
1000
0100
1000
0100
0010
0001
,
0010
0001
1000
0010
1000
0010
0100
0001
,
0100
0001
1000
0010
1000
0010
0100
0001
,
0100
0001
1000
0100
1000
0100
0010
0001
,
0010
0001
1000
0010
1000
0010
0100
0001
,
0100
0001
1000
0100
1000
0100
0010
0001
,
0010
0001
1000
0100
0010
0001
1000
0010
,
0100
0001
1000
0100
0010
0100
1000
0010
,
0100
0010
1000
0010
0100
0001
1000
0100
,
0010
0001
1000
0010
0100
0010
1000
0100
,
0010
0100
1000
0100
0010
0001
1000
0010
,
0100
0010
1000
0010
0100
0001
1000
0100
,
0010
0100
1000
0100
0010
0001
1000
0010
,
0100
0001
1000
0001
1000
0001
1000
0001
,
1000
0001
1000
0000
0000
0000
0100
0000
,
0000
0010
0000
0001
,
0000
1000
0000
0010
,
0000
0100
0000
0001
,
0000
1000
0000
0100
,
0000
0010
0000
0001
,
0000
1000
0000
0010
,
0000
0100
0000
0001
,
0000
1000
0000
0100
,
0000
0010
0000
0001
,
0000
1000
0000
0010
,
0000
0100
0000
0001
,
0000
1000
0000
0100
,
0000
0010
0000
0001
,
0000
1000
0010
0100
,
0001
1000
1000
0001
,
0001
2002
0000
0000
,
3003
2002
0000
0000
,
3003
2002
0000
0000
,
3003
2002
0000
0000
,
3003
0000
0000
0000
;

//--------------- dance-single - ----------------
#NOTES:
     dance-single:
     :
     Medium:
     10:
     0,0,0,0,0:
0000
0000
0000
0000
,
0000
1000
0100
0010
,
0001
1000
1000
1000
,
0000
0001
0010
0100
,
1000
0001
0001
0001
,
0000
1000
0010
0100
,
0001
1000
1000
1000
,
0000
0001
0100
0010
,
1000
0001
0001
0001
,
0000
1000
0100
0010
,
0001
1000
1000
0001
,
0001
1000
0010
0100
,
0001
1000
1000
0001
,
0001
1000
0100
0010
,
0001
0100
0100
0010
,
0010
1000
0010
0100
,
0001
0100
0100
0010
,
0010
1000
0100
0010
,
0001
0010
0010
0100
,
0100
1000
0010
0100
,
0001
0010
0010
0100
,
0100
1000
0100
0010
,
0001
0001
0001
1000
,
1000
1000
0010
0100
,
0001
1000
0000
0000
,
0000
1001
0000
0000
,
0000
0000
0000
0000
,
0000
0000
1000
0100
0010
0001
1000
0010
,
0100
0001
1000
0100
0010
0001
1000
0010
,
0100
0001
1000
0100
0010
0001
1000
0010
,
0100
0001
1000
0100
0010
0001
1000
0010
,
0100
0001
1000
0100
0010
0001
1000
0000
,
0000
0001
0001
0001
1000
0000
0100
0000
0010
0000
0100
0000
1000
0000
0010
0000
,
0100
0001
1000
0100
0010
0001
1000
0010
,
0100
0010
1000
0100
0010
0001
1000
0010
,
0100
0010
1000
0100
0010
0100
1000
0010
,
0100
0001
1000
0100
0001
0100
1000
0010
,
0100
0001
1000
0010
0001
0010
1000
0100
,
0010
0001
1000
0010
0100
0001
1000
0100
,
0010
0000
0001
0000
1000
0001
1000
0001
1000
0001
1000
0001
1000
0001
1000
0001
,
1000
0001
1000
0001
1000
0000
0100
0000
0010
0000
0001
0000
1000
0000
0100
0000
,
0001
0100
1000
0010
0100
0001
1000
0010
,
0001
0010
1000
0100
0010
0100
1000
0010
,
0001
0010
1000
0010
0100
0010
1000
0100
,
0001
0100
1000
0010
0100
0001
1000
0100
,
0010
0100
1000
0010
0100
0010
1000
0100
,
0010
0001
1000
0010
0100
0001
1000
0100
,
0010
0000
0001
0000
1000
0001
1000
0001
1000
0001
1000
0001
1000
0001
1000
0001
,
1000
0001
1000
0001
1000
0000
0000
0000
0100
0000
0000
0000
0010
0000
0000
0000
,
0001
1000
0010
0100
,
0001
1000
0100
0010
,
0001
1000
0010
0100
,
0001
1000
0100
0010
,
0001
1000
0010
0100
,
0001
1000
0100
0010
,
0001
1000
1000
0001
,
0001
1000
0010
0100
,
0001
1000
0100
0010
,
0001
1000
0010
0100
,
0001
1000
0100
0010
,
0001
0000
1000
0100
0010
0001
1000
0010
,
0100
0001
1000
0100
0010
0100
1000
0010
,
0100
0010
1000
0100
0001
0100
1000
0010
,
0001
0010
1000
0100
0010
0001
1000
0010
,
0100
0001
1000
0000
0000
0000
0000
0000
,
0000
0001
0000
0000
,
0000
1000
0000
0001
,
0000
2002
0000
0000
,
3003
0000
0000
0000
;

//--------------- dance-single - ----------------
#NOTES:
     dance-single:
     :
     Hard:
     12:
     0,0,0,0,0:
0000
0000
0000
0000
,
0000
0000
1000
0100
0010
0001
1000
0010
,
0100
0000
0001
0000
1100
0000
0000
1100
0000
0000
1100
0000
1100
0000
0000
0000
,
0001
0010
1000
0010
0100
0001
1000
0100
,
0010
0000
0001
0000
1010
0000
0000
1010
0000
0000
1010
0000
1010
0000
0000
0000
,
0000
0000
1000
0100
0001
0100
1000
0010
,
0100
0000
0001
0000
1001
0000
0000
1001
0000
0000
1001
0000
1001
0000
0000
0000
,
0000
0000
1000
0100
0010
0000
0001
0100
,
0010
0000
0000
0000
1000
0000
0000
1000
0000
0000
1000
0000
1000
0000
1000
0000
,
1000
0001
1000
0001
1000
0000
0100
0000
0010
0000
0001
0000
1000
0000
0010
0000
,
0100
0001
1000
0100
0001
0100
1000
0010
,
0001
0010
1000
0010
0100
0001
1000
0100
,
0010
0001
1100
0101
0000
0110
0000
1001
,
0000
0000
1000
0010
0100
0001
1000
0100
,
0010
0001
1000
0010
0001
0010
1000
0100
,
0001
0100
1000
0100
0010
0001
1000
0010
,
0100
0001
2000
0000
3200
0000
0320
0000
,
0032
0000
0000
0000
1003
0100
1000
0000
0001
0100
0001
0000
1000
0010
1000
0000
,
0001
0010
0001
0000
1000
0000
0100
0000
0010
0000
0001
0000
0100
0000
0010
0000
,
1000
0000
0001
0000
1000
0010
1000
0000
0001
0010
0001
0000
1000
0100
1000
0000
,
0001
0100
0001
0000
1000
0000
0010
0000
0100
0000
0001
0000
0010
0000
0100
0000
,
1000
0001
1000
0100
0010
0100
1000
0010
,
0100
0010
1000
0100
0010
0001
0100
0010
,
1000
0100
1000
0100
1000
0000
1000
0000
0010
0100
0010
0100
0001
0000
0001
0000
,
0100
0010
0100
0010
1000
0000
0000
0000
0100
0000
0000
0000
0010
0000
0000
0000
,
0001
1001
0000
0000
,
0000
0000
0000
0000
,
0000
0000
0000
0000
0000
0000
0000
0000
1000
0100
0010
0001
1000
0010
0100
0001
1000
0100
0010
0001
1000
0010
0100
0001
1000
0100
0010
0001
1000
0010
0100
0001
,
1000
0100
0010
0001
1000
0010
0100
0001
1000
0100
0010
0001
1000
0010
0100
0001
1000
0100
0010
0001
1000
0010
0100
0001
1000
0100
0010
0001
1000
0010
0100
0001
,
1000
0100
0010
0001
1000
0010
0100
0001
1000
0100
0010
0100
1000
0010
0100
0010
1000
0100
0001
0100
1000
0010
0001
0010
1000
0010
0100
0010
1000
0100
0010
0100
,
1000
0010
0001
0010
1000
0100
0001
0100
1000
0100
0010
0100
1000
0010
0100
0010
1000
0010
0001
0010
1000
0100
0001
0100
1000
0010
0100
0010
1000
0100
0010
0100
,
1000
0100
0001
0100
1000
0010
0001
0010
1000
0010
0100
0001
1000
0100
0010
0001
1000
0010
0100
0001
1000
0100
0010
0001
1000
0000
0000
0000
0000
0000
0000
0000
,
0000
0001
0001
0001
1000
0100
1000
0000
0001
0100
0001
0000
1000
0100
1000
0000
,
0001
0100
0001
0000
1000
0010
1000
0000
0001
0010
0001
0000
1000
0010
1000
0000
,
0001
0010
0001
0000
1000
0100
1000
0000
0001
0100
0001
0000
1000
0100
1000
0000
,
0001
0100
0001
0000
1000
0010
1000
0000
0001
0010
0001
0000
1000
0010
1000
0000
,
0001
0010
0001
0000
1000
0100
0010
0000
0100
0010
0001
0000
0001
0100
0010
0000
,
0010
1000
0100
0000
1000
0010
0100
0000
0100
0001
0010
0000
0001
0010
0100
0000
,
0010
0100
1000
0000
1000
0001
1000
0000
0100
0010
0100
0000
0001
1000
0001
0000
,
0100
0010
0100
0000
1000
0100
0010
0001
1000
0010
0100
0001
1000
0100
0010
0001
,
1000
0010
0100
0001
1000
0000
0100
0000
0010
0000
0001
0000
1000
0000
0010
0000
,
0100
0000
0001
0000
1000
0100
1000
0100
0010
0001
0010
0001
1000
0010
1000
0010
,
0100
0001
0100
0001
1000
0000
0010
0000
0100
0000
0001
0000
1000
0000
0100
0000
,
0010
0000
0001
0000
1000
0010
1000
0010
0100
0001
0100
0001
1000
0100
1000
0100
,
0010
0001
0010
0001
1000
0000
0100
0000
0010
0000
0001
0000
1000
0100
1000
0100
,
0010
0001
0010
0001
1000
0000
0010
0000
0100
0000
0001
0000
1000
0010
1000
0010
,
0100
0001
0100
0001
1000
0000
0100
0000
0010
0000
0001
0000
1000
0000
0010
0000
,
0100
0000
0001
0000
1000
0100
0010
0001
1000
0010
0100
0001
1000
0100
0010
0001
,
1000
0010
0100
0001
1000
0000
0100
0000
1000
0000
0100
0000
0010
0000
0001
0000
,
0010
0001
1000
0010
1000
0010
0100
0001
,
0100
0001
1000
0100
1000
0100
0010
0001
,
0010
0001
1000
0010
1000
0010
0100
0001
,
0100
0001
1000
0010
1000
0010
0100
0001
,
0100
0001
1000
0100
1000
0100
0010
0001
,
0010
0001
1000
0010
1000
0010
0100
0001
,
0100
0001
1000
0100
1000
0100
0010
0001
,
0010
0001
1000
0100
0010
0100
1000
0010
,
0001
0010
1000
0100
0010
0001
1000
0010
,
0100
0010
1000
0100
0001
0100
1000
0010
,
0100
0001
1000
0100
0001
0100
1000
0010
,
0001
0010
1000
0100
0010
0001
1000
0010
,
0100
0001
1000
0100
0010
0001
1000
0010
,
0100
0000
0001
0000
1000
0000
0001
0000
0100
0010
0100
0010
0001
0000
1000
0000
,
0010
0100
0010
0100
1000
0000
0100
0000
0010
0000
0001
0000
1000
0000
0010
0000
,
0100
0001
1000
0000
0100
0000
0010
0000
,
0001
1000
0010
0100
,
0001
1000
0001
0100
,
0010
2002
0000
0000
,
3003
0000
0000
0000
;

//--------------- dance-single - ----------------
#NOTES:
     dance-single:
     :
     Challenge:
     15:
     0,0,0,0,0:
0000
0000
0000
0000
,
0000
0000
0000
0000
,
0000
0000
2002
3003
0220
0330
2002
3003
,
0000
0000
0000
0000
,
0000
0000
0220
0330
2002
3003
0220
0330
,
0000
0000
0000
0000
,
0000
0000
2002
3003
0220
0330
2002
3003
,
0000
0000
0000
0000
,
0000
2000
3000
0002
,
0003
1000
0010
0100
,
0001
1000
0100
0010
,
0001
1000
0010
0100
,
0001
0000
2000
0000
0000
3000
0000
0000
,
0000
0001
0010
0100
,
1000
0001
0100
0010
,
1000
0001
0001
1000
,
1000
0000
0020
0030
0020
0030
0020
0030
,
0020
0030
1000
0000
0100
0000
0010
0000
,
0001
0000
2200
3300
2200
3300
2200
3300
,
1000
0001
0100
0010
,
1000
0000
0202
0303
0202
0303
0202
0303
,
0001
1000
0100
0010
,
0001
0000
2002
3003
2002
3003
2002
3003
,
1000
0000
0100
0000
0022
0003
0031
0000
,
2020
3000
1030
0000
0000
0000
0000
0000
,
0000
0000
2000
3200
0320
0032
2003
0000
,
0000
3002
2003
3020
0230
0302
2003
0000
,
0000
3002
2003
3200
0320
0032
0203
0000
,
0000
0320
2030
3020
0230
0302
0023
0000
,
0000
0000
0230
0300
2200
0000
0000
0000
0000
3300
2000
3000
2002
0000
0000
0000
,
0000
3003
0002
0003
2002
3003
2020
3030
0202
0303
0022
0033
2200
0000
0000
0000
,
0000
0000
0000
0000
0000
0000
0000
3300
0220
0000
0000
0000
0000
0000
0000
0000
,
0330
0001
0001
0001
1000
0010
1000
0100
0010
0001
0100
0010
0100
0001
0010
0100
,
1000
0010
0100
0001
1000
0100
1000
0010
0100
0001
0010
0100
0010
0001
0100
0010
,
1000
0100
0010
0001
1000
0100
0010
0100
1000
0010
0100
0010
1000
0100
0001
0100
,
1000
0010
0001
0010
1000
0010
0100
0010
1000
0100
0010
0100
1000
0010
0001
0010
,
1000
0100
0001
0100
1000
0100
1000
0010
0100
0001
0010
0100
1000
0100
0010
0001
,
0100
0010
1000
0100
1000
0010
1000
0100
0010
0001
0100
0010
1000
0010
0100
0001
,
0010
0100
1000
0010
1000
0100
0010
0001
1000
0100
0001
0100
1000
0010
0100
0001
,
1000
0000
0000
0010
0000
0000
0001
0000
0000
0010
0000
0000
1000
0000
0100
0000
1000
0000
0001
0000
0010
0000
0100
0000
1000
0000
0001
0000
0100
0000
0001
0000
1000
0000
0100
0000
0010
0000
0001
0000
1000
0000
0010
0000
1000
0000
0001
0000
,
0100
0000
0010
0000
1000
0000
0001
0000
0010
0000
0001
0000
1000
0000
0000
0100
0000
0000
0010
0000
0000
0100
0000
0000
1000
0000
0000
0010
0000
0000
0100
0000
0000
0001
0000
0000
0010
0000
0000
0100
0000
0000
0010
0000
0000
0001
0000
0000
,
0100
0010
1000
0001
1000
0010
0100
0010
1000
0100
0010
0001
0100
0010
0100
0001
,
0010
0100
1000
0001
1000
0100
0010
0100
1000
0100
0010
0001
0100
0010
0100
0001
,
0010
0100
1000
0001
1000
0010
0100
0010
1000
0010
0100
0001
0010
0100
0010
0001
,
0100
0010
1000
0001
1000
0100
0001
0100
1000
0010
0100
0001
0010
0100
0010
0001
,
0100
0010
1000
0001
1000
0010
0001
0010
1000
0100
0010
0001
0100
0010
0100
0001
,
0010
0100
1000
0001
1000
0100
0001
0100
1000
0010
0001
0010
1000
0100
0001
0100
,
1000
0000
0000
0010
0000
0000
0001
0000
0000
0010
0000
0000
1000
0000
0100
0000
0010
0000
0100
0000
1000
0000
0001
0000
0100
0000
1000
0000
0100
0000
0001
0000
1000
0000
0010
0000
0100
0000
0010
0000
1000
0000
0001
0000
0010
0000
1000
0000
,
0010
0001
0100
0010
1000
0100
2200
0000
0000
0000
0000
0000
3300
0000
0000
0000
0000
0000
0202
0000
0000
0000
0000
0000
,
0303
2020
3030
0022
,
0033
2002
3003
0000
,
0000
0000
0000
0220
,
0330
0022
0033
2020
,
3030
0202
0303
2200
,
3300
2002
3003
0000
,
0000
0000
0000
2002
,
3003
2020
3030
0022
,
0033
0202
0303
2200
,
3300
0220
0330
0000
,
0000
0000
0000
2002
,
3003
0202
0303
2200
,
3300
2020
3030
0022
,
0033
0220
0330
0000
,
0000
0000
0000
0000
,
0000
0000
2200
0000
0000
0000
0000
3300
,
0220
0330
0022
0000
0000
0000
0000
0033
,
2020
3030
0220
0330
0202
0303
0022
0033
,
2200
3300
2002
0000
0000
0000
0000
0000
,
0000
0000
0000
0000
,
0000
3003
0000
0000
;
