#TITLE:GAiA;
#SUBTITLE:;
#ARTIST:猫叉L.E.D.Master+;
#TITLETRANSLIT:;
#SUBTITLETRANSLIT:;
#ARTISTTRANSLIT:;
#GENRE:;
#CREDIT:;
#MUSIC:GAIA.ogg;
#BANNER:GAIA-bn.png;
#BACKGROUND:GAIA-bg.png;
#CDTITLE:;
#SAMPLESTART:56.061;
#SAMPLELENGTH:10.667;
#SELECTABLE:YES;
#OFFSET:-0.061;
#BPMS:0.000=180.000
,142.000=90.000
,143.000=180.000
,149.000=360.000
,150.000=180.000
,150.500=360.000
,151.500=180.000
,158.000=90.000
,159.000=180.000
,358.000=22.500
;
#STOPS:;
#DISPLAYBPM:180.000;
#BGCHANGES:;
#FGCHANGES:;

//--------------- dance-single - ----------------
#NOTES:
     dance-single:
     :
     Beginner:
     6:
     0,0,0,0,0:
0000
0000
0000
0000
,
0000
0000
0000
0000
,
2002
0000
0000
0000
0000
0000
3003
1001
,
0000
0000
0000
0000
,
2002
0000
0000
0000
0000
0000
3003
1001
,
0000
0000
0000
0000
,
2002
0000
0000
0000
0000
0000
3003
1001
,
0000
0000
0000
0000
,
2002
0000
0000
0000
0000
0000
3003
1001
,
0000
0000
0000
0000
,
2000
3000
0200
0300
,
0020
0030
0002
0003
,
2000
3000
0020
0030
,
0200
0300
0002
0003
,
2000
3100
0020
0031
,
2000
3010
0200
0301
,
2000
3100
0020
0031
,
2000
3200
0320
0032
0203
0320
2030
0000
,
3001
0010
0100
1000
,
1001
0100
0010
0001
,
1001
0001
0010
0100
,
1001
1000
0100
0010
,
0001
0000
2002
3003
1000
0000
0100
0000
,
0010
0100
1000
0100
,
0010
0100
1000
0010
,
0100
0000
0010
0000
1000
0000
0002
0003
,
1001
0000
1001
0000
,
0100
0000
0100
0000
,
1001
0000
1001
0000
,
0010
0000
0010
0000
,
1001
0000
1001
0000
,
1000
0000
1000
0000
,
1001
0000
1001
0000
,
0001
0000
0001
0000
,
1000
0100
0010
0001
,
0010
0000
0000
0000
0100
0000
0000
0000
2002
0000
0000
3003
1001
0000
0000
0000
,
0010
0100
0001
0010
,
0100
0000
2002
0000
3003
2002
0000
3003
,
1000
0100
0010
0001
,
0010
0000
0000
0000
0100
0000
0000
0000
2000
0000
0002
3003
1001
0000
0000
0000
,
0010
0100
1000
0100
,
0010
0001
1000
1001
,
0000
1001
0000
0000
0000
0000
0110
0000
,
0000
0110
0000
0000
0000
0000
1001
0000
,
0000
1001
0000
0000
0000
0000
0110
0000
,
0000
0110
0000
0000
0000
0000
1001
0000
,
0000
1001
0000
0000
0000
0000
0110
0000
,
0000
0110
0000
0000
0000
0000
1001
0000
,
0000
1001
0000
0000
0000
0000
0110
0000
,
0000
0110
0000
0000
0000
0000
1001
0000
,
0000
1001
0000
0000
0000
0000
0000
0000
,
0000
0000
0000
1001
,
0000
1001
0000
0000
0000
0000
0000
0000
,
0000
0000
0000
1001
,
0000
1001
0000
0000
0000
0000
0000
0000
,
0000
0000
0000
1001
,
0000
1001
0000
0000
0000
0000
0000
0000
,
0000
0000
0000
1000
,
0100
0010
0001
1000
,
0010
0100
0001
1000
,
0100
0010
0001
1000
,
0010
0100
0001
1000
,
0100
0010
0100
1000
,
0010
0100
0010
1000
,
0100
0000
0010
0000
0001
0000
1000
0010
,
0100
0001
0010
0100
1000
0000
1001
0000
,
0001
0010
0100
1000
,
0100
0010
0001
1001
,
0001
0100
0010
1000
,
0010
0100
0001
1000
,
1001
1000
0100
0010
,
0001
0000
0000
0000
0010
0000
0000
0000
0100
0000
0000
0000
0000
0000
2002
3003
,
0000
2002
3003
0000
2002
3003
0000
2002
3003
0000
2002
3003
0000
2002
3003
0000
,
2002
3003
2002
3003
1000
0000
0001
0000
1000
0000
0000
0000
1001
0000
0000
0000
,
1000
0100
0010
0001
,
0010
0100
1000
1001
,
1000
0010
0100
0001
,
0100
0010
1000
0001
,
1001
0001
0010
0100
,
1000
0100
0010
0001
,
0010
0100
1000
0001
,
1000
0000
0001
0010
0100
1000
2002
0000
,
3003
2002
3003
0000
0000
0000
0000
0000
,
0000
0000
0020
0000
0000
0030
2002
0000
,
3003
2002
3003
0000
0000
0000
0000
0000
,
0000
0000
0200
0000
0000
0300
2002
0000
,
3003
2002
3003
0000
0000
0000
0000
0000
,
0000
0000
0000
2002
,
3003
2002
3003
0000
0000
0000
1000
0000
,
0100
0000
0010
0000
0002
0003
0000
0000
;

//--------------- dance-single - ----------------
#NOTES:
     dance-single:
     :
     Easy:
     7:
     0,0,0,0,0:
0000
0000
0000
0000
,
0000
0000
0000
0000
,
1001
0000
0000
0000
0000
0000
0000
1001
,
0000
0000
0000
0000
,
1001
0000
0000
0000
0000
0000
0000
1001
,
0000
0000
0000
0000
,
1001
0000
0000
0000
0000
0000
0000
1001
,
0000
0000
0000
0000
,
1001
0000
0000
0000
0000
0000
0000
1001
,
0000
0000
0000
0000
,
1000
0100
0010
0001
,
1000
0010
0100
0001
,
1000
1000
0001
0001
,
0100
0100
0010
0010
,
1000
0100
0010
0001
,
1000
0010
0100
0001
,
1000
0100
0010
0001
1000
0010
0100
0001
,
1000
0100
0010
0100
1000
0001
1000
0000
,
1001
0000
0010
0000
0001
1000
0001
0000
,
0100
0000
0010
0000
1000
0001
1000
0000
,
0100
0000
0010
0000
0001
1000
0001
0000
,
0010
0000
0100
0000
1000
0001
1000
0000
,
0001
0000
1001
0000
1000
0100
0010
0000
,
0001
0000
0010
0000
0100
1000
0010
0000
,
0100
0000
0001
0000
0100
0010
1000
0000
,
0100
0000
0010
0000
0001
1000
0001
0000
,
1001
1000
0100
0010
,
0001
0010
0100
1000
,
1001
1000
1001
0001
,
1001
1000
1001
0001
,
1000
1001
0100
0010
,
0001
0010
0100
1000
,
0010
0100
0010
1000
,
0100
0010
0100
1000
,
1001
0001
1001
1000
,
1001
0000
0001
0000
2000
3000
1001
0000
,
0001
0010
0100
1000
,
0001
0000
2002
0000
3003
0220
0000
0330
,
1001
0100
0010
0001
,
0010
0000
0000
0000
0100
0000
0000
0000
2000
0000
3002
0003
1001
0000
0000
0000
,
0001
1001
1000
1001
,
0110
1001
0110
1001
,
0000
1001
0000
0000
1000
0000
0100
0000
,
0010
0000
0001
1000
0001
1000
1001
0000
,
0000
1001
0000
0000
0001
0000
0010
0000
,
0100
0000
1000
0001
1000
0001
1001
0000
,
0000
1001
0000
0000
1000
0000
0010
0000
,
0100
0000
0001
1000
0001
1000
1001
0000
,
0000
0110
0000
0000
0001
0000
0100
0000
,
0010
0000
1000
0001
1000
0001
1001
0000
,
0000
0110
0000
0000
0000
0000
1000
0000
,
0000
0001
0000
0000
0000
0000
1001
0000
,
0000
0110
0000
0000
0000
0000
0001
0000
,
0000
1000
0000
0000
0000
0000
1001
0000
,
0000
0110
0000
0000
0000
0000
1000
0000
,
0000
0001
0000
0000
0000
0000
1001
0000
,
0000
0110
0000
0000
0000
0000
0000
0000
,
0000
1000
0000
1001
,
0010
0100
1000
0100
,
0010
0001
1000
1001
,
0001
0010
0100
1000
,
0100
0010
0001
1001
,
1000
0100
0010
0001
,
0010
0100
1000
1001
,
0001
0000
1001
0000
1000
0000
1000
0100
,
0010
0001
1000
0010
0100
0001
1000
0000
,
0100
0000
0010
0001
0010
0000
0001
0000
,
0100
0000
0010
1000
0010
0000
1000
0000
,
0100
0000
0010
0001
0010
0000
0001
0000
,
0100
0000
0010
1000
0010
0000
1000
0000
,
0100
0000
0010
0001
0010
0000
0001
0000
,
0100
0000
0010
1000
0010
0000
0000
1001
,
0000
0100
0000
0000
0110
0000
0000
0001
0000
0000
1001
0000
0000
0010
0000
0000
,
0110
1000
1000
0100
0010
0001
1000
0000
,
0010
0000
0100
0001
0100
0000
0001
0000
,
0010
0000
0100
1000
0100
0000
1000
0000
,
0010
0000
0100
0001
0100
0000
0001
0000
,
0010
0000
0100
1000
0100
0000
1000
0000
,
0010
0000
0100
0001
0100
0000
0001
0000
,
0010
0000
0100
1000
0100
0000
1000
0100
,
0010
0001
1000
0010
0100
0001
1000
0100
,
0010
0100
1000
0010
0100
0010
1000
0000
,
0000
1001
0000
0000
0000
0000
0000
0000
,
0000
0000
0020
0000
0000
0030
0001
0000
,
0000
1001
0000
0000
0000
0000
0000
0000
,
0000
0000
0200
0000
0000
0300
1000
0000
,
0000
1001
0000
0000
0000
0000
0000
0000
,
0000
0000
0000
0001
,
0000
1001
0000
0000
0000
0000
1000
0100
,
0010
0001
0010
0100
2000
3000
0000
0000
;

//--------------- dance-single - ----------------
#NOTES:
     dance-single:
     :
     Medium:
     10:
     0,0,0,0,0:
0000
0000
0000
0000
,
0000
0000
0000
0000
,
1001
0000
0000
0000
0000
0000
0000
0110
,
0000
0000
0000
0000
,
1010
0000
0000
0000
0000
0000
0000
0101
,
0000
0000
0000
0000
,
0011
0000
0000
0000
0000
0000
0000
1100
,
0000
0000
0000
0000
,
0110
0000
0000
0000
0000
0000
0000
1001
,
0000
0000
0000
1001
0000
0000
0000
0000
,
1000
0100
0010
0001
,
1000
0010
0100
0001
,
1000
0100
0010
0100
,
1000
0010
0100
0010
,
1000
1000
0100
0100
,
0010
0010
0001
0001
,
1000
0100
0010
0001
1000
0010
0100
0001
,
1000
0100
1000
0100
1000
0100
0010
0001
0010
0001
0010
0001
1000
0000
0000
0000
,
1001
0000
0100
0010
0100
0001
0010
0000
,
1001
0000
0010
0100
0010
1000
0100
0000
,
1001
0000
0010
0100
0010
0100
1000
0000
,
1001
0000
0100
0010
0100
0010
0001
0000
,
1000
0000
1001
0000
0010
0100
0010
0000
,
1001
0000
0100
0010
0001
0010
0100
0000
,
1000
0000
1001
0000
0010
0100
0010
0000
,
1000
0100
0010
0001
1000
0001
1000
0000
,
1000
0100
1000
0000
0001
0100
0001
0000
,
1000
0010
1000
0000
0001
0010
0001
0000
,
1000
0010
0100
0001
,
1000
0100
0010
0001
,
1000
0010
1000
0000
0001
0010
0001
0000
,
1000
0100
1000
0000
0001
0100
0001
0000
,
1000
0100
0010
0001
,
1000
0010
0100
0001
,
1000
0000
0100
0000
0010
0001
0010
0000
,
0001
1000
0001
0000
1000
0001
1000
0100
,
0010
0000
0001
0010
0100
0000
1000
0001
,
1000
0000
1001
0000
0000
0110
0000
0000
,
1000
0010
0100
0000
0001
0100
0010
0000
,
1000
0000
0000
0001
0000
0000
1000
0000
0000
0000
0000
0000
1000
0100
0010
0001
0000
0000
1001
0000
0000
0000
0000
0000
,
1000
0000
1001
0000
0001
0000
1000
0100
,
0010
0001
0100
0010
1000
0000
1000
0100
,
1000
0100
1000
0100
1000
0100
0010
0001
,
0010
0001
0010
0001
0010
0001
1000
0010
,
1000
0010
1000
0010
1000
0010
0100
0001
,
0100
0001
0100
0001
0100
0001
1000
0100
,
0010
0001
1000
0001
0010
0100
1000
0010
,
0100
0001
1000
0001
0100
0010
1000
0100
,
0010
0001
1000
0001
0100
0010
1000
0010
,
0100
0001
1000
0001
0010
0100
1001
0000
,
0000
1001
0000
0000
0000
0000
0110
0000
,
0000
0110
0000
0000
0000
0000
1001
0000
,
0000
1001
0000
0000
0000
0000
0110
0000
,
0000
0110
0000
0000
0000
0000
1001
0000
,
0000
1001
0000
0000
0000
0000
0110
0000
,
0000
0110
0000
0000
0000
0000
1001
0000
,
0000
1001
0000
0000
0000
0000
0000
0000
,
0000
0000
1000
0100
0010
0001
1000
0000
,
0100
0010
0001
1000
,
0100
0010
0001
1000
,
0010
0100
0001
1000
,
0010
0100
0001
1000
,
0100
0010
0100
1000
,
0010
0000
0100
0000
0010
0000
1000
0100
,
0010
0000
0001
0000
1000
0000
0010
0000
0100
0000
0001
0000
1000
0010
1000
0010
,
1000
0010
1000
0010
0100
0001
0100
0001
0100
0001
0100
0001
1000
0000
0000
0000
,
0100
0010
0001
1000
,
0010
0100
0001
1000
,
0100
0010
0001
1000
,
0010
0000
0100
0000
0001
0000
1000
0100
,
0010
0000
0001
0100
0010
0000
1000
0100
,
0010
0000
0001
0100
0010
0000
0000
1001
,
0000
1001
0000
0000
1001
0000
0000
1001
0000
0000
1001
0000
0000
1001
0000
0000
,
1001
0000
1001
0000
1000
0100
1000
0100
0010
0001
0010
0001
1000
0000
0000
0000
,
0010
0100
0001
1000
,
0100
0010
0001
1000
,
0010
0100
0001
1000
,
0100
0010
0001
1000
,
0100
0010
0001
1000
,
0010
0000
0100
0000
0001
0000
1000
1000
,
0100
0100
0010
0010
0001
0001
1000
0100
,
0010
0001
1000
0010
0100
0001
1001
0000
,
0000
1001
0000
0000
0000
0000
0000
0000
,
0000
0000
0100
0010
0100
0010
0110
0000
,
0000
0110
0000
0000
0000
0000
0000
0000
,
0000
0000
0001
1000
0001
1000
1001
0000
,
0000
1001
0000
0000
0000
0000
0000
0000
,
0000
0000
0000
0110
,
0000
0110
0000
0000
0000
0000
1000
0100
,
0010
0001
0100
0010
1001
0000
0000
0000
;

//--------------- dance-single - ----------------
#NOTES:
     dance-single:
     :
     Hard:
     12:
     0,0,0,0,0:
0000
0000
0000
0000
,
0000
0000
0000
0000
,
1000
0000
0100
0000
0010
0001
0000
1000
,
0000
0010
0000
0100
0001
0000
1000
0000
,
0100
0000
0010
0000
0001
0100
0000
0010
,
0000
1000
0000
1000
0100
0010
0001
1000
,
0001
0000
0010
0000
0100
1000
0000
0001
,
0000
0100
0000
0010
1000
0000
0001
0000
,
0010
0000
0100
0000
1000
0100
0000
0010
,
0000
0001
0000
1000
0100
0010
0001
0001
,
1000
1000
0100
0100
,
0010
0010
0001
0001
,
1000
1000
0010
0010
,
0100
0100
0001
0001
,
1000
1000
0100
0100
,
0010
0010
0001
0001
,
1000
1000
0100
0100
0010
0010
0001
0001
,
1000
0100
1000
0100
0010
0001
0010
0001
1000
0010
1000
0010
0100
0000
0001
0000
,
1000
0100
0010
0001
0010
0000
0100
0000
1000
0000
0100
0000
0010
0000
0001
0000
,
1000
0010
0100
0010
1000
0100
0010
0100
,
1000
0010
0100
0001
1000
0010
0100
0001
,
1000
0100
0010
0100
1000
0010
0100
0010
,
1000
0010
0100
0001
0100
0000
0010
0000
1000
0000
0010
0000
0100
0000
0001
0000
,
1000
0100
0010
0100
1000
0010
0100
0010
,
1000
0100
0010
0001
1000
0100
0010
0001
,
1000
0010
0100
0010
1000
0100
0010
0100
,
1000
0000
0100
0000
0010
0001
0000
0000
1000
0000
0100
0010
0000
0100
0010
0000
,
0100
0010
0001
0000
0010
0000
0100
0000
1000
0000
0100
0000
0010
0000
0001
0000
,
1000
0100
1000
0000
0001
0100
0001
0000
1000
0010
1000
0000
0001
0010
0001
0000
,
1000
0100
0010
0000
0001
0100
0010
0000
1000
0100
0010
0000
0001
0100
0010
0000
,
1000
0000
0010
0000
0100
0001
0000
0000
1000
0000
0010
0100
0000
0010
0100
0000
,
0010
0100
0001
0000
0100
0000
0010
0000
1000
0000
0010
0000
0100
0000
0001
0000
,
1000
0010
1000
0000
0001
0010
0001
0000
1000
0100
1000
0000
0001
0100
0001
0000
,
1000
0010
0100
0000
0001
0010
0100
0000
1000
0010
0100
0000
0001
0010
0100
0000
,
1000
0100
0010
0001
0100
0010
1000
0001
,
1000
0000
0100
0000
0010
0000
0001
0000
1000
0100
0010
0001
1000
0000
0010
0000
,
0100
0001
0010
0100
1000
0001
1000
0010
,
0100
0001
1000
0100
0000
0010
0001
0000
,
1000
0100
0010
0100
1000
0010
0100
0010
,
1000
0000
0000
0100
0000
0000
0010
0000
0000
0001
0000
0000
1000
0010
0100
0001
0000
0000
1000
0000
0000
0100
0000
0000
,
0010
0001
1000
0010
0100
0001
1000
1000
,
0001
0000
0001
0000
0100
0000
0100
0000
0010
0000
0010
0000
1000
0100
0010
0001
,
1000
0000
1000
0100
0010
0001
1000
0000
1000
0100
0010
0001
1000
0000
1000
0100
,
0010
0001
1000
0000
1000
0100
0010
0001
0100
0010
1000
0000
0001
0010
0100
1000
,
0001
0000
0001
0010
0100
1000
0001
0000
0001
0010
0100
1000
0001
0000
0001
0010
,
0100
1000
0001
0000
0001
0010
0100
1000
0010
0100
0001
0000
1000
0010
0100
0001
,
1000
0000
1000
0010
0100
0001
1000
0000
1000
0010
0100
0001
1000
0000
1000
0010
,
0100
0001
1000
0000
1000
0010
0100
0001
0010
0100
1000
0000
0001
0100
0010
1000
,
0001
0000
0001
0100
0010
1000
0001
0000
0001
0100
0010
1000
0001
0000
0001
0100
,
0010
1000
0001
0000
0001
0100
0010
1000
0100
0010
0001
0000
1000
0000
0000
0000
,
0000
0001
0000
0000
0000
0000
0100
0000
,
0000
0010
0000
0000
0000
0000
1000
0000
,
0000
0001
0000
0000
0000
0000
0010
0000
,
0000
0100
0000
0000
0000
0000
1000
0000
,
0000
0001
0000
0000
0000
0000
0100
0000
,
0000
0010
0000
0000
0000
0000
0001
0000
,
0000
1000
0000
0000
0000
0000
0000
0000
,
0000
0000
0000
0000
1000
0100
0010
0001
1000
0010
0100
0001
1000
0100
1000
0100
,
1000
0000
0001
0100
0001
0100
0001
0000
1000
0010
1000
0010
1000
0000
0001
0010
,
0001
0010
0001
0000
1000
0100
0010
0001
0010
0100
1000
0000
0001
0100
0001
0100
,
0001
0000
1000
0100
1000
0100
1000
0000
0001
0010
0001
0010
0001
0000
1000
0010
,
1000
0010
1000
0000
0001
0100
0010
1000
0010
0100
0001
0000
1000
0010
1000
0010
,
1000
0000
0001
0010
0001
0010
0001
0000
1000
0100
1000
0100
1000
0000
0001
0100
,
0001
0100
0001
0000
1000
0010
0100
0001
0100
0010
1000
0000
0001
0010
0001
0010
,
0001
0000
1000
0010
1000
0010
1000
0000
0001
0100
0001
0100
0001
0000
1000
0100
,
1000
0100
1000
0000
0001
0010
0100
1000
0100
0010
0001
0000
1000
0100
1000
0000
,
0100
0000
0010
0000
0001
0010
0001
0000
0010
0000
0100
0000
1000
0010
1000
0000
,
0010
0000
0100
0000
0001
0100
0001
0000
0100
0000
0010
0000
1000
0010
1000
0000
,
0100
0000
0010
0000
0001
0100
0001
0000
0010
0000
0100
0000
1000
0100
1000
0000
,
0010
0000
0100
0000
0001
0010
0001
0000
0100
0000
0010
0000
1000
0100
1000
0000
,
0100
0000
0010
0000
0001
0100
0001
0000
0100
0000
0010
0000
1000
0010
1000
0000
,
0010
0000
0100
0000
0001
0010
0001
0000
0010
0000
0100
0000
1000
0000
1000
0000
,
0000
0100
0000
0000
0010
0000
0000
0001
0000
0000
1000
0000
0000
0010
0000
0000
,
0100
0000
0001
0000
1000
0100
0010
0001
1000
0010
0100
0001
1000
0000
0100
0000
,
0010
0001
1000
0001
0100
0010
1000
0100
,
0010
0100
1000
0010
0100
0010
1000
0010
,
0100
0001
1000
0001
0010
0100
1000
0010
,
0100
0010
1000
0100
0010
0100
1000
0100
,
0010
0001
1000
0010
0100
0001
1000
0100
,
0010
0100
1000
0010
0100
0010
1000
1000
,
0010
0000
0010
0000
0100
0000
0100
0000
0001
0000
0001
0000
1000
0100
1000
0100
,
0010
0001
0010
0001
1000
0010
1000
0010
0100
0001
0100
0001
1001
0000
0000
0000
,
0000
1001
0000
0000
0000
0000
0000
0000
,
0000
0000
0000
0000
0100
0010
0100
0010
0100
0010
0100
0010
0110
0000
0000
0000
,
0000
0110
0000
0000
0000
0000
0000
0000
,
0000
0000
0000
0000
1000
0100
1000
0100
1000
0100
1000
0100
1010
0000
0000
0000
,
0000
1010
0000
0000
0000
0000
0000
0000
,
0000
0000
0000
0011
,
0000
0000
0011
0000
0000
0000
0000
0000
0000
0000
0000
0000
1000
0100
0010
0100
,
1000
0010
0100
0010
1000
0100
0010
0001
1000
0000
0000
0000
0000
0000
0000
0000
;

//--------------- dance-single - ----------------
#NOTES:
     dance-single:
     :
     Challenge:
     14:
     0,0,0,0,0:
0000
0000
0000
0000
,
1000
0100
1000
0100
0010
0001
0010
0001
1000
0100
0010
0001
1000
0000
0001
0000
,
1000
0000
0100
0000
0010
0001
0000
1000
,
0000
0010
0000
0100
0001
0000
1000
0000
,
0100
0000
0010
0000
0001
1000
0000
0001
,
0000
0000
0000
1000
0000
0000
0000
0000
0000
1000
0010
0100
0001
0100
0001
1000
0100
0010
0001
1000
0010
0100
0001
1000
,
0001
0000
0010
0000
0100
0001
0000
1000
,
0000
0000
0000
0100
0000
0000
0000
0000
0000
0010
0000
0000
0001
0000
0000
0000
0000
0000
1000
0000
0000
0100
0010
0100
,
0010
0000
0100
0000
0001
1000
0000
0001
,
0000
0000
1000
0000
0000
0000
1000
0010
0100
0010
1000
0001
1000
0010
0100
0001
,
1000
0000
1000
0000
1000
1000
1000
0000
,
0100
0000
0100
0100
0100
0000
0100
0000
,
0010
0000
0010
0000
0010
0010
0010
0000
,
0001
0000
0000
0000
0000
0000
0001
0000
0000
0001
0000
0000
0001
0000
0000
0001
0000
0000
1000
0100
0010
0001
0010
0100
,
1000
1000
1000
1000
0100
0100
0100
0100
,
0010
0010
0010
0010
0001
0001
0001
0001
,
1000
1000
0010
0010
0100
0100
0001
0001
,
1000
0000
0000
0100
0000
0000
0010
0000
0000
0100
0000
0000
1000
0000
0000
0010
0000
0000
0100
0000
0000
0010
0000
0000
1000
0000
0100
0000
0010
0000
0001
0000
0010
0000
0100
0000
1000
0000
0000
0000
0000
0000
0001
0000
0000
0000
0000
0000
,
1000
0100
1000
0001
0100
0010
1000
0001
0010
0100
0010
0001
1000
0010
0100
0001
,
1000
0010
1000
0001
0010
0100
1000
0001
0100
0010
0100
0001
1000
0100
0010
0001
,
1000
0100
1000
0001
0100
0010
1000
0001
0010
0100
0010
0001
1000
0010
0100
0001
,
1000
0010
1000
0001
0010
0100
1000
0001
0100
0010
0100
0001
1000
0100
0010
0001
,
1000
0100
1000
0001
0010
0100
1000
0001
0100
0010
0100
0001
1000
0100
0010
0001
,
1000
0010
1000
0001
0100
0010
1000
0001
0010
0100
0010
0001
1000
0010
0100
0001
,
1000
0100
1000
0001
0010
0100
1000
0001
0100
0010
0100
0001
1000
0100
0010
0001
,
1000
0010
1000
0001
0100
0010
1000
0001
0010
0100
0010
0001
1000
0010
0100
0001
,
1000
0100
0010
0100
1000
0001
0100
0010
1000
0001
0010
0001
1000
0010
0100
0001
,
1000
0010
0100
0010
1000
0001
0010
0100
1000
0001
0100
0001
1000
0100
0010
0001
,
1000
0100
0010
0100
1000
0001
0100
0010
1000
0001
0010
0001
1000
0010
0100
0001
,
1000
0010
0100
0010
1000
0001
0010
0100
1000
0001
0100
0001
1000
0100
0010
0001
,
1000
0100
0010
0100
1000
0001
0010
0100
1000
0001
0100
0001
1000
0100
0010
0001
,
1000
0010
0100
0010
1000
0001
0100
0010
1000
0001
0010
0001
1000
0010
0100
0001
,
1000
0100
0010
0100
1000
0001
0010
0100
1000
0001
0100
0001
1000
0100
0010
0001
,
1000
0000
0000
0010
0000
0000
0100
0000
0000
0010
0000
0000
1000
0000
0000
0001
0000
0000
0100
0000
0000
0010
0000
0000
1000
0000
0000
0001
0000
0000
0010
0000
0000
0001
0000
0000
1000
0000
0010
0000
0100
0000
0001
0000
0010
0000
0100
0000
,
1000
0100
1000
0100
0010
0001
0010
0001
1000
0010
1000
0010
0100
0001
0100
0001
,
1000
0100
0010
0001
1000
0010
0100
0001
1000
0001
1000
0001
1000
0010
1000
0010
,
0100
0001
0100
0001
1000
0100
1000
0100
0010
0001
0010
0001
1000
0010
0100
0001
,
1000
0100
0010
0001
1000
0100
0010
0000
0000
0000
0001
0010
0100
0000
0000
0000
,
1000
0100
1000
0100
0010
0001
0010
0001
1000
0010
1000
0010
0100
0001
0100
0001
,
1000
0000
0000
0010
0000
0000
0100
0000
0000
0001
0000
0000
1000
0000
0000
0100
0000
0000
0010
0000
0000
0001
0000
0000
1000
0000
0100
0000
0010
0000
0001
0000
0000
0000
0000
0000
1000
0000
0000
0010
0000
0000
1000
0000
0000
0010
0000
0000
,
0100
0001
0100
0001
1000
0100
1000
0100
0010
0001
0010
0001
1000
0100
0010
0001
,
1000
0010
0100
0001
1000
0100
0010
0100
1000
0010
0100
0010
1000
0100
0010
0100
,
0010
0100
1000
0100
0010
0100
0010
0100
0010
0100
0010
0100
0010
0100
0010
0100
,
0010
0100
0010
0100
0010
0001
0010
0001
0100
0001
0100
0001
1000
0010
0100
0010
,
0100
0010
1000
0010
0100
0010
0100
0010
0100
0010
0100
0010
0100
0010
0100
0010
,
0100
0010
0100
0010
0100
0001
0100
0001
0010
0001
0010
0001
1000
0100
0010
0100
,
0010
0100
1000
0100
0010
0100
0010
0100
0010
0100
0010
0100
0010
0100
0010
0100
,
0010
0100
0010
0100
0010
0001
0010
0001
0100
0001
0100
0001
1000
0010
0100
0010
,
0100
0010
1000
0010
0100
0010
0100
0010
0100
0010
0100
0010
0100
0010
0100
0010
,
0100
0010
0100
0010
0100
0001
0100
0001
1000
0001
1000
0001
1000
0100
1000
0100
,
1000
0100
1000
0100
1000
0100
1000
0100
1000
0100
1000
0100
1000
0100
1000
0100
,
1000
0100
1000
0100
1000
0100
1000
0100
1000
0100
1000
0100
0010
0001
0010
0001
,
0010
0001
0010
0001
0010
0001
0010
0001
0010
0001
0010
0001
0010
0001
0010
0001
,
0010
0001
0010
0001
0010
0001
0010
0001
0010
0001
0010
0001
1000
0010
1000
0010
,
1000
0010
1000
0010
1000
0010
1000
0010
1000
0010
1000
0010
1000
0010
1000
0010
,
1000
0010
1000
0010
1000
0010
1000
0010
1000
0010
1000
0010
0100
0001
0100
0001
,
0100
0001
0100
0001
0100
0001
0100
0001
0100
0001
0100
0001
0100
0001
0100
0001
,
0100
0001
0100
0001
0100
0010
0100
0010
0100
0010
0100
0010
1000
0100
0010
0001
,
0010
0100
1000
0100
0010
0001
0010
0100
1000
0100
0010
0001
0010
0100
1000
0100
,
0010
0001
0010
0100
1000
0100
0010
0001
1000
0010
0100
0001
1000
0010
0100
0001
,
0100
0010
1000
0010
0100
0001
0100
0010
1000
0010
0100
0001
0100
0010
1000
0010
,
0100
0001
0100
0010
1000
0010
0100
0001
1000
0100
0010
0001
1000
0100
0010
0001
,
0100
0010
1000
0100
0010
0001
0100
0010
1000
0100
0010
0001
0100
0010
1000
0100
,
0010
0001
0100
0010
1000
0100
0010
0001
1000
0010
0100
0001
1000
0010
0100
0001
,
0010
0100
1000
0010
0100
0001
0010
0100
1000
0010
0100
0001
0010
0100
1000
0010
,
0100
0001
0010
0100
1000
0010
0100
0001
1000
0100
0010
0001
1000
0100
1000
0001
,
0100
0010
1000
0001
0010
0100
0010
0001
1000
0010
0100
0001
1000
0010
1000
0001
,
0010
0100
1000
0001
0100
0010
0100
0001
1000
0100
0010
0001
1000
0100
0010
0100
,
1000
0001
0100
0010
1000
0001
0010
0001
1000
0010
0100
0001
1000
0010
0100
0010
,
1000
0001
0010
0100
1000
0001
0100
0001
1000
0100
0010
0001
1000
0100
1000
0001
,
0100
0010
0100
0001
1000
0100
0010
0100
1000
0001
0100
0001
1000
0010
1000
0001
,
0010
0000
0100
0000
0010
0000
0001
0000
1000
0000
0010
0000
0100
0000
0010
0000
1000
0000
0001
0000
0010
0000
0001
0000
1000
0000
0100
0000
0010
0001
0010
0000
,
0001
0000
0010
0100
0010
0000
0100
0000
1000
0100
1000
0000
0100
0000
0010
0001
0010
0000
0001
0000
0100
0010
0100
0000
0010
0000
1000
0010
1000
0000
0010
0000
,
0100
0000
0000
0001
0000
0000
0100
0000
0000
0000
0000
0000
0001
0000
0000
1000
0000
0000
0001
0000
0000
0000
0000
0000
1000
0000
0000
0000
0100
0000
0000
0000
0010
0000
0000
0000
0001
0000
0000
0000
0010
0000
0000
0000
0100
0000
0000
0000
1000
0000
0000
0000
0010
0000
0000
0000
0100
0000
0000
0000
0001
0000
0000
0000
0100
0000
0000
0000
0010
0000
0000
0000
1000
0000
0000
0000
0000
0000
0100
0000
0000
0000
0000
0000
1000
0000
0000
0000
0000
0000
0001
0000
0000
0000
0000
0000
,
0010
0100
1000
0001
0100
0010
0100
0001
1000
0100
0010
0001
1000
0010
1000
0001
,
0100
0010
1000
0001
0010
0100
0010
0001
1000
0010
0100
0001
1000
0100
0010
0100
,
1000
0001
0010
0100
1000
0001
0100
0001
1000
0100
0010
0001
1000
0010
0100
0010
,
1000
0001
0100
0010
1000
0001
0010
0001
1000
0010
0100
0001
1000
0100
1000
0001
,
0010
0100
0010
0001
1000
0010
0100
0010
1000
0001
0100
0001
1000
0010
1000
0001
,
0100
0010
0100
0001
1000
0100
0010
0100
1000
0001
0010
0001
1000
0100
1000
0100
,
0010
0001
0010
0001
1000
0010
1000
0010
0100
0001
0100
0001
1000
0001
1000
0001
,
0100
0000
0000
0010
0000
0000
0100
0000
0000
0010
0000
0000
1000
0000
0100
0000
0010
0000
0100
0000
1000
0000
0001
0000
0100
0000
0001
0000
1000
0000
0010
0000
0100
0000
0010
0000
1000
0000
0000
0000
0000
0000
0000
0000
0000
0000
0000
0000
,
0000
0001
0000
0000
0000
0000
0000
0000
,
0000
0000
0000
0000
0000
0000
0001
0100
0010
0100
0001
0010
0100
1000
0010
0100
0001
1000
0100
0000
0000
0000
0000
0000
,
0000
0010
0000
0000
0000
0000
0000
0000
,
0000
0000
0000
0000
0000
0000
0000
0000
1000
0100
1000
0100
1000
0100
1000
0100
1000
0000
0100
0000
0010
0000
0001
0000
1000
0000
0000
0000
0000
0000
0000
0000
,
0000
0001
0000
0000
0000
0000
0000
0000
,
0000
0000
0000
0100
,
0000
0000
0010
0000
0000
0000
0000
0000
0000
0000
0000
0000
1000
0100
1000
0100
,
0010
0000
0000
0001
0000
0000
0010
0000
0000
0001
0000
0000
1000
0000
0000
0000
0010
0000
0000
0000
0100
0000
0000
0000
0001
0000
0000
0000
0000
0000
0000
0000
0000
0000
0000
0000
0000
0000
0000
0000
0000
0000
0000
0000
0000
0000
0000
0000
;

//--------------- dance-single - ----------------
#NOTES:
     dance-single:
     :
     Edit:
     20:
     0,0,0,0,0:
0000
0000
0000
0000
,
1000
0100
1000
0100
0010
0001
0010
0001
1000
0100
0010
0001
1000
0000
0001
0000
,
1000
0000
0100
0000
0010
0001
0000
1000
,
0000
0010
0000
0100
0001
0000
1000
0000
,
0100
0000
0010
0000
0001
1000
0000
0001
,
0000
0000
0000
1000
0000
0000
0000
0000
0000
1000
0010
0100
0001
0100
0001
1000
0100
0010
0001
1000
0010
0100
0001
1000
,
0001
0000
0010
0000
0100
0001
0000
1000
,
0000
0000
0000
0100
0000
0000
0000
0000
0000
0010
0000
0000
0001
0000
0000
0000
0000
0000
1000
0000
0000
0100
0010
0100
,
0010
0000
0100
0000
0001
1000
0000
0001
,
0000
0000
1000
0000
0000
0000
1000
0010
0100
0010
1000
0001
1000
0010
0100
0001
,
1000
0000
1000
0000
1000
1000
1000
0000
,
0100
0000
0100
0100
0100
0000
0100
0000
,
0010
0000
0010
0000
0010
0010
0010
0000
,
0001
0000
0000
0000
0000
0000
0001
0000
0000
0001
0000
0000
0001
0000
0000
0001
0000
0000
1000
0100
0010
0001
0010
0100
,
1000
1000
1000
1000
0100
0100
0100
0100
,
0010
0010
0010
0010
0001
0001
0001
0001
,
1000
1000
0010
0010
0100
0100
0001
0001
,
1000
0000
0000
0100
0000
0000
0010
0000
0000
0100
0000
0000
1000
0000
0000
0010
0000
0000
0100
0000
0000
0010
0000
0000
1000
0000
0100
0000
0010
0000
0001
0000
0010
0000
0100
0000
1000
0000
0000
0000
0000
0000
0001
0000
0000
0000
0000
0000
,
1000
0100
1000
0001
0100
0010
1000
0001
0010
0100
0010
0001
1000
0010
0100
0001
,
1000
0010
1000
0001
0010
0100
1000
0001
0100
0010
0100
0001
1000
0100
0010
0001
,
1000
0100
1000
0001
0100
0010
1000
0001
0010
0100
0010
0001
1000
0010
0100
0001
,
1000
0010
1000
0001
0010
0100
1000
0001
0100
0010
0100
0001
1000
0100
0010
0001
,
1000
0100
1000
0001
0010
0100
1000
0001
0100
0010
0100
0001
1000
0100
0010
0001
,
1000
0010
1000
0001
0100
0010
1000
0001
0010
0100
0010
0001
1000
0010
0100
0001
,
1000
0100
1000
0001
0010
0100
1000
0001
0100
0010
0100
0001
1000
0100
0010
0001
,
1000
0010
1000
0001
0100
0010
1000
0001
0010
0100
0010
0001
1000
0010
0100
0001
,
1000
0100
0010
0100
1000
0001
0100
0010
1000
0001
0010
0001
1000
0010
0100
0001
,
1000
0010
0100
0010
1000
0001
0010
0100
1000
0001
0100
0001
1000
0100
0010
0001
,
1000
0100
0010
0100
1000
0001
0100
0010
1000
0001
0010
0001
1000
0010
0100
0001
,
1000
0010
0100
0010
1000
0001
0010
0100
1000
0001
0100
0001
1000
0100
0010
0001
,
1000
0100
0010
0100
1000
0001
0010
0100
1000
0001
0100
0001
1000
0100
0010
0001
,
1000
0010
0100
0010
1000
0001
0100
0010
1000
0001
0010
0001
1000
0010
0100
0001
,
1000
0100
0010
0100
1000
0001
0010
0100
1000
0001
0100
0001
1000
0100
0010
0001
,
1000
0000
0000
0010
0000
0000
0100
0000
0000
0010
0000
0000
1000
0000
0000
0001
0000
0000
0100
0000
0000
0010
0000
0000
1000
0000
0000
0001
0000
0000
0010
0000
0000
0001
0000
0000
1000
0000
0010
0000
0100
0000
0001
0000
0010
0000
0100
0000
,
1000
0100
1000
0100
0010
0001
0010
0001
1000
0010
1000
0010
0100
0001
0100
0001
,
1000
0100
0010
0001
1000
0010
0100
0001
1000
0001
1000
0001
1000
0010
1000
0010
,
0100
0001
0100
0001
1000
0100
1000
0100
0010
0001
0010
0001
1000
0010
0100
0001
,
1000
0100
0010
0001
1000
0100
0010
0000
0000
0000
0001
0010
0100
0000
0000
0000
,
1000
0100
1000
0100
0010
0001
0010
0001
1000
0010
1000
0010
0100
0001
0100
0001
,
1000
0000
0000
0010
0000
0000
0100
0000
0000
0001
0000
0000
1000
0000
0000
0100
0000
0000
0010
0000
0000
0001
0000
0000
1000
0000
0100
0000
0010
0000
0001
0000
0000
0000
0000
0000
1000
0000
0000
0010
0000
0000
1000
0000
0000
0010
0000
0000
,
0100
0001
0100
0001
1000
0100
1000
0100
0010
0001
0010
0001
1000
0100
0010
0001
,
1000
0000
0000
0010
0000
0000
0100
0000
0000
0001
0000
0000
1000
0000
0000
0100
0000
0000
0010
0000
0000
0100
0000
0000
1000
0000
0000
0010
0000
0000
0100
0000
0000
0010
0000
0000
1000
0000
0100
0000
0010
0000
0100
0000
0010
0000
0100
0000
,
0010
0100
0010
0001
0010
0100
0010
0100
0010
0100
0010
0100
0010
0100
0010
0100
0010
0100
0010
0100
0010
0100
0010
0100
,
0010
0100
0010
0100
0010
0100
0010
0001
0010
0001
0010
0001
0100
0001
0100
0001
0100
0001
1000
0010
0100
0010
0100
0010
,
0100
0010
0100
0001
0100
0010
0100
0010
0100
0010
0100
0010
0100
0010
0100
0010
0100
0010
0100
0010
0100
0010
0100
0010
,
0100
0010
0100
0010
0100
0010
0100
0001
0100
0001
0100
0001
0010
0001
0010
0001
0010
0001
1000
0100
0010
0100
0010
0100
,
0010
0100
0010
0001
0010
0100
0010
0100
0010
0100
0010
0100
0010
0100
0010
0100
0010
0100
0010
0100
0010
0100
0010
0100
,
0010
0100
0010
0100
0010
0100
0010
0001
0010
0001
0010
0001
0100
0001
0100
0001
0100
0001
1000
0010
0100
0010
0100
0010
,
0100
0010
0100
0001
0100
0010
0100
0010
0100
0010
0100
0010
0100
0010
0100
0010
0100
0010
0100
0010
0100
0010
0100
0010
,
0100
0010
0100
0010
0100
0010
0100
0001
0100
0001
0100
0001
1000
0001
1000
0001
1000
0001
1000
0100
1000
0100
1000
0100
,
1000
0100
1000
0100
1000
0100
1000
0100
1000
0100
1000
0100
1000
0100
1000
0100
1000
0100
1000
0100
1000
0100
1000
0100
,
1000
0100
1000
0100
1000
0100
1000
0100
1000
0100
1000
0100
1000
0100
1000
0100
1000
0100
0010
0001
0010
0001
0010
0001
,
0010
0001
0010
0001
0010
0001
0010
0001
0010
0001
0010
0001
0010
0001
0010
0001
0010
0001
0010
0001
0010
0001
0010
0001
,
0010
0001
0010
0001
0010
0001
0010
0001
0010
0001
0010
0001
0010
0001
0010
0001
0010
0001
1000
0010
1000
0010
1000
0010
,
1000
0010
1000
0010
1000
0010
1000
0010
1000
0010
1000
0010
1000
0010
1000
0010
1000
0010
1000
0010
1000
0010
1000
0010
,
1000
0010
1000
0010
1000
0010
1000
0010
1000
0010
1000
0010
1000
0010
1000
0010
1000
0010
0100
0001
0100
0001
0100
0001
,
0100
0001
0100
0001
0100
0001
0100
0001
0100
0001
0100
0001
0100
0001
0100
0001
0100
0001
0100
0001
0100
0001
0100
0001
,
0100
0001
0100
0001
0100
0001
0100
0010
0100
0010
0100
0010
0100
0010
0100
0010
0100
0010
1000
0100
1000
0100
0010
0001
,
0010
0001
0010
0100
1000
0100
1000
0100
1000
0100
0010
0001
0010
0001
0010
0100
1000
0100
1000
0100
1000
0100
0010
0001
,
0010
0001
0010
0100
1000
0100
1000
0100
0010
0001
0010
0100
1000
0010
0100
0001
0100
0010
1000
0010
1000
0010
0100
0001
,
0100
0001
0100
0010
1000
0010
1000
0010
1000
0010
0100
0001
0100
0001
0100
0010
1000
0010
1000
0010
1000
0010
0100
0001
,
0100
0001
0100
0010
1000
0010
1000
0010
0100
0001
0100
0010
1000
0100
0010
0001
0010
0100
1000
0100
1000
0100
0010
0001
,
0010
0001
0100
0010
1000
0010
1000
0100
1000
0100
0010
0001
0010
0001
0100
0010
1000
0010
1000
0100
1000
0100
0010
0001
,
0010
0001
0100
0010
1000
0010
1000
0100
0010
0001
0010
0100
1000
0010
0100
0001
0100
0010
1000
0010
1000
0010
0100
0001
,
0100
0001
0010
0100
1000
0100
1000
0010
1000
0010
0100
0001
0100
0001
0010
0100
1000
0100
1000
0010
1000
0010
0100
0001
,
0100
0000
0001
0000
0010
0000
0100
0000
1000
0000
0100
0000
1000
0000
0010
0000
0100
0000
0001
0000
0100
0000
0010
0000
1000
0000
0100
0000
0010
0000
0001
0000
0010
0000
0100
0000
1000
0000
0000
0100
0000
0000
1000
0000
0000
0001
0000
0000
,
0100
0010
1000
0001
0010
0100
0010
0001
1000
0010
0100
0001
1000
0010
1000
0001
,
0010
0100
1000
0001
0100
0010
0100
0001
1000
0100
0010
0001
1000
0100
0010
0100
,
1000
0001
0100
0010
1000
0001
0010
0001
1000
0010
0100
0001
1000
0010
0100
0010
,
1000
0001
0010
0100
1000
0001
0100
0001
1000
0100
0010
0001
1000
0100
1000
0001
,
0100
0010
0100
0001
1000
0100
0010
0100
1000
0001
0100
0001
1000
0010
1000
0001
,
0010
0000
0100
0000
0010
0000
0001
0000
1000
0000
0010
0000
0100
0000
0010
0000
1000
0000
0001
0000
0010
0000
0001
0000
1000
0000
0100
0000
0010
0001
0010
0000
,
0001
0000
0010
0100
0010
0000
0100
0000
1000
0100
1000
0000
0100
0000
0010
0001
0010
0000
0001
0000
0100
0010
0100
0000
0010
0000
1000
0010
1000
0000
0010
0000
,
0100
0000
0000
0001
0000
0000
0100
0000
0000
0000
0000
0000
0001
0000
0000
1000
0000
0000
0001
0000
0000
0000
0000
0000
1000
0000
0000
0000
0100
0000
0000
0000
0010
0000
0000
0000
0001
0000
0000
0000
0010
0000
0000
0000
0100
0000
0000
0000
1000
0000
0000
0000
0010
0000
0000
0000
0100
0000
0000
0000
0001
0000
0000
0000
0100
0000
0000
0000
0010
0000
0000
0000
1000
0000
0000
0000
0000
0000
0100
0000
0000
0000
0000
0000
1000
0000
0000
0000
0000
0000
0001
0000
0000
0000
0000
0000
,
0010
0100
1000
0001
0100
0010
0100
0001
1000
0100
0010
0001
1000
0010
1000
0001
,
0100
0010
1000
0001
0010
0100
0010
0001
1000
0010
0100
0001
1000
0100
0010
0100
,
1000
0001
0010
0100
1000
0001
0100
0001
1000
0100
0010
0001
1000
0010
0100
0010
,
1000
0001
0100
0010
1000
0001
0010
0001
1000
0010
0100
0001
1000
0100
1000
0001
,
0010
0100
0010
0001
1000
0010
0100
0010
1000
0001
0100
0001
1000
0010
1000
0001
,
0100
0010
0100
0001
1000
0100
0010
0100
1000
0001
0010
0001
1000
0100
1000
0100
,
0010
0001
0010
0001
1000
0010
1000
0010
0100
0001
0100
0001
1000
0001
1000
0001
,
0100
0000
0000
0010
0000
0000
0100
0000
0000
0010
0000
0000
1000
0000
0100
0000
0010
0000
0100
0000
1000
0000
0001
0000
0100
0000
0001
0000
1000
0000
0010
0000
0100
0000
0010
0000
1000
0000
0000
0000
0000
0000
0000
0000
0000
0000
0000
0000
,
0000
0001
0000
0000
0000
0000
0000
0000
,
0000
0000
0000
0000
0000
0000
0001
0100
0010
0100
0001
0010
0100
1000
0010
0100
0001
1000
0100
0000
0000
0000
0000
0000
,
0000
0010
0000
0000
0000
0000
0000
0000
,
0000
0000
0000
0000
0000
0000
0000
0000
1000
0100
1000
0100
1000
0100
1000
0100
1000
0000
0100
0000
0010
0000
0001
0000
1000
0000
0000
0000
0000
0000
0000
0000
,
0000
0001
0000
0000
0000
0000
0000
0000
,
0000
0000
0000
0100
,
0000
0000
0010
0000
0000
0000
0000
0000
0000
0000
0000
0000
1000
0100
1000
0100
,
0010
0000
0000
0001
0000
0000
0010
0000
0000
0001
0000
0000
1000
0000
0000
0000
0010
0000
0000
0000
0100
0000
0000
0000
0001
0000
0000
0000
0000
0000
0000
0000
0000
0000
0000
0000
0000
0000
0000
0000
0000
0000
0000
0000
0000
0000
0000
0000
;
